  0
SECTION
  2
HEADER
  9
$ACADVER
  1
AC1015
  9
$ACADMAINTVER
 70
     6
  9
$DWGCODEPAGE
  3
DOS932
  9
$INSBASE
 10
0.0
 20
0.0
 30
0.0
  9
$EXTMIN
 10
0.0
 20
-2.25615332095569
 30
0.0
  9
$EXTMAX
 10
394.0
 20
268.0
 30
0.0
  9
$LIMMIN
 10
0.0
 20
0.0
  9
$LIMMAX
 10
12.0
 20
9.0
  9
$ORTHOMODE
 70
     0
  9
$REGENMODE
 70
     1
  9
$FILLMODE
 70
     1
  9
$QTEXTMODE
 70
     0
  9
$MIRRTEXT
 70
     1
  9
$LTSCALE
 40
1.0
  9
$ATTMODE
 70
     1
  9
$TEXTSIZE
 40
0.2
  9
$TRACEWID
 40
0.05
  9
$TEXTSTYLE
  7
Standard
  9
$CLAYER
  8
0
  9
$CELTYPE
  6
ByLayer
  9
$CECOLOR
 62
   256
  9
$CELTSCALE
 40
1.0
  9
$DISPSILH
 70
     0
  9
$DIMSCALE
 40
1.0
  9
$DIMASZ
 40
0.18
  9
$DIMEXO
 40
0.0625
  9
$DIMDLI
 40
0.38
  9
$DIMRND
 40
0.0
  9
$DIMDLE
 40
0.0
  9
$DIMEXE
 40
0.18
  9
$DIMTP
 40
0.0
  9
$DIMTM
 40
0.0
  9
$DIMTXT
 40
0.18
  9
$DIMCEN
 40
0.09
  9
$DIMTSZ
 40
0.0
  9
$DIMTOL
 70
     0
  9
$DIMLIM
 70
     0
  9
$DIMTIH
 70
     1
  9
$DIMTOH
 70
     1
  9
$DIMSE1
 70
     0
  9
$DIMSE2
 70
     0
  9
$DIMTAD
 70
     0
  9
$DIMZIN
 70
     0
  9
$DIMBLK
  1

  9
$DIMASO
 70
     1
  9
$DIMSHO
 70
     1
  9
$DIMPOST
  1

  9
$DIMAPOST
  1

  9
$DIMALT
 70
     0
  9
$DIMALTD
 70
     2
  9
$DIMALTF
 40
25.4
  9
$DIMLFAC
 40
1.0
  9
$DIMTOFL
 70
     0
  9
$DIMTVP
 40
0.0
  9
$DIMTIX
 70
     0
  9
$DIMSOXD
 70
     0
  9
$DIMSAH
 70
     0
  9
$DIMBLK1
  1

  9
$DIMBLK2
  1

  9
$DIMSTYLE
  2
Standard
  9
$DIMCLRD
 70
     0
  9
$DIMCLRE
 70
     0
  9
$DIMCLRT
 70
     0
  9
$DIMTFAC
 40
1.0
  9
$DIMGAP
 40
0.09
  9
$DIMJUST
 70
     0
  9
$DIMSD1
 70
     0
  9
$DIMSD2
 70
     0
  9
$DIMTOLJ
 70
     1
  9
$DIMTZIN
 70
     0
  9
$DIMALTZ
 70
     0
  9
$DIMALTTZ
 70
     0
  9
$DIMUPT
 70
     0
  9
$DIMDEC
 70
     4
  9
$DIMTDEC
 70
     4
  9
$DIMALTU
 70
     2
  9
$DIMALTTD
 70
     2
  9
$DIMTXSTY
  7
Standard
  9
$DIMAUNIT
 70
     0
  9
$DIMADEC
 70
     0
  9
$DIMALTRND
 40
0.0
  9
$DIMAZIN
 70
     0
  9
$DIMDSEP
 70
    46
  9
$DIMATFIT
 70
     3
  9
$DIMFRAC
 70
     0
  9
$DIMLDRBLK
  1

  9
$DIMLUNIT
 70
     2
  9
$DIMLWD
 70
    -2
  9
$DIMLWE
 70
    -2
  9
$DIMTMOVE
 70
     0
  9
$LUNITS
 70
     2
  9
$LUPREC
 70
     4
  9
$SKETCHINC
 40
0.1
  9
$FILLETRAD
 40
0.5
  9
$AUNITS
 70
     0
  9
$AUPREC
 70
     0
  9
$MENU
  1
.
  9
$ELEVATION
 40
0.0
  9
$PELEVATION
 40
0.0
  9
$THICKNESS
 40
0.0
  9
$LIMCHECK
 70
     0
  9
$CHAMFERA
 40
0.5
  9
$CHAMFERB
 40
0.5
  9
$CHAMFERC
 40
1.0
  9
$CHAMFERD
 40
0.0
  9
$SKPOLY
 70
     0
  9
$TDCREATE
 40
2455804.544668299
  9
$TDUCREATE
 40
2455804.169668299
  9
$TDUPDATE
 40
2455804.54466831
  9
$TDUUPDATE
 40
2455804.16966831
  9
$TDINDWG
 40
0.0000000116
  9
$TDUSRTIMER
 40
0.0000000116
  9
$USRTIMER
 70
     1
  9
$ANGBASE
 50
0.0
  9
$ANGDIR
 70
     0
  9
$PDMODE
 70
     0
  9
$PDSIZE
 40
0.0
  9
$PLINEWID
 40
0.0
  9
$SPLFRAME
 70
     0
  9
$SPLINETYPE
 70
     6
  9
$SPLINESEGS
 70
     8
  9
$HANDSEED
  5
39F
  9
$SURFTAB1
 70
     6
  9
$SURFTAB2
 70
     6
  9
$SURFTYPE
 70
     6
  9
$SURFU
 70
     6
  9
$SURFV
 70
     6
  9
$UCSBASE
  2

  9
$UCSNAME
  2

  9
$UCSORG
 10
0.0
 20
0.0
 30
0.0
  9
$UCSXDIR
 10
1.0
 20
0.0
 30
0.0
  9
$UCSYDIR
 10
0.0
 20
1.0
 30
0.0
  9
$UCSORTHOREF
  2

  9
$UCSORTHOVIEW
 70
     0
  9
$UCSORGTOP
 10
0.0
 20
0.0
 30
0.0
  9
$UCSORGBOTTOM
 10
0.0
 20
0.0
 30
0.0
  9
$UCSORGLEFT
 10
0.0
 20
0.0
 30
0.0
  9
$UCSORGRIGHT
 10
0.0
 20
0.0
 30
0.0
  9
$UCSORGFRONT
 10
0.0
 20
0.0
 30
0.0
  9
$UCSORGBACK
 10
0.0
 20
0.0
 30
0.0
  9
$PUCSBASE
  2

  9
$PUCSNAME
  2

  9
$PUCSORG
 10
0.0
 20
0.0
 30
0.0
  9
$PUCSXDIR
 10
1.0
 20
0.0
 30
0.0
  9
$PUCSYDIR
 10
0.0
 20
1.0
 30
0.0
  9
$PUCSORTHOREF
  2

  9
$PUCSORTHOVIEW
 70
     0
  9
$PUCSORGTOP
 10
0.0
 20
0.0
 30
0.0
  9
$PUCSORGBOTTOM
 10
0.0
 20
0.0
 30
0.0
  9
$PUCSORGLEFT
 10
0.0
 20
0.0
 30
0.0
  9
$PUCSORGRIGHT
 10
0.0
 20
0.0
 30
0.0
  9
$PUCSORGFRONT
 10
0.0
 20
0.0
 30
0.0
  9
$PUCSORGBACK
 10
0.0
 20
0.0
 30
0.0
  9
$USERI1
 70
     0
  9
$USERI2
 70
     0
  9
$USERI3
 70
     0
  9
$USERI4
 70
     0
  9
$USERI5
 70
     0
  9
$USERR1
 40
14.0
  9
$USERR2
 40
0.0
  9
$USERR3
 40
0.0
  9
$USERR4
 40
0.0
  9
$USERR5
 40
0.0
  9
$WORLDVIEW
 70
     1
  9
$SHADEDGE
 70
     3
  9
$SHADEDIF
 70
    70
  9
$TILEMODE
 70
     1
  9
$MAXACTVP
 70
    64
  9
$PINSBASE
 10
0.0
 20
0.0
 30
0.0
  9
$PLIMCHECK
 70
     0
  9
$PEXTMIN
 10
1.00000000000000E+20
 20
1.00000000000000E+20
 30
1.00000000000000E+20
  9
$PEXTMAX
 10
-1.00000000000000E+20
 20
-1.00000000000000E+20
 30
-1.00000000000000E+20
  9
$PLIMMIN
 10
0.0
 20
0.0
  9
$PLIMMAX
 10
12.0
 20
9.0
  9
$UNITMODE
 70
     0
  9
$VISRETAIN
 70
     1
  9
$PLINEGEN
 70
     0
  9
$PSLTSCALE
 70
     1
  9
$TREEDEPTH
 70
  3020
  9
$CMLSTYLE
  2
Standard
  9
$CMLJUST
 70
     0
  9
$CMLSCALE
 40
1.0
  9
$PROXYGRAPHICS
 70
     1
  9
$MEASUREMENT
 70
     1
  9
$CELWEIGHT
370
    -1
  9
$ENDCAPS
280
     0
  9
$JOINSTYLE
280
     0
  9
$LWDISPLAY
290
     0
  9
$INSUNITS
 70
     1
  9
$HYPERLINKBASE
  1

  9
$STYLESHEET
  1

  9
$XEDIT
290
     1
  9
$CEPSNTYPE
380
     0
  9
$PSTYLEMODE
290
     1
  9
$FINGERPRINTGUID
  2
{DF9D654D-5CAD-4EA3-A6DB-BA3D6F89F67B}
  9
$VERSIONGUID
  2
{FAEB1C32-E019-11D5-929B-00C0DF256EC4}
  9
$EXTNAMES
290
     1
  9
$PSVPSCALE
 40
0.0
  9
$OLESTARTUP
290
     0
  0
ENDSEC
  0
SECTION
  2
CLASSES
  0
CLASS
  1
ACDBDICTIONARYWDFLT
  2
AcDbDictionaryWithDefault
  3
ObjectDBX Classes
 90
        0
280
     0
281
     0
  0
CLASS
  1

  2
exOdDbCircle
  3

 90
        0
280
     0
281
     1
  0
CLASS
  1

  2
exOdDbSpline
  3

 90
        0
280
     0
281
     1
  0
CLASS
  1
ACDBPLACEHOLDER
  2
AcDbPlaceHolder
  3
ObjectDBX Classes
 90
        0
280
     0
281
     0
  0
CLASS
  1
LAYOUT
  2
AcDbLayout
  3
ObjectDBX Classes
 90
        0
280
     0
281
     0
  0
ENDSEC
  0
SECTION
  2
TABLES
  0
TABLE
  2
VPORT
  5
8
330
0
100
AcDbSymbolTable
 70
     1
  0
VPORT
  5
29
330
8
100
AcDbSymbolTableRecord
100
AcDbViewportTableRecord
  2
*Active
 70
     0
 10
0.0
 20
0.0
 11
1.0
 21
1.0
 12
197.0
 22
132.8719233395221
 13
0.0
 23
0.0
 14
0.5
 24
0.5
 15
0.5
 25
0.5
 16
0.0
 26
0.0
 36
1.0
 17
0.0
 27
0.0
 37
0.0
 40
297.2817686530513
 41
1.60267857142857
 42
50.0
 43
0.0
 44
0.0
 50
0.0
 51
0.0
 71
     0
 72
   100
 73
     1
 74
     3
 75
     0
 76
     0
 77
     0
 78
     0
281
     0
 65
     1
110
0.0
120
0.0
130
0.0
111
1.0
121
0.0
131
0.0
112
0.0
122
1.0
132
0.0
 79
     0
146
0.0
  0
ENDTAB
  0
TABLE
  2
LTYPE
  5
5
330
0
100
AcDbSymbolTable
 70
     8
  0
LTYPE
  5
14
330
5
100
AcDbSymbolTableRecord
100
AcDbLinetypeTableRecord
  2
ByBlock
 70
     0
  3

 72
    65
 73
     0
 40
0.0
  0
LTYPE
  5
15
330
5
100
AcDbSymbolTableRecord
100
AcDbLinetypeTableRecord
  2
ByLayer
 70
     0
  3

 72
    65
 73
     0
 40
0.0
  0
LTYPE
  5
16
330
5
100
AcDbSymbolTableRecord
100
AcDbLinetypeTableRecord
  2
Continuous
 70
     0
  3
Solid line
 72
    65
 73
     0
 40
0.0
  0
LTYPE
  5
2A
330
5
100
AcDbSymbolTableRecord
100
AcDbLinetypeTableRecord
  2
DASHED
 70
     0
  3
Dashed
 72
    65
 73
     2
 40
15.0
 49
7.0
 74
     0
 49
-8.0
 74
     0
  0
LTYPE
  5
2B
330
5
100
AcDbSymbolTableRecord
100
AcDbLinetypeTableRecord
  2
DOTTED
 70
     0
  3
Dotted
 72
    65
 73
     2
 40
1.0
 49
0.0
 74
     0
 49
-1.0
 74
     0
  0
LTYPE
  5
2C
330
5
100
AcDbSymbolTableRecord
100
AcDbLinetypeTableRecord
  2
DOT_CENTER
 70
     0
  3
Dot_Center
 72
    65
 73
     4
 40
14.0
 49
12.0
 74
     0
 49
-1.0
 74
     0
 49
0.0
 74
     0
 49
-1.0
 74
     0
  0
LTYPE
  5
2D
330
5
100
AcDbSymbolTableRecord
100
AcDbLinetypeTableRecord
  2
LONG_DASHED
 70
     0
  3
Long_Dashed
 72
    65
 73
     2
 40
15.0
 49
10.0
 74
     0
 49
-5.0
 74
     0
  0
LTYPE
  5
2E
330
5
100
AcDbSymbolTableRecord
100
AcDbLinetypeTableRecord
  2
DASH_CENTER
 70
     0
  3
Dash_Center
 72
    65
 73
     4
 40
14.0
 49
11.0
 74
     0
 49
-1.0
 74
     0
 49
1.0
 74
     0
 49
-1.0
 74
     0
  0
LTYPE
  5
2F
330
5
100
AcDbSymbolTableRecord
100
AcDbLinetypeTableRecord
  2
PHANTOM
 70
     0
  3
Phantom
 72
    65
 73
     6
 40
13.0
 49
10.0
 74
     0
 49
-1.0
 74
     0
 49
0.0
 74
     0
 49
-1.0
 74
     0
 49
0.0
 74
     0
 49
-1.0
 74
     0
  0
LTYPE
  5
30
330
5
100
AcDbSymbolTableRecord
100
AcDbLinetypeTableRecord
  2
CENTER_DASH_DASH
 70
     0
  3
Center_Dash_Dash
 72
    65
 73
     6
 40
14.0
 49
9.0
 74
     0
 49
-1.0
 74
     0
 49
1.0
 74
     0
 49
-1.0
 74
     0
 49
1.0
 74
     0
 49
-1.0
 74
     0
  0
ENDTAB
  0
TABLE
  2
LAYER
  5
2
330
0
100
AcDbSymbolTable
 70
     7
  0
LAYER
  5
10
330
2
100
AcDbSymbolTableRecord
100
AcDbLayerTableRecord
  2
0
 70
     0
 62
     7
  6
Continuous
370
    -3
390
F
  0
LAYER
  5
31
330
2
100
AcDbSymbolTableRecord
100
AcDbLayerTableRecord
  2
1
 70
     0
 62
     7
  6
Continuous
370
    -3
390
F
  0
LAYER
  5
32
330
2
100
AcDbSymbolTableRecord
100
AcDbLayerTableRecord
  2
ITTEN
 70
     0
 62
     7
  6
Continuous
370
    -3
390
F
  0
LAYER
  5
33
330
2
100
AcDbSymbolTableRecord
100
AcDbLayerTableRecord
  2
JISSEN
 70
     0
 62
     7
  6
Continuous
370
    -3
390
F
  0
LAYER
  5
34
330
2
100
AcDbSymbolTableRecord
100
AcDbLayerTableRecord
  2
NITEN
 70
     0
 62
     7
  6
Continuous
370
    -3
390
F
  0
LAYER
  5
35
330
2
100
AcDbSymbolTableRecord
100
AcDbLayerTableRecord
  2
SAISEN
 70
     0
 62
     7
  6
Continuous
370
    -3
390
F
  0
LAYER
  5
36
330
2
100
AcDbSymbolTableRecord
100
AcDbLayerTableRecord
  2
SUNPOU
 70
     0
 62
     7
  6
Continuous
370
    -3
390
F
  0
ENDTAB
  0
TABLE
  2
STYLE
  5
3
330
0
100
AcDbSymbolTable
 70
     7
  0
STYLE
  5
11
330
3
100
AcDbSymbolTableRecord
100
AcDbTextStyleTableRecord
  2
Standard
 70
     0
 40
0.0
 41
1.0
 50
0.0
 71
     0
 42
0.2
  3
txt
  4

  0
STYLE
  5
55
330
3
100
AcDbSymbolTableRecord
100
AcDbTextStyleTableRecord
  2
CONVERTER_1
 70
     0
 40
0.0
 41
0.9
 50
0.0
 71
     0
 42
0.2
  3
txt.shx
  4

  0
STYLE
  5
58
330
3
100
AcDbSymbolTableRecord
100
AcDbTextStyleTableRecord
  2
CONVERTER_2
 70
     0
 40
0.0
 41
1.068
 50
0.0
 71
     0
 42
0.2
  3
msmincho.ttc
  4

1001
ACAD
1000
MS Mincho
1071
    32785
  0
STYLE
  5
5B
330
3
100
AcDbSymbolTableRecord
100
AcDbTextStyleTableRecord
  2
CONVERTER_3
 70
     0
 40
0.0
 41
0.89
 50
0.0
 71
     0
 42
0.2
  3
MSMINCHO.TTC
  4

1001
ACAD
1000
MS Mincho
1071
    32785
  0
STYLE
  5
5E
330
3
100
AcDbSymbolTableRecord
100
AcDbTextStyleTableRecord
  2
CONVERTER_4
 70
     0
 40
0.0
 41
0.801
 50
0.0
 71
     0
 42
0.2
  3
msmincho.ttc
  4

1001
ACAD
1000
MS Mincho
1071
    32785
  0
STYLE
  5
62
330
3
100
AcDbSymbolTableRecord
100
AcDbTextStyleTableRecord
  2
CONVERTER_5
 70
     0
 40
0.0
 41
0.9025
 50
0.0
 71
     0
 42
0.2
  3
complex.shx
  4

  0
STYLE
  5
274
330
3
100
AcDbSymbolTableRecord
100
AcDbTextStyleTableRecord
  2
CONVERTER_6
 70
     0
 40
0.0
 41
0.712
 50
0.0
 71
     0
 42
0.2
  3
msmincho.ttc
  4

1001
ACAD
1000
MS Mincho
1071
    32785
  0
ENDTAB
  0
TABLE
  2
VIEW
  5
6
330
0
100
AcDbSymbolTable
 70
     0
  0
ENDTAB
  0
TABLE
  2
UCS
  5
7
330
0
100
AcDbSymbolTable
 70
     0
  0
ENDTAB
  0
TABLE
  2
APPID
  5
9
330
0
100
AcDbSymbolTable
 70
     1
  0
APPID
  5
12
330
9
100
AcDbSymbolTableRecord
100
AcDbRegAppTableRecord
  2
ACAD
 70
     0
  0
ENDTAB
  0
TABLE
  2
DIMSTYLE
  5
A
330
0
100
AcDbSymbolTable
 70
    22
100
AcDbDimStyleTable
  0
DIMSTYLE
105
27
330
A
100
AcDbSymbolTableRecord
100
AcDbDimStyleTableRecord
  2
Standard
 70
     0
340
11
  0
DIMSTYLE
105
28F
102
{ACAD_REACTORS
330
290
102
}
330
A
100
AcDbSymbolTableRecord
100
AcDbDimStyleTableRecord
  2
ME10_DIM_0
 70
     0
  3
{\Fgdt;n}<>(D寸法）
 41
3.2
 42
1.0
 44
1.0
 73
     0
 74
     0
 77
     1
 78
     8
140
3.2
147
0.7
172
     1
173
     1
176
     2
177
     2
178
     2
271
     2
340
5B
343
289
344
289
  0
DIMSTYLE
105
29C
102
{ACAD_REACTORS
330
29D
102
}
330
A
100
AcDbSymbolTableRecord
100
AcDbDimStyleTableRecord
  2
ME10_DIM_1
 70
     0
  3
φ<>
 41
3.2
 42
1.0
 44
1.0
 73
     0
 74
     0
 77
     1
 78
     8
140
3.2
147
1.0
172
     1
173
     1
176
     2
177
     2
178
     2
271
     2
340
5B
343
289
344
289
  0
DIMSTYLE
105
2AB
102
{ACAD_REACTORS
330
2AC
102
}
330
A
100
AcDbSymbolTableRecord
100
AcDbDimStyleTableRecord
  2
ME10_DIM_2
 70
     0
 41
3.2
 42
1.0
 44
1.0
 73
     0
 74
     0
 77
     1
 78
     8
140
3.2
147
1.0
172
     1
173
     1
176
     2
177
     2
178
     2
271
     2
340
55
343
289
344
289
  0
DIMSTYLE
105
2B8
102
{ACAD_REACTORS
330
2B9
102
}
330
A
100
AcDbSymbolTableRecord
100
AcDbDimStyleTableRecord
  2
ME10_DIM_3
 70
     0
 41
3.2
 42
1.0
 44
1.0
 73
     0
 74
     0
 77
     1
 78
     8
140
3.2
147
0.7
172
     1
173
     1
176
     2
177
     2
178
     2
271
     2
340
55
343
289
344
289
  0
DIMSTYLE
105
2C5
102
{ACAD_REACTORS
330
2C6
102
}
330
A
100
AcDbSymbolTableRecord
100
AcDbDimStyleTableRecord
  2
ME10_DIM_4
 70
     0
  3
φ<>
 41
3.2
 42
1.0
 44
1.0
 73
     0
 74
     0
 77
     1
 78
     8
140
3.2
147
1.0
172
     1
173
     1
176
     2
177
     2
178
     2
271
     2
340
5B
343
289
344
289
  0
DIMSTYLE
105
2D2
102
{ACAD_REACTORS
330
2D3
102
}
330
A
100
AcDbSymbolTableRecord
100
AcDbDimStyleTableRecord
  2
ME10_DIM_5
 70
     0
  3
φ<>
 41
3.2
 42
1.0
 44
1.0
 73
     0
 74
     0
 77
     1
 78
     8
140
3.2
147
1.0
172
     1
173
     1
176
     2
177
     2
178
     2
271
     2
340
5B
343
289
344
289
  0
DIMSTYLE
105
2DF
102
{ACAD_REACTORS
330
2E0
102
}
330
A
100
AcDbSymbolTableRecord
100
AcDbDimStyleTableRecord
  2
ME10_DIM_6
 70
     0
 41
3.2
 42
1.0
 44
1.0
 73
     0
 74
     0
 77
     1
 78
     8
140
3.2
147
1.0
172
     1
173
     1
176
     2
177
     2
178
     2
271
     2
340
55
343
289
344
289
  0
DIMSTYLE
105
2EC
102
{ACAD_REACTORS
330
2ED
102
}
330
A
100
AcDbSymbolTableRecord
100
AcDbDimStyleTableRecord
  2
ME10_DIM_7
 70
     0
 41
3.2
 42
1.0
 44
1.0
 73
     0
 74
     0
 77
     1
 78
     8
140
3.2
147
1.0
172
     1
173
     1
176
     2
177
     2
178
     2
271
     2
340
55
343
289
344
289
  0
DIMSTYLE
105
2F9
102
{ACAD_REACTORS
330
2FA
102
}
330
A
100
AcDbSymbolTableRecord
100
AcDbDimStyleTableRecord
  2
ME10_DIM_8
 70
     0
 41
3.2
 42
1.0
 44
1.0
 73
     0
 74
     0
 77
     1
 78
     8
140
3.2
147
1.0
172
     1
173
     1
176
     2
177
     2
178
     2
271
     2
340
55
343
289
344
289
  0
DIMSTYLE
105
306
102
{ACAD_REACTORS
330
307
102
}
330
A
100
AcDbSymbolTableRecord
100
AcDbDimStyleTableRecord
  2
ME10_DIM_9
 70
     0
 41
3.2
 42
1.0
 44
1.0
 73
     0
 74
     0
 77
     1
 78
     8
140
3.2
147
1.0
172
     1
173
     1
176
     2
177
     2
178
     2
271
     2
340
55
343
289
344
289
  0
DIMSTYLE
105
313
102
{ACAD_REACTORS
330
314
102
}
330
A
100
AcDbSymbolTableRecord
100
AcDbDimStyleTableRecord
  2
ME10_DIM_10
 70
     0
 41
3.2
 42
1.0
 44
1.0
 73
     0
 74
     0
 77
     1
 78
     8
140
3.2
147
1.0
172
     1
173
     1
176
     2
177
     2
178
     2
271
     2
340
55
343
289
344
289
  0
DIMSTYLE
105
320
102
{ACAD_REACTORS
330
321
102
}
330
A
100
AcDbSymbolTableRecord
100
AcDbDimStyleTableRecord
  2
ME10_DIM_11
 70
     0
 41
3.2
 42
1.0
 44
1.0
 73
     0
 74
     0
 77
     1
 78
     8
140
3.2
147
1.0
172
     1
173
     1
176
     2
177
     2
178
     2
271
     2
340
55
343
289
344
289
  0
DIMSTYLE
105
32F
102
{ACAD_REACTORS
330
330
102
}
330
A
100
AcDbSymbolTableRecord
100
AcDbDimStyleTableRecord
  2
ME10_DIM_12
 70
     0
  3
ｔ<>
 41
3.2
 42
1.0
 44
1.0
 73
     0
 74
     0
 77
     1
 78
     8
140
3.2
147
1.0
172
     1
173
     1
176
     2
177
     2
178
     2
271
     2
340
5B
343
289
344
289
  0
DIMSTYLE
105
33C
102
{ACAD_REACTORS
330
33D
102
}
330
A
100
AcDbSymbolTableRecord
100
AcDbDimStyleTableRecord
  2
ME10_DIM_13
 70
     0
 41
3.2
 42
1.0
 44
1.0
 73
     0
 74
     0
 77
     1
 78
     8
140
3.2
147
1.0
172
     1
173
     1
176
     2
177
     2
178
     2
271
     2
340
55
343
289
344
289
  0
DIMSTYLE
105
349
102
{ACAD_REACTORS
330
34A
102
}
330
A
100
AcDbSymbolTableRecord
100
AcDbDimStyleTableRecord
  2
ME10_DIM_14
 70
     0
 41
3.2
 42
1.0
 44
1.0
 73
     0
 74
     0
 77
     1
 78
     8
140
3.2
147
1.0
172
     1
173
     1
176
     2
177
     2
178
     2
271
     2
340
55
343
289
344
289
  0
DIMSTYLE
105
356
102
{ACAD_REACTORS
330
357
102
}
330
A
100
AcDbSymbolTableRecord
100
AcDbDimStyleTableRecord
  2
ME10_DIM_15
 70
     0
 41
3.2
 42
1.0
 44
1.0
 73
     0
 74
     0
 77
     1
 78
     8
140
3.2
147
1.0
172
     1
173
     1
176
     2
177
     2
178
     2
271
     2
340
55
343
289
344
289
  0
DIMSTYLE
105
365
102
{ACAD_REACTORS
330
366
102
}
330
A
100
AcDbSymbolTableRecord
100
AcDbDimStyleTableRecord
  2
ME10_DIM_16
 70
     0
 41
3.2
 42
1.0
 44
1.0
 73
     0
 74
     0
 77
     1
 78
     8
140
3.2
147
1.0
172
     1
173
     1
176
     2
177
     2
178
     2
271
     2
340
55
343
289
344
289
  0
DIMSTYLE
105
372
102
{ACAD_REACTORS
330
373
102
}
330
A
100
AcDbSymbolTableRecord
100
AcDbDimStyleTableRecord
  2
ME10_DIM_17
 70
     0
 41
3.2
 42
1.0
 44
1.0
 73
     0
 74
     0
 77
     1
 78
     8
140
3.2
147
1.0
172
     1
173
     1
176
     2
177
     2
178
     2
271
     2
340
5B
343
289
344
289
  0
DIMSTYLE
105
381
102
{ACAD_REACTORS
330
382
102
}
330
A
100
AcDbSymbolTableRecord
100
AcDbDimStyleTableRecord
  2
ME10_DIM_18
 70
     0
 41
3.2
 42
1.0
 44
1.0
 73
     0
 74
     0
 77
     1
 78
     8
140
3.2
147
1.0
172
     1
173
     1
176
     2
177
     2
178
     2
271
     2
340
55
343
289
344
289
  0
DIMSTYLE
105
390
102
{ACAD_REACTORS
330
391
102
}
330
A
100
AcDbSymbolTableRecord
100
AcDbDimStyleTableRecord
  2
ME10_DIM_19
 70
     0
 41
3.2
 42
1.0
 44
1.0
 73
     0
 74
     0
 77
     1
 78
     8
140
3.2
147
1.0
172
     1
173
     1
176
     2
177
     2
178
     2
271
     2
340
55
343
289
344
289
  0
DIMSTYLE
105
39D
102
{ACAD_REACTORS
330
39E
102
}
330
A
100
AcDbSymbolTableRecord
100
AcDbDimStyleTableRecord
  2
ME10_DIM_20
 70
     0
 41
3.2
 42
1.0
 44
1.0
 73
     0
 74
     0
 77
     1
 78
     8
140
3.2
147
1.0
172
     1
173
     1
176
     2
177
     2
178
     2
271
     2
340
55
343
289
344
289
  0
ENDTAB
  0
TABLE
  2
BLOCK_RECORD
  5
1
330
0
100
AcDbSymbolTable
 70
    24
  0
BLOCK_RECORD
  5
1F
330
1
100
AcDbSymbolTableRecord
100
AcDbBlockTableRecord
  2
*Model_Space
340
22
  0
BLOCK_RECORD
  5
1B
330
1
100
AcDbSymbolTableRecord
100
AcDbBlockTableRecord
  2
*Paper_Space
340
1E
  0
BLOCK_RECORD
  5
23
330
1
100
AcDbSymbolTableRecord
100
AcDbBlockTableRecord
  2
*Paper_Space0
340
26
  0
BLOCK_RECORD
  5
37
330
1
100
AcDbSymbolTableRecord
100
AcDbBlockTableRecord
  2
Zuwaku-A3-web
340
0
102
{BLKREFS
331
3A
102
}
  0
BLOCK_RECORD
  5
27C
330
1
100
AcDbSymbolTableRecord
100
AcDbBlockTableRecord
  2
*D02
340
0
  0
BLOCK_RECORD
  5
289
330
1
100
AcDbSymbolTableRecord
100
AcDbBlockTableRecord
  2
_Open30
340
0
  0
BLOCK_RECORD
  5
291
330
1
100
AcDbSymbolTableRecord
100
AcDbBlockTableRecord
  2
*D14
340
0
  0
BLOCK_RECORD
  5
29E
330
1
100
AcDbSymbolTableRecord
100
AcDbBlockTableRecord
  2
*D25
340
0
  0
BLOCK_RECORD
  5
2AD
330
1
100
AcDbSymbolTableRecord
100
AcDbBlockTableRecord
  2
*D36
340
0
  0
BLOCK_RECORD
  5
2BA
330
1
100
AcDbSymbolTableRecord
100
AcDbBlockTableRecord
  2
*D47
340
0
  0
BLOCK_RECORD
  5
2C7
330
1
100
AcDbSymbolTableRecord
100
AcDbBlockTableRecord
  2
*D58
340
0
  0
BLOCK_RECORD
  5
2D4
330
1
100
AcDbSymbolTableRecord
100
AcDbBlockTableRecord
  2
*D69
340
0
  0
BLOCK_RECORD
  5
2E1
330
1
100
AcDbSymbolTableRecord
100
AcDbBlockTableRecord
  2
*D710
340
0
  0
BLOCK_RECORD
  5
2EE
330
1
100
AcDbSymbolTableRecord
100
AcDbBlockTableRecord
  2
*D811
340
0
  0
BLOCK_RECORD
  5
2FB
330
1
100
AcDbSymbolTableRecord
100
AcDbBlockTableRecord
  2
*D912
340
0
  0
BLOCK_RECORD
  5
308
330
1
100
AcDbSymbolTableRecord
100
AcDbBlockTableRecord
  2
*D1013
340
0
  0
BLOCK_RECORD
  5
315
330
1
100
AcDbSymbolTableRecord
100
AcDbBlockTableRecord
  2
*D1114
340
0
  0
BLOCK_RECORD
  5
322
330
1
100
AcDbSymbolTableRecord
100
AcDbBlockTableRecord
  2
*D1215
340
0
  0
BLOCK_RECORD
  5
331
330
1
100
AcDbSymbolTableRecord
100
AcDbBlockTableRecord
  2
*D1316
340
0
  0
BLOCK_RECORD
  5
33E
330
1
100
AcDbSymbolTableRecord
100
AcDbBlockTableRecord
  2
*D1417
340
0
  0
BLOCK_RECORD
  5
34B
330
1
100
AcDbSymbolTableRecord
100
AcDbBlockTableRecord
  2
*D1518
340
0
  0
BLOCK_RECORD
  5
358
330
1
100
AcDbSymbolTableRecord
100
AcDbBlockTableRecord
  2
*D1619
340
0
  0
BLOCK_RECORD
  5
367
330
1
100
AcDbSymbolTableRecord
100
AcDbBlockTableRecord
  2
*D1720
340
0
  0
BLOCK_RECORD
  5
374
330
1
100
AcDbSymbolTableRecord
100
AcDbBlockTableRecord
  2
*D1821
340
0
  0
BLOCK_RECORD
  5
383
330
1
100
AcDbSymbolTableRecord
100
AcDbBlockTableRecord
  2
*D1922
340
0
  0
BLOCK_RECORD
  5
392
330
1
100
AcDbSymbolTableRecord
100
AcDbBlockTableRecord
  2
*D2023
340
0
  0
ENDTAB
  0
ENDSEC
  0
SECTION
  2
BLOCKS
  0
BLOCK
  5
20
330
1F
100
AcDbEntity
  8
0
100
AcDbBlockBegin
  2
*Model_Space
 70
     0
 71
     0
 10
0.0
 20
0.0
 30
0.0
  3
*Model_Space
  1

  0
ENDBLK
  5
21
330
1F
100
AcDbEntity
  8
0
100
AcDbBlockEnd
  0
BLOCK
  5
1C
330
1B
100
AcDbEntity
 67
     1
  8
0
100
AcDbBlockBegin
  2
*Paper_Space
 70
     0
 71
     0
 10
0.0
 20
0.0
 30
0.0
  3
*Paper_Space
  1

  0
ENDBLK
  5
1D
330
1B
100
AcDbEntity
 67
     1
  8
0
100
AcDbBlockEnd
  0
BLOCK
  5
24
330
23
100
AcDbEntity
  8
0
100
AcDbBlockBegin
  2
*Paper_Space0
 70
     0
 71
     0
 10
0.0
 20
0.0
 30
0.0
  3
*Paper_Space0
  1

  0
ENDBLK
  5
25
330
23
100
AcDbEntity
  8
0
100
AcDbBlockEnd
  0
BLOCK
  5
38
330
37
100
AcDbEntity
  8
0
100
AcDbBlockBegin
  2
Zuwaku-A3-web
 70
     0
 71
     0
 10
196.9999999999998
 20
134.0
 30
0.0
  3
Zuwaku-A3-web
  1

  0
POINT
  5
3B
330
37
100
AcDbEntity
  8
1
 62
     3
 60
     1
100
AcDbPoint
 10
162.5
 20
20.0
 30
0.0
  0
POINT
  5
3C
330
37
100
AcDbEntity
  8
1
 62
     3
 60
     1
100
AcDbPoint
 10
202.0
 20
15.0
 30
0.0
  0
POINT
  5
3D
330
37
100
AcDbEntity
  8
1
 62
     3
 60
     1
100
AcDbPoint
 10
162.5
 20
15.0
 30
0.0
  0
POINT
  5
3E
330
37
100
AcDbEntity
  8
1
 62
     3
 60
     1
100
AcDbPoint
 10
9.5
 20
12.5
 30
0.0
  0
POINT
  5
3F
330
37
100
AcDbEntity
  8
1
 62
     3
 60
     1
100
AcDbPoint
 10
2.5
 20
12.5
 30
0.0
  0
POINT
  5
40
330
37
100
AcDbEntity
  8
1
 62
     3
 60
     1
100
AcDbPoint
 10
0.0
 20
0.0
 30
0.0
  0
LINE
  5
41
330
37
100
AcDbEntity
  8
1
  6
Continuous
 62
     4
100
AcDbLine
 10
189.4945771572093
 20
2.13397584248199
 30
0.0
 11
195.2266254722454
 21
7.866024157518
 31
0.0
  0
LINE
  5
42
330
37
100
AcDbEntity
  8
1
  6
Continuous
 62
     7
100
AcDbLine
 10
0.0
 20
0.0
 30
0.0
 11
394.0
 21
0.0
 31
0.0
  0
LINE
  5
43
330
37
100
AcDbEntity
  8
1
  6
Continuous
 62
     4
100
AcDbLine
 10
162.5
 20
15.0
 30
0.0
 11
202.0
 21
15.0
 31
0.0
  0
LINE
  5
44
330
37
100
AcDbEntity
  8
1
  6
Continuous
 62
     3
100
AcDbLine
 10
9.5
 20
12.5
 30
0.0
 11
6.0
 21
19.0
 31
0.0
  0
LINE
  5
45
330
37
100
AcDbEntity
  8
1
  6
Continuous
 62
     3
100
AcDbLine
 10
2.5
 20
12.5
 30
0.0
 11
9.5
 21
12.5
 31
0.0
  0
LINE
  5
46
330
37
100
AcDbEntity
  8
1
  6
Continuous
 62
     3
100
AcDbLine
 10
6.0
 20
19.0
 30
0.0
 11
2.5
 21
12.5
 31
0.0
  0
LINE
  5
47
330
37
100
AcDbEntity
  8
1
  6
Continuous
 62
     4
100
AcDbLine
 10
12.0
 20
20.0
 30
0.0
 11
12.0
 21
0.0
 31
0.0
  0
LINE
  5
48
330
37
100
AcDbEntity
  8
1
  6
Continuous
 62
     4
100
AcDbLine
 10
0.0
 20
10.0
 30
0.0
 11
394.0
 21
10.0
 31
0.0
  0
LINE
  5
49
330
37
100
AcDbEntity
  8
1
  6
Continuous
 62
     7
100
AcDbLine
 10
393.9999999999996
 20
268.0
 30
0.0
 11
0.0
 21
268.0
 31
0.0
  0
LINE
  5
4A
330
37
100
AcDbEntity
  8
1
  6
Continuous
 62
     7
100
AcDbLine
 10
394.0
 20
0.0
 30
0.0
 11
393.9999999999996
 21
268.0
 31
0.0
  0
LINE
  5
4B
330
37
100
AcDbEntity
  8
1
  6
Continuous
 62
     4
100
AcDbLine
 10
202.0
 20
0.0
 30
0.0
 11
202.0
 21
20.0
 31
0.0
  0
LINE
  5
4C
330
37
100
AcDbEntity
  8
1
  6
Continuous
 62
     4
100
AcDbLine
 10
162.5
 20
0.0
 30
0.0
 11
162.5
 21
20.0
 31
0.0
  0
LINE
  5
4D
330
37
100
AcDbEntity
  8
1
  6
Continuous
 62
     4
100
AcDbLine
 10
283.0
 20
20.0
 30
0.0
 11
283.0
 21
0.0
 31
0.0
  0
LINE
  5
4E
330
37
100
AcDbEntity
  8
1
  6
Continuous
 62
     4
100
AcDbLine
 10
227.0
 20
20.0
 30
0.0
 11
227.0
 21
0.0
 31
0.0
  0
LINE
  5
4F
330
37
100
AcDbEntity
  8
1
  6
Continuous
 62
     4
100
AcDbLine
 10
170.5
 20
10.0
 30
0.0
 11
170.5
 21
0.0
 31
0.0
  0
LINE
  5
50
330
37
100
AcDbEntity
  8
1
  6
Continuous
 62
     4
100
AcDbLine
 10
66.0
 20
20.0
 30
0.0
 11
66.0
 21
0.0
 31
0.0
  0
LINE
  5
51
330
37
100
AcDbEntity
  8
1
  6
Continuous
 62
     7
100
AcDbLine
 10
0.0
 20
268.0
 30
0.0
 11
0.0
 21
0.0
 31
0.0
  0
LINE
  5
52
330
37
100
AcDbEntity
  8
1
  6
Continuous
 62
     4
100
AcDbLine
 10
173.7445771572093
 20
2.13397584248199
 30
0.0
 11
179.4766254722454
 21
7.866024157518
 31
0.0
  0
LINE
  5
53
330
37
100
AcDbEntity
  8
1
  6
Continuous
 62
     4
100
AcDbLine
 10
394.0
 20
20.0
 30
0.0
 11
0.0
 21
20.0
 31
0.0
  0
LINE
  5
54
330
37
100
AcDbEntity
  8
1
  6
Continuous
 62
     4
100
AcDbLine
 10
295.0
 20
20.0
 30
0.0
 11
295.0
 21
0.0
 31
0.0
  0
MTEXT
  5
56
330
37
100
AcDbEntity
  8
1
 62
     2
100
AcDbMText
 10
180.9766254722454
 20
3.75
 30
0.0
 40
4.0
 41
0.0
 71
     5
 72
     1
  1
1
  7
CONVERTER_1
 73
     1
 44
0.60024009603842
  0
MTEXT
  5
57
330
37
100
AcDbEntity
  8
1
 62
     2
100
AcDbMText
 10
173.183432867907
 20
6.25
 30
0.0
 40
4.0
 41
0.0
 71
     5
 72
     1
  1
1
  7
CONVERTER_1
 73
     1
 44
0.60024009603842
  0
MTEXT
  5
59
330
37
100
AcDbEntity
  8
1
 62
     2
100
AcDbMText
 10
289.0
 20
2.75
 30
0.0
 40
3.5
 41
0.0
 71
     5
 72
     1
  1
番号
  7
CONVERTER_2
 73
     1
 44
0.78031212484994
  0
MTEXT
  5
5A
330
37
100
AcDbEntity
  8
1
 62
     2
100
AcDbMText
 10
166.5
 20
2.75
 30
0.0
 40
3.5
 41
0.0
 71
     5
 72
     1
  1
度
  7
CONVERTER_2
 73
     1
 44
0.78031212484994
  0
MTEXT
  5
5C
330
37
100
AcDbEntity
  8
1
 62
     2
100
AcDbMText
 10
5.67807803017169
 20
2.75
 30
0.0
 40
3.5
 41
0.0
 71
     5
 72
     1
  1
番号
  7
CONVERTER_3
 73
     1
 44
0.78031212484994
  0
MTEXT
  5
5D
330
37
100
AcDbEntity
  8
1
 62
     7
100
AcDbMText
 10
114.25
 20
15.0
 30
0.0
 40
5.0
 41
0.0
 71
     5
 72
     1
  1
技術情報サービス
  7
CONVERTER_3
 73
     1
 44
1.20048019207683
  0
MTEXT
  5
5F
330
37
100
AcDbEntity
  8
1
 62
     2
100
AcDbMText
 10
214.5
 20
15.0
 30
0.0
 40
4.0
 41
0.0
 71
     5
 72
     1
  1
シリーズ名
  7
CONVERTER_4
 73
     1
 44
1.32052821128451
  0
MTEXT
  5
60
330
37
100
AcDbEntity
  8
1
 62
     2
100
AcDbMText
 10
214.5
 20
5.0
 30
0.0
 40
4.0
 41
0.0
 71
     5
 72
     1
  1
機　種
  7
CONVERTER_3
 73
     1
 44
1.32052821128451
  0
MTEXT
  5
61
330
37
100
AcDbEntity
  8
1
 62
     2
100
AcDbMText
 10
189.75
 20
6.5
 30
0.0
 40
4.0
 41
0.0
 71
     5
 72
     1
  1
1
  7
CONVERTER_1
 73
     1
 44
1.32052821128451
  0
MTEXT
  5
63
330
37
100
AcDbEntity
  8
1
 62
     7
100
AcDbMText
 10
114.25
 20
5.0
 30
0.0
 40
4.0
 41
0.0
 71
     5
 72
     1
  1
MARUYASU KIKAI CO.,LTD.
  7
CONVERTER_5
 73
     1
 44
1.32052821128451
  0
MTEXT
  5
64
330
37
100
AcDbEntity
  8
1
 62
     2
100
AcDbMText
 10
6.0
 20
7.25
 30
0.0
 40
3.5
 41
0.0
 71
     5
 72
     1
  1
改訂
  7
CONVERTER_3
 73
     1
 44
0.78031212484994
  0
MTEXT
  5
65
330
37
100
AcDbEntity
  8
1
 62
     2
100
AcDbMText
 10
39.0
 20
5.0
 30
0.0
 40
3.5
 41
0.0
 71
     5
 72
     1
  1
改　 訂　 記　 事
  7
CONVERTER_3
 73
     1
 44
1.32052821128451
  0
MTEXT
  5
66
330
37
100
AcDbEntity
  8
1
 62
     2
100
AcDbMText
 10
166.5
 20
7.25
 30
0.0
 40
3.5
 41
0.0
 71
     5
 72
     1
  1
尺
  7
CONVERTER_2
 73
     1
 44
0.78031212484994
  0
MTEXT
  5
67
330
37
100
AcDbEntity
  8
1
 62
     2
100
AcDbMText
 10
182.25
 20
17.5
 30
0.0
 40
3.5
 41
0.0
 71
     5
 72
     1
  1
年　　月　　日
  7
CONVERTER_3
 73
     1
 44
0.78031212484994
  0
MTEXT
  5
68
330
37
100
AcDbEntity
  8
1
 62
     2
100
AcDbMText
 10
289.0
 20
7.25
 30
0.0
 40
3.5
 41
0.0
 71
     5
 72
     1
  1
図面
  7
CONVERTER_2
 73
     1
 44
0.78031212484994
  0
MTEXT
  5
69
330
37
100
AcDbEntity
  8
1
 62
     2
100
AcDbMText
 10
289.0
 20
15.0
 30
0.0
 40
4.0
 41
0.0
 71
     5
 72
     1
  1
図名
  7
CONVERTER_3
 73
     1
 44
1.32052821128451
  0
MTEXT
  5
6A
330
37
100
AcDbEntity
  8
1
 62
     4
100
AcDbMText
 10
393.4565543923691
 20
-0.25615332095569
 30
0.0
 40
2.0
 41
0.0
 71
     3
 72
     1
  1
A3
  7
CONVERTER_1
 73
     1
 44
1.32052821128451
  0
ENDBLK
  5
39
330
37
100
AcDbEntity
  8
0
100
AcDbBlockEnd
  0
BLOCK
  5
287
330
27C
100
AcDbEntity
  8
0
100
AcDbBlockBegin
  2
*D02
 70
     1
 71
     0
 10
0.0
 20
0.0
 30
0.0
  3
*D02
  1

  0
LINE
  5
27D
330
27C
100
AcDbEntity
  8
1
  6
Continuous
 62
     2
100
AcDbLine
 10
309.808050089445
 20
195.5972640721888
 30
0.0
 11
309.808050089445
 21
177.1278507000848
 31
0.0
  0
LINE
  5
27E
330
27C
100
AcDbEntity
  8
1
  6
Continuous
 62
     2
100
AcDbLine
 10
309.808050089445
 20
231.7278507000848
 30
0.0
 11
309.808050089445
 21
210.1439395406082
 31
0.0
  0
LINE
  5
27F
330
27C
100
AcDbEntity
  8
1
  6
Continuous
 62
     2
100
AcDbLine
 10
274.7878890876571
 20
231.7278507000848
 30
0.0
 11
301.760189579526
 21
231.7278507000848
 31
0.0
  0
LINE
  5
280
330
27C
100
AcDbEntity
  8
1
  6
Continuous
 62
     2
100
AcDbLine
 10
307.352429747729
 20
231.7278507000848
 30
0.0
 11
310.808050089445
 21
231.7278507000848
 31
0.0
  0
LINE
  5
281
330
27C
100
AcDbEntity
  8
1
  6
Continuous
 62
     2
100
AcDbLine
 10
274.7878890876571
 20
177.1278507000848
 30
0.0
 11
310.808050089445
 21
177.1278507000848
 31
0.0
  0
LINE
  5
282
330
27C
100
AcDbEntity
  8
1
 62
     2
100
AcDbLine
 10
309.808050089445
 20
231.7278507000848
 30
0.0
 11
310.6654875052246
 21
228.5278507000848
 31
0.0
  0
LINE
  5
283
330
27C
100
AcDbEntity
  8
1
 62
     2
100
AcDbLine
 10
309.808050089445
 20
231.7278507000848
 30
0.0
 11
308.9506126736654
 21
228.5278507000848
 31
0.0
  0
LINE
  5
284
330
27C
100
AcDbEntity
  8
1
 62
     2
100
AcDbLine
 10
309.808050089445
 20
177.1278507000848
 30
0.0
 11
308.9506126736654
 21
180.3278507000848
 31
0.0
  0
LINE
  5
285
330
27C
100
AcDbEntity
  8
1
 62
     2
100
AcDbLine
 10
309.808050089445
 20
177.1278507000848
 30
0.0
 11
310.6654875052246
 21
180.3278507000848
 31
0.0
  0
MTEXT
  5
286
330
27C
100
AcDbEntity
  8
1
 62
     2
100
AcDbMText
 10
306.128515205725
 20
208.969379511257
 30
0.0
 40
3.2
 41
0.0
 71
     7
 72
     1
  1
\C2;{\Fgdt;n}\C2;54.6\C2;(D寸法）
  7
CONVERTER_3
 11
0.0
 21
1.0
 31
0.0
 73
     1
 44
0.60024009603842
  0
ENDBLK
  5
288
330
27C
100
AcDbEntity
  8
0
100
AcDbBlockEnd
  0
BLOCK
  5
28A
330
289
100
AcDbEntity
  8
0
100
AcDbBlockBegin
  2
_Open30
 70
     0
 71
     0
 10
0.0
 20
0.0
 30
0.0
  3
_Open30
  1

  0
LINE
  5
28C
330
289
100
AcDbEntity
  8
0
  6
ByBlock
 62
     0
370
    -2
100
AcDbLine
 10
-1.0
 20
0.267949
 30
0.0
 11
0.0
 21
0.0
 31
0.0
  0
LINE
  5
28D
330
289
100
AcDbEntity
  8
0
  6
ByBlock
 62
     0
370
    -2
100
AcDbLine
 10
0.0
 20
0.0
 30
0.0
 11
-1.0
 21
-0.267949
 31
0.0
  0
LINE
  5
28E
330
289
100
AcDbEntity
  8
0
  6
ByBlock
 62
     0
370
    -2
100
AcDbLine
 10
0.0
 20
0.0
 30
0.0
 11
-1.0
 21
0.0
 31
0.0
  0
ENDBLK
  5
28B
330
289
100
AcDbEntity
  8
0
100
AcDbBlockEnd
  0
BLOCK
  5
29A
330
291
100
AcDbEntity
  8
0
100
AcDbBlockBegin
  2
*D14
 70
     1
 71
     0
 10
0.0
 20
0.0
 30
0.0
  3
*D14
  1

  0
LINE
  5
292
330
291
100
AcDbEntity
  8
1
  6
Continuous
 62
     2
100
AcDbLine
 10
107.009231579914
 20
195.1694305096295
 30
0.0
 11
107.009231579914
 21
237.8694305096295
 31
0.0
  0
LINE
  5
293
330
291
100
AcDbEntity
  8
1
  6
Continuous
 62
     2
100
AcDbLine
 10
74.72758170844264
 20
183.4198708434105
 30
0.0
 11
107.9489242006999
 21
195.5114506529552
 31
0.0
  0
LINE
  5
294
330
291
100
AcDbEntity
  8
1
  6
Continuous
 62
     2
100
AcDbLine
 10
74.72758170844264
 20
226.1198708434105
 30
0.0
 11
107.9489242006999
 21
238.2114506529551
 31
0.0
  0
LINE
  5
295
330
291
100
AcDbEntity
  8
1
 62
     2
100
AcDbLine
 10
107.009231579914
 20
195.1694305096295
 30
0.0
 11
106.1517941641344
 21
198.3694305096295
 31
0.0
  0
LINE
  5
296
330
291
100
AcDbEntity
  8
1
 62
     2
100
AcDbLine
 10
107.009231579914
 20
195.1694305096295
 30
0.0
 11
107.8666689956936
 21
198.3694305096295
 31
0.0
  0
LINE
  5
297
330
291
100
AcDbEntity
  8
1
 62
     2
100
AcDbLine
 10
107.009231579914
 20
237.8694305096295
 30
0.0
 11
107.8666689956936
 21
234.6694305096295
 31
0.0
  0
LINE
  5
298
330
291
100
AcDbEntity
  8
1
 62
     2
100
AcDbLine
 10
107.009231579914
 20
237.8694305096295
 30
0.0
 11
106.1517941641344
 21
234.6694305096295
 31
0.0
  0
MTEXT
  5
299
330
291
100
AcDbEntity
  8
1
 62
     2
100
AcDbMText
 10
106.009231579914
 20
203.9590394498462
 30
0.0
 40
3.2
 41
0.0
 71
     7
 72
     1
  1
\C2;φ\C2;42.7
  7
CONVERTER_3
 11
0.0
 21
1.0
 31
0.0
 73
     1
 44
0.60024009603842
  0
ENDBLK
  5
29B
330
291
100
AcDbEntity
  8
0
100
AcDbBlockEnd
  0
BLOCK
  5
2A9
330
29E
100
AcDbEntity
  8
0
100
AcDbBlockBegin
  2
*D25
 70
     1
 71
     0
 10
0.0
 20
0.0
 30
0.0
  3
*D25
  1

  0
LINE
  5
29F
330
29E
100
AcDbEntity
  8
1
  6
Continuous
 62
     2
100
AcDbLine
 10
374.7014486859029
 20
186.427850700085
 30
0.0
 11
381.1014486859029
 21
186.427850700085
 31
0.0
  0
LINE
  5
2A0
330
29E
100
AcDbEntity
  8
1
  6
Continuous
 62
     2
100
AcDbLine
 10
366.701448685903
 20
186.427850700085
 30
0.0
 11
374.7014486859029
 21
186.427850700085
 31
0.0
  0
LINE
  5
2A1
330
29E
100
AcDbEntity
  8
1
  6
Continuous
 62
     2
100
AcDbLine
 10
360.301448685903
 20
186.427850700085
 30
0.0
 11
366.701448685903
 21
186.427850700085
 31
0.0
  0
LINE
  5
2A2
330
29E
100
AcDbEntity
  8
1
  6
Continuous
 62
     2
100
AcDbLine
 10
366.701448685903
 20
198.9557147000849
 30
0.0
 11
366.701448685903
 21
185.427850700085
 31
0.0
  0
LINE
  5
2A3
330
29E
100
AcDbEntity
  8
1
  6
Continuous
 62
     2
100
AcDbLine
 10
374.7014486859029
 20
198.9557147000849
 30
0.0
 11
374.7014486859029
 21
185.427850700085
 31
0.0
  0
LINE
  5
2A4
330
29E
100
AcDbEntity
  8
1
 62
     2
100
AcDbLine
 10
366.701448685903
 20
186.427850700085
 30
0.0
 11
363.501448685903
 21
185.5704132843054
 31
0.0
  0
LINE
  5
2A5
330
29E
100
AcDbEntity
  8
1
 62
     2
100
AcDbLine
 10
366.701448685903
 20
186.427850700085
 30
0.0
 11
363.501448685903
 21
187.2852881158646
 31
0.0
  0
LINE
  5
2A6
330
29E
100
AcDbEntity
  8
1
 62
     2
100
AcDbLine
 10
374.7014486859029
 20
186.427850700085
 30
0.0
 11
377.9014486859029
 21
187.2852881158646
 31
0.0
  0
LINE
  5
2A7
330
29E
100
AcDbEntity
  8
1
 62
     2
100
AcDbLine
 10
374.7014486859029
 20
186.427850700085
 30
0.0
 11
377.9014486859029
 21
185.5704132843054
 31
0.0
  0
MTEXT
  5
2A8
330
29E
100
AcDbEntity
  8
1
 62
     2
100
AcDbMText
 10
370.3446150544174
 20
188.451261443279
 30
0.0
 40
3.2
 41
0.0
 71
     7
 72
     1
  1
8
  7
CONVERTER_1
 11
0.9999999999970621
 21
2.424068405545307E-6
 31
0.0
 73
     1
 44
0.60024009603842
  0
ENDBLK
  5
2AA
330
29E
100
AcDbEntity
  8
0
100
AcDbBlockEnd
  0
BLOCK
  5
2B6
330
2AD
100
AcDbEntity
  8
0
100
AcDbBlockBegin
  2
*D36
 70
     1
 71
     0
 10
0.0
 20
0.0
 30
0.0
  3
*D36
  1

  0
LINE
  5
2AE
330
2AD
100
AcDbEntity
  8
1
  6
Continuous
 62
     2
100
AcDbLine
 10
26.91788908765671
 20
186.4278507000849
 30
0.0
 11
36.91788908765674
 21
186.4278507000849
 31
0.0
  0
LINE
  5
2AF
330
2AD
100
AcDbEntity
  8
1
  6
Continuous
 62
     2
100
AcDbLine
 10
36.91788908765674
 20
198.9557147000849
 30
0.0
 11
36.91788908765674
 21
185.4278507000849
 31
0.0
  0
LINE
  5
2B0
330
2AD
100
AcDbEntity
  8
1
  6
Continuous
 62
     2
100
AcDbLine
 10
26.91788908765671
 20
203.4278507000849
 30
0.0
 11
26.91788908765671
 21
185.4278507000849
 31
0.0
  0
LINE
  5
2B1
330
2AD
100
AcDbEntity
  8
1
 62
     2
100
AcDbLine
 10
26.91788908765671
 20
186.4278507000849
 30
0.0
 11
30.11788908765671
 21
187.2852881158645
 31
0.0
  0
LINE
  5
2B2
330
2AD
100
AcDbEntity
  8
1
 62
     2
100
AcDbLine
 10
26.91788908765671
 20
186.4278507000849
 30
0.0
 11
30.11788908765671
 21
185.5704132843053
 31
0.0
  0
LINE
  5
2B3
330
2AD
100
AcDbEntity
  8
1
 62
     2
100
AcDbLine
 10
36.91788908765674
 20
186.4278507000849
 30
0.0
 11
33.71788908765674
 21
185.5704132843053
 31
0.0
  0
LINE
  5
2B4
330
2AD
100
AcDbEntity
  8
1
 62
     2
100
AcDbLine
 10
36.91788908765674
 20
186.4278507000849
 30
0.0
 11
33.71788908765674
 21
187.2852881158645
 31
0.0
  0
MTEXT
  5
2B5
330
2AD
100
AcDbEntity
  8
1
 62
     2
100
AcDbMText
 10
29.83910554561714
 20
188.451261443279
 30
0.0
 40
3.2
 41
0.0
 71
     7
 72
     1
  1
10
  7
CONVERTER_1
 11
0.9999999999970621
 21
2.424068405545307E-6
 31
0.0
 73
     1
 44
0.60024009603842
  0
ENDBLK
  5
2B7
330
2AD
100
AcDbEntity
  8
0
100
AcDbBlockEnd
  0
BLOCK
  5
2C3
330
2BA
100
AcDbEntity
  8
0
100
AcDbBlockBegin
  2
*D47
 70
     1
 71
     0
 10
0.0
 20
0.0
 30
0.0
  3
*D47
  1

  0
LINE
  5
2BB
330
2BA
100
AcDbEntity
  8
1
  6
Continuous
 62
     2
100
AcDbLine
 10
14.91788908765671
 20
210.4278507000849
 30
0.0
 11
14.91788908765671
 21
198.4278507000849
 31
0.0
  0
LINE
  5
2BC
330
2BA
100
AcDbEntity
  8
1
  6
Continuous
 62
     2
100
AcDbLine
 10
31.91788908765674
 20
198.4278507000849
 30
0.0
 11
13.91788908765671
 21
198.4278507000849
 31
0.0
  0
LINE
  5
2BD
330
2BA
100
AcDbEntity
  8
1
  6
Continuous
 62
     2
100
AcDbLine
 10
31.91788908765674
 20
210.4278507000849
 30
0.0
 11
13.91788908765671
 21
210.4278507000849
 31
0.0
  0
LINE
  5
2BE
330
2BA
100
AcDbEntity
  8
1
 62
     2
100
AcDbLine
 10
14.91788908765671
 20
210.4278507000849
 30
0.0
 11
15.7753265034363
 21
207.2278507000849
 31
0.0
  0
LINE
  5
2BF
330
2BA
100
AcDbEntity
  8
1
 62
     2
100
AcDbLine
 10
14.91788908765671
 20
210.4278507000849
 30
0.0
 11
14.06045167187712
 21
207.2278507000849
 31
0.0
  0
LINE
  5
2C0
330
2BA
100
AcDbEntity
  8
1
 62
     2
100
AcDbLine
 10
14.91788908765671
 20
198.4278507000849
 30
0.0
 11
14.06045167187712
 21
201.6278507000849
 31
0.0
  0
LINE
  5
2C1
330
2BA
100
AcDbEntity
  8
1
 62
     2
100
AcDbLine
 10
14.91788908765671
 20
198.4278507000849
 30
0.0
 11
15.7753265034363
 21
201.6278507000849
 31
0.0
  0
MTEXT
  5
2C2
330
2BA
100
AcDbEntity
  8
1
 62
     2
100
AcDbMText
 10
12.03799642218213
 20
199.0487752576302
 30
0.0
 40
3.2
 41
0.0
 71
     7
 72
     1
  1
\C2;φ\C2;12
  7
CONVERTER_3
 11
0.0
 21
1.0
 31
0.0
 73
     1
 44
0.60024009603842
  0
ENDBLK
  5
2C4
330
2BA
100
AcDbEntity
  8
0
100
AcDbBlockEnd
  0
BLOCK
  5
2D0
330
2C7
100
AcDbEntity
  8
0
100
AcDbBlockBegin
  2
*D58
 70
     1
 71
     0
 10
0.0
 20
0.0
 30
0.0
  3
*D58
  1

  0
LINE
  5
2C8
330
2C7
100
AcDbEntity
  8
1
  6
Continuous
 62
     2
100
AcDbLine
 10
354.701448685903
 20
198.4278507000849
 30
0.0
 11
354.701448685903
 21
210.4278507000848
 31
0.0
  0
LINE
  5
2C9
330
2C7
100
AcDbEntity
  8
1
  6
Continuous
 62
     2
100
AcDbLine
 10
369.701448685903
 20
198.4278507000849
 30
0.0
 11
353.701448685903
 21
198.4278507000849
 31
0.0
  0
LINE
  5
2CA
330
2C7
100
AcDbEntity
  8
1
  6
Continuous
 62
     2
100
AcDbLine
 10
369.701448685903
 20
210.4278507000848
 30
0.0
 11
353.701448685903
 21
210.4278507000848
 31
0.0
  0
LINE
  5
2CB
330
2C7
100
AcDbEntity
  8
1
 62
     2
100
AcDbLine
 10
354.701448685903
 20
198.4278507000849
 30
0.0
 11
353.8440112701234
 21
201.6278507000849
 31
0.0
  0
LINE
  5
2CC
330
2C7
100
AcDbEntity
  8
1
 62
     2
100
AcDbLine
 10
354.701448685903
 20
198.4278507000849
 30
0.0
 11
355.5588861016826
 21
201.6278507000849
 31
0.0
  0
LINE
  5
2CD
330
2C7
100
AcDbEntity
  8
1
 62
     2
100
AcDbLine
 10
354.701448685903
 20
210.4278507000848
 30
0.0
 11
355.5588861016826
 21
207.2278507000848
 31
0.0
  0
LINE
  5
2CE
330
2C7
100
AcDbEntity
  8
1
 62
     2
100
AcDbLine
 10
354.701448685903
 20
210.4278507000848
 30
0.0
 11
353.8440112701234
 21
207.2278507000848
 31
0.0
  0
MTEXT
  5
2CF
330
2C7
100
AcDbEntity
  8
1
 62
     2
100
AcDbMText
 10
353.075155228215
 20
198.0356599907632
 30
0.0
 40
3.2
 41
0.0
 71
     7
 72
     1
  1
\C2;φ\C2;12
  7
CONVERTER_3
 11
0.0
 21
1.0
 31
0.0
 73
     1
 44
0.60024009603842
  0
ENDBLK
  5
2D1
330
2C7
100
AcDbEntity
  8
0
100
AcDbBlockEnd
  0
BLOCK
  5
2DD
330
2D4
100
AcDbEntity
  8
0
100
AcDbBlockBegin
  2
*D69
 70
     1
 71
     0
 10
0.0
 20
0.0
 30
0.0
  3
*D69
  1

  0
LINE
  5
2D5
330
2D4
100
AcDbEntity
  8
1
  6
Continuous
 62
     2
100
AcDbLine
 10
96.83005313416794
 20
121.9973361674163
 30
0.0
 11
96.83005313416794
 21
77.99733616741629
 31
0.0
  0
LINE
  5
2D6
330
2D4
100
AcDbEntity
  8
1
  6
Continuous
 62
     2
100
AcDbLine
 10
132.8300531341679
 20
77.99733616741629
 30
0.0
 11
95.83005313416794
 21
77.99733616741629
 31
0.0
  0
LINE
  5
2D7
330
2D4
100
AcDbEntity
  8
1
  6
Continuous
 62
     2
100
AcDbLine
 10
143.8300531341679
 20
121.9973361674163
 30
0.0
 11
95.83005313416794
 21
121.9973361674163
 31
0.0
  0
LINE
  5
2D8
330
2D4
100
AcDbEntity
  8
1
 62
     2
100
AcDbLine
 10
96.83005313416794
 20
121.9973361674163
 30
0.0
 11
97.68749054994753
 21
118.7973361674163
 31
0.0
  0
LINE
  5
2D9
330
2D4
100
AcDbEntity
  8
1
 62
     2
100
AcDbLine
 10
96.83005313416794
 20
121.9973361674163
 30
0.0
 11
95.97261571838835
 21
118.7973361674163
 31
0.0
  0
LINE
  5
2DA
330
2D4
100
AcDbEntity
  8
1
 62
     2
100
AcDbLine
 10
96.83005313416794
 20
77.99733616741629
 30
0.0
 11
95.97261571838835
 21
81.1973361674163
 31
0.0
  0
LINE
  5
2DB
330
2D4
100
AcDbEntity
  8
1
 62
     2
100
AcDbLine
 10
96.83005313416794
 20
77.99733616741629
 30
0.0
 11
97.68749054994753
 21
81.1973361674163
 31
0.0
  0
MTEXT
  5
2DC
330
2D4
100
AcDbEntity
  8
1
 62
     2
100
AcDbMText
 10
95.83005313416791
 20
99.61926661383269
 30
0.0
 40
3.2
 41
0.0
 71
     7
 72
     1
  1
44
  7
CONVERTER_1
 11
0.0
 21
1.0
 31
0.0
 73
     1
 44
0.60024009603842
  0
ENDBLK
  5
2DE
330
2D4
100
AcDbEntity
  8
0
100
AcDbBlockEnd
  0
BLOCK
  5
2EA
330
2E1
100
AcDbEntity
  8
0
100
AcDbBlockBegin
  2
*D710
 70
     1
 71
     0
 10
0.0
 20
0.0
 30
0.0
  3
*D710
  1

  0
LINE
  5
2E2
330
2E1
100
AcDbEntity
  8
1
  6
Continuous
 62
     2
100
AcDbLine
 10
199.8300531341679
 20
113.9973361674163
 30
0.0
 11
199.8300531341679
 21
88.99733616741629
 31
0.0
  0
LINE
  5
2E3
330
2E1
100
AcDbEntity
  8
1
  6
Continuous
 62
     2
100
AcDbLine
 10
174.7300531341679
 20
88.99733616741629
 30
0.0
 11
200.8300531341679
 21
88.99733616741629
 31
0.0
  0
LINE
  5
2E4
330
2E1
100
AcDbEntity
  8
1
  6
Continuous
 62
     2
100
AcDbLine
 10
178.4130581341679
 20
113.9973361674163
 30
0.0
 11
200.8300531341679
 21
113.9973361674163
 31
0.0
  0
LINE
  5
2E5
330
2E1
100
AcDbEntity
  8
1
 62
     2
100
AcDbLine
 10
199.8300531341679
 20
113.9973361674163
 30
0.0
 11
200.6874905499475
 21
110.7973361674163
 31
0.0
  0
LINE
  5
2E6
330
2E1
100
AcDbEntity
  8
1
 62
     2
100
AcDbLine
 10
199.8300531341679
 20
113.9973361674163
 30
0.0
 11
198.9726157183883
 21
110.7973361674163
 31
0.0
  0
LINE
  5
2E7
330
2E1
100
AcDbEntity
  8
1
 62
     2
100
AcDbLine
 10
199.8300531341679
 20
88.99733616741629
 30
0.0
 11
198.9726157183883
 21
92.1973361674163
 31
0.0
  0
LINE
  5
2E8
330
2E1
100
AcDbEntity
  8
1
 62
     2
100
AcDbLine
 10
199.8300531341679
 20
88.99733616741629
 30
0.0
 11
200.6874905499475
 21
92.1973361674163
 31
0.0
  0
MTEXT
  5
2E9
330
2E1
100
AcDbEntity
  8
1
 62
     2
100
AcDbMText
 10
198.8300531341679
 20
97.62996224509369
 30
0.0
 40
3.2
 41
0.0
 71
     7
 72
     1
  1
25
  7
CONVERTER_1
 11
0.0
 21
1.0
 31
0.0
 73
     1
 44
0.60024009603842
  0
ENDBLK
  5
2EB
330
2E1
100
AcDbEntity
  8
0
100
AcDbBlockEnd
  0
BLOCK
  5
2F7
330
2EE
100
AcDbEntity
  8
0
100
AcDbBlockBegin
  2
*D811
 70
     1
 71
     0
 10
0.0
 20
0.0
 30
0.0
  3
*D811
  1

  0
LINE
  5
2EF
330
2EE
100
AcDbEntity
  8
1
  6
Continuous
 62
     2
100
AcDbLine
 10
138.3300531341681
 20
65.99733616741628
 30
0.0
 11
168.3300531341681
 21
65.99733616741628
 31
0.0
  0
LINE
  5
2F0
330
2EE
100
AcDbEntity
  8
1
  6
Continuous
 62
     2
100
AcDbLine
 10
168.3300531341681
 20
80.59733616741627
 30
0.0
 11
168.3300531341681
 21
64.99733616741628
 31
0.0
  0
LINE
  5
2F1
330
2EE
100
AcDbEntity
  8
1
  6
Continuous
 62
     2
100
AcDbLine
 10
138.3300531341681
 20
80.59733616741627
 30
0.0
 11
138.3300531341681
 21
64.99733616741628
 31
0.0
  0
LINE
  5
2F2
330
2EE
100
AcDbEntity
  8
1
 62
     2
100
AcDbLine
 10
138.3300531341681
 20
65.99733616741628
 30
0.0
 11
141.5300531341681
 21
66.85477358319587
 31
0.0
  0
LINE
  5
2F3
330
2EE
100
AcDbEntity
  8
1
 62
     2
100
AcDbLine
 10
138.3300531341681
 20
65.99733616741628
 30
0.0
 11
141.5300531341681
 21
65.13989875163669
 31
0.0
  0
LINE
  5
2F4
330
2EE
100
AcDbEntity
  8
1
 62
     2
100
AcDbLine
 10
168.3300531341681
 20
65.99733616741628
 30
0.0
 11
165.1300531341681
 21
65.13989875163669
 31
0.0
  0
LINE
  5
2F5
330
2EE
100
AcDbEntity
  8
1
 62
     2
100
AcDbLine
 10
168.3300531341681
 20
65.99733616741628
 30
0.0
 11
165.1300531341681
 21
66.85477358319588
 31
0.0
  0
MTEXT
  5
2F6
330
2EE
100
AcDbEntity
  8
1
 62
     2
100
AcDbMText
 10
152.7087694129811
 20
66.99733616741628
 30
0.0
 40
3.2
 41
0.0
 71
     7
 72
     1
  1
30
  7
CONVERTER_1
 11
0.9999999999970621
 21
2.424068405545307E-6
 31
0.0
 73
     1
 44
0.60024009603842
  0
ENDBLK
  5
2F8
330
2EE
100
AcDbEntity
  8
0
100
AcDbBlockEnd
  0
BLOCK
  5
304
330
2FB
100
AcDbEntity
  8
0
100
AcDbBlockBegin
  2
*D912
 70
     1
 71
     0
 10
0.0
 20
0.0
 30
0.0
  3
*D912
  1

  0
LINE
  5
2FC
330
2FB
100
AcDbEntity
  8
1
  6
Continuous
 62
     2
100
AcDbLine
 10
128.8300531341681
 20
55.99733616741628
 30
0.0
 11
177.8300531341681
 21
55.99733616741628
 31
0.0
  0
LINE
  5
2FD
330
2FB
100
AcDbEntity
  8
1
  6
Continuous
 62
     2
100
AcDbLine
 10
177.8300531341681
 20
81.99733616741628
 30
0.0
 11
177.8300531341681
 21
54.99733616741628
 31
0.0
  0
LINE
  5
2FE
330
2FB
100
AcDbEntity
  8
1
  6
Continuous
 62
     2
100
AcDbLine
 10
128.8300531341681
 20
81.99733616741628
 30
0.0
 11
128.8300531341681
 21
54.99733616741628
 31
0.0
  0
LINE
  5
2FF
330
2FB
100
AcDbEntity
  8
1
 62
     2
100
AcDbLine
 10
128.8300531341681
 20
55.99733616741628
 30
0.0
 11
132.0300531341681
 21
56.85477358319587
 31
0.0
  0
LINE
  5
300
330
2FB
100
AcDbEntity
  8
1
 62
     2
100
AcDbLine
 10
128.8300531341681
 20
55.99733616741628
 30
0.0
 11
132.0300531341681
 21
55.13989875163669
 31
0.0
  0
LINE
  5
301
330
2FB
100
AcDbEntity
  8
1
 62
     2
100
AcDbLine
 10
177.8300531341681
 20
55.99733616741628
 30
0.0
 11
174.6300531341681
 21
55.13989875163669
 31
0.0
  0
LINE
  5
302
330
2FB
100
AcDbEntity
  8
1
 62
     2
100
AcDbLine
 10
177.8300531341681
 20
55.99733616741628
 30
0.0
 11
174.6300531341681
 21
56.85477358319587
 31
0.0
  0
MTEXT
  5
303
330
2FB
100
AcDbEntity
  8
1
 62
     2
100
AcDbMText
 10
152.0148260285371
 20
57.47733616741628
 30
0.0
 40
3.2
 41
0.0
 71
     7
 72
     1
  1
49
  7
CONVERTER_1
 11
0.9999999999970621
 21
2.424068405545307E-6
 31
0.0
 73
     1
 44
0.60024009603842
  0
ENDBLK
  5
305
330
2FB
100
AcDbEntity
  8
0
100
AcDbBlockEnd
  0
BLOCK
  5
311
330
308
100
AcDbEntity
  8
0
100
AcDbBlockBegin
  2
*D1013
 70
     1
 71
     0
 10
0.0
 20
0.0
 30
0.0
  3
*D1013
  1

  0
LINE
  5
309
330
308
100
AcDbEntity
  8
1
  6
Continuous
 62
     2
100
AcDbLine
 10
118.830053134168
 20
45.99733616741628
 30
0.0
 11
187.830053134168
 21
45.99733616741628
 31
0.0
  0
LINE
  5
30A
330
308
100
AcDbEntity
  8
1
  6
Continuous
 62
     2
100
AcDbLine
 10
187.830053134168
 20
86.79733616741629
 30
0.0
 11
187.830053134168
 21
44.99733616741628
 31
0.0
  0
LINE
  5
30B
330
308
100
AcDbEntity
  8
1
  6
Continuous
 62
     2
100
AcDbLine
 10
118.830053134168
 20
86.79733616741629
 30
0.0
 11
118.830053134168
 21
44.99733616741628
 31
0.0
  0
LINE
  5
30C
330
308
100
AcDbEntity
  8
1
 62
     2
100
AcDbLine
 10
118.830053134168
 20
45.99733616741628
 30
0.0
 11
122.030053134168
 21
46.85477358319587
 31
0.0
  0
LINE
  5
30D
330
308
100
AcDbEntity
  8
1
 62
     2
100
AcDbLine
 10
118.830053134168
 20
45.99733616741628
 30
0.0
 11
122.030053134168
 21
45.13989875163669
 31
0.0
  0
LINE
  5
30E
330
308
100
AcDbEntity
  8
1
 62
     2
100
AcDbLine
 10
187.830053134168
 20
45.99733616741628
 30
0.0
 11
184.630053134168
 21
45.13989875163669
 31
0.0
  0
LINE
  5
30F
330
308
100
AcDbEntity
  8
1
 62
     2
100
AcDbLine
 10
187.830053134168
 20
45.99733616741628
 30
0.0
 11
184.630053134168
 21
46.85477358319587
 31
0.0
  0
MTEXT
  5
310
330
308
100
AcDbEntity
  8
1
 62
     2
100
AcDbMText
 10
152.4774549515
 20
47.47733616741628
 30
0.0
 40
3.2
 41
0.0
 71
     7
 72
     1
  1
69
  7
CONVERTER_1
 11
0.9999999999970621
 21
2.424068405545307E-6
 31
0.0
 73
     1
 44
0.60024009603842
  0
ENDBLK
  5
312
330
308
100
AcDbEntity
  8
0
100
AcDbBlockEnd
  0
BLOCK
  5
31E
330
315
100
AcDbEntity
  8
0
100
AcDbBlockBegin
  2
*D1114
 70
     1
 71
     0
 10
0.0
 20
0.0
 30
0.0
  3
*D1114
  1

  0
LINE
  5
316
330
315
100
AcDbEntity
  8
1
  6
Continuous
 62
     2
100
AcDbLine
 10
257.862075134168
 20
55.99733616741628
 30
0.0
 11
283.462075134168
 21
55.99733616741628
 31
0.0
  0
LINE
  5
317
330
315
100
AcDbEntity
  8
1
  6
Continuous
 62
     2
100
AcDbLine
 10
283.462075134168
 20
77.99733616741628
 30
0.0
 11
283.462075134168
 21
54.99733616741628
 31
0.0
  0
LINE
  5
318
330
315
100
AcDbEntity
  8
1
  6
Continuous
 62
     2
100
AcDbLine
 10
257.862075134168
 20
79.78939416741628
 30
0.0
 11
257.862075134168
 21
54.99733616741628
 31
0.0
  0
LINE
  5
319
330
315
100
AcDbEntity
  8
1
 62
     2
100
AcDbLine
 10
257.862075134168
 20
55.99733616741628
 30
0.0
 11
261.062075134168
 21
56.85477358319587
 31
0.0
  0
LINE
  5
31A
330
315
100
AcDbEntity
  8
1
 62
     2
100
AcDbLine
 10
257.862075134168
 20
55.99733616741628
 30
0.0
 11
261.062075134168
 21
55.13989875163669
 31
0.0
  0
LINE
  5
31B
330
315
100
AcDbEntity
  8
1
 62
     2
100
AcDbLine
 10
283.462075134168
 20
55.99733616741628
 30
0.0
 11
280.262075134168
 21
55.13989875163669
 31
0.0
  0
LINE
  5
31C
330
315
100
AcDbEntity
  8
1
 62
     2
100
AcDbLine
 10
283.462075134168
 20
55.99733616741628
 30
0.0
 11
280.262075134168
 21
56.85477358319587
 31
0.0
  0
MTEXT
  5
31D
330
315
100
AcDbEntity
  8
1
 62
     2
100
AcDbMText
 10
267.030425860834
 20
57.47733616741628
 30
0.0
 40
3.2
 41
0.0
 71
     7
 72
     1
  1
25.6
  7
CONVERTER_1
 11
0.9999999999970621
 21
2.424068405545307E-6
 31
0.0
 73
     1
 44
0.60024009603842
  0
ENDBLK
  5
31F
330
315
100
AcDbEntity
  8
0
100
AcDbBlockEnd
  0
BLOCK
  5
32D
330
322
100
AcDbEntity
  8
0
100
AcDbBlockBegin
  2
*D1215
 70
     1
 71
     0
 10
0.0
 20
0.0
 30
0.0
  3
*D1215
  1

  0
LINE
  5
323
330
322
100
AcDbEntity
  8
1
  6
Continuous
 62
     2
100
AcDbLine
 10
268.0223991741105
 20
65.99733616741628
 30
0.0
 11
280.862075134168
 21
65.99733616741628
 31
0.0
  0
LINE
  5
324
330
322
100
AcDbEntity
  8
1
  6
Continuous
 62
     2
100
AcDbLine
 10
280.862075134168
 20
65.99733616741628
 30
0.0
 11
283.462075134168
 21
65.99733616741628
 31
0.0
  0
LINE
  5
325
330
322
100
AcDbEntity
  8
1
  6
Continuous
 62
     2
100
AcDbLine
 10
283.462075134168
 20
65.99733616741628
 30
0.0
 11
289.862075134168
 21
65.99733616741628
 31
0.0
  0
LINE
  5
326
330
322
100
AcDbEntity
  8
1
  6
Continuous
 62
     2
100
AcDbLine
 10
283.462075134168
 20
77.99733616741628
 30
0.0
 11
283.462075134168
 21
64.99733616741628
 31
0.0
  0
LINE
  5
327
330
322
100
AcDbEntity
  8
1
  6
Continuous
 62
     2
100
AcDbLine
 10
280.862075134168
 20
77.99733616741628
 30
0.0
 11
280.862075134168
 21
64.99733616741628
 31
0.0
  0
LINE
  5
328
330
322
100
AcDbEntity
  8
1
 62
     2
100
AcDbLine
 10
280.862075134168
 20
65.99733616741628
 30
0.0
 11
277.662075134168
 21
65.13989875163669
 31
0.0
  0
LINE
  5
329
330
322
100
AcDbEntity
  8
1
 62
     2
100
AcDbLine
 10
280.862075134168
 20
65.99733616741628
 30
0.0
 11
277.662075134168
 21
66.85477358319588
 31
0.0
  0
LINE
  5
32A
330
322
100
AcDbEntity
  8
1
 62
     2
100
AcDbLine
 10
283.462075134168
 20
65.99733616741628
 30
0.0
 11
286.662075134168
 21
66.85477358319587
 31
0.0
  0
LINE
  5
32B
330
322
100
AcDbEntity
  8
1
 62
     2
100
AcDbLine
 10
283.462075134168
 20
65.99733616741628
 30
0.0
 11
286.662075134168
 21
65.13989875163669
 31
0.0
  0
MTEXT
  5
32C
330
322
100
AcDbEntity
  8
1
 62
     2
100
AcDbMText
 10
266.685510285237
 20
67.47732344590528
 30
0.0
 40
3.2
 41
0.0
 71
     7
 72
     1
  1
\C2;ｔ\C2;2.6
  7
CONVERTER_3
 11
0.9999999999970621
 21
2.424068405545307E-6
 31
0.0
 73
     1
 44
0.60024009603842
  0
ENDBLK
  5
32E
330
322
100
AcDbEntity
  8
0
100
AcDbBlockEnd
  0
BLOCK
  5
33A
330
331
100
AcDbEntity
  8
0
100
AcDbBlockBegin
  2
*D1316
 70
     1
 71
     0
 10
0.0
 20
0.0
 30
0.0
  3
*D1316
  1

  0
LINE
  5
332
330
331
100
AcDbEntity
  8
1
  6
Continuous
 62
     2
100
AcDbLine
 10
53.78788908765674
 20
165.1278507000848
 30
0.0
 11
68.78788908765674
 21
165.1278507000848
 31
0.0
  0
LINE
  5
333
330
331
100
AcDbEntity
  8
1
  6
Continuous
 62
     2
100
AcDbLine
 10
53.78788908765674
 20
198.4278507000849
 30
0.0
 11
53.78788908765674
 21
164.1278507000848
 31
0.0
  0
LINE
  5
334
330
331
100
AcDbEntity
  8
1
  6
Continuous
 62
     2
100
AcDbLine
 10
68.78788908765674
 20
198.9557147000849
 30
0.0
 11
68.78788908765674
 21
164.1278507000848
 31
0.0
  0
LINE
  5
335
330
331
100
AcDbEntity
  8
1
 62
     2
100
AcDbLine
 10
53.78788908765674
 20
165.1278507000848
 30
0.0
 11
56.98788908765674
 21
165.9852881158644
 31
0.0
  0
LINE
  5
336
330
331
100
AcDbEntity
  8
1
 62
     2
100
AcDbLine
 10
53.78788908765674
 20
165.1278507000848
 30
0.0
 11
56.98788908765674
 21
164.2704132843052
 31
0.0
  0
LINE
  5
337
330
331
100
AcDbEntity
  8
1
 62
     2
100
AcDbLine
 10
68.78788908765674
 20
165.1278507000848
 30
0.0
 11
65.58788908765673
 21
164.2704132843052
 31
0.0
  0
LINE
  5
338
330
331
100
AcDbEntity
  8
1
 62
     2
100
AcDbLine
 10
68.78788908765674
 20
165.1278507000848
 30
0.0
 11
65.58788908765673
 21
165.9852881158644
 31
0.0
  0
MTEXT
  5
339
330
331
100
AcDbEntity
  8
1
 62
     2
100
AcDbMText
 10
57.8495885509839
 20
166.1278507000848
 30
0.0
 40
3.2
 41
0.0
 71
     7
 72
     1
  1
15
  7
CONVERTER_1
 11
0.9999999999970621
 21
2.424068405545307E-6
 31
0.0
 73
     1
 44
0.60024009603842
  0
ENDBLK
  5
33B
330
331
100
AcDbEntity
  8
0
100
AcDbBlockEnd
  0
BLOCK
  5
347
330
33E
100
AcDbEntity
  8
0
100
AcDbBlockBegin
  2
*D1417
 70
     1
 71
     0
 10
0.0
 20
0.0
 30
0.0
  3
*D1417
  1

  0
LINE
  5
33F
330
33E
100
AcDbEntity
  8
1
  6
Continuous
 62
     2
100
AcDbLine
 10
290.7878890876567
 20
165.1278507000848
 30
0.0
 11
340.7878890876567
 21
165.1278507000848
 31
0.0
  0
LINE
  5
340
330
33E
100
AcDbEntity
  8
1
  6
Continuous
 62
     2
100
AcDbLine
 10
290.7878890876567
 20
198.4278507000849
 30
0.0
 11
290.7878890876567
 21
164.1278507000848
 31
0.0
  0
LINE
  5
341
330
33E
100
AcDbEntity
  8
1
  6
Continuous
 62
     2
100
AcDbLine
 10
340.7878890876567
 20
200.9278507000849
 30
0.0
 11
340.7878890876567
 21
164.1278507000848
 31
0.0
  0
LINE
  5
342
330
33E
100
AcDbEntity
  8
1
 62
     2
100
AcDbLine
 10
290.7878890876567
 20
165.1278507000848
 30
0.0
 11
293.9878890876567
 21
165.9852881158644
 31
0.0
  0
LINE
  5
343
330
33E
100
AcDbEntity
  8
1
 62
     2
100
AcDbLine
 10
290.7878890876567
 20
165.1278507000848
 30
0.0
 11
293.9878890876567
 21
164.2704132843052
 31
0.0
  0
LINE
  5
344
330
33E
100
AcDbEntity
  8
1
 62
     2
100
AcDbLine
 10
340.7878890876567
 20
165.1278507000848
 30
0.0
 11
337.5878890876567
 21
164.2704132843052
 31
0.0
  0
LINE
  5
345
330
33E
100
AcDbEntity
  8
1
 62
     2
100
AcDbLine
 10
340.7878890876567
 20
165.1278507000848
 30
0.0
 11
337.5878890876567
 21
165.9852881158644
 31
0.0
  0
MTEXT
  5
346
330
33E
100
AcDbEntity
  8
1
 62
     2
100
AcDbMText
 10
313.3878890876567
 20
166.1278507000848
 30
0.0
 40
3.2
 41
0.0
 71
     7
 72
     1
  1
50
  7
CONVERTER_1
 11
0.9999999999970621
 21
2.424068405545307E-6
 31
0.0
 73
     1
 44
0.60024009603842
  0
ENDBLK
  5
348
330
33E
100
AcDbEntity
  8
0
100
AcDbBlockEnd
  0
BLOCK
  5
354
330
34B
100
AcDbEntity
  8
0
100
AcDbBlockBegin
  2
*D1518
 70
     1
 71
     0
 10
0.0
 20
0.0
 30
0.0
  3
*D1518
  1

  0
LINE
  5
34C
330
34B
100
AcDbEntity
  8
1
  6
Continuous
 62
     2
100
AcDbLine
 10
278.7878890876567
 20
165.1278507000848
 30
0.0
 11
290.7878890876567
 21
165.1278507000848
 31
0.0
  0
LINE
  5
34D
330
34B
100
AcDbEntity
  8
1
  6
Continuous
 62
     2
100
AcDbLine
 10
278.7878890876567
 20
197.4278507000849
 30
0.0
 11
278.7878890876567
 21
164.1278507000848
 31
0.0
  0
LINE
  5
34E
330
34B
100
AcDbEntity
  8
1
  6
Continuous
 62
     2
100
AcDbLine
 10
290.7878890876567
 20
198.4278507000849
 30
0.0
 11
290.7878890876567
 21
164.1278507000848
 31
0.0
  0
LINE
  5
34F
330
34B
100
AcDbEntity
  8
1
 62
     2
100
AcDbLine
 10
278.7878890876567
 20
165.1278507000848
 30
0.0
 11
281.9878890876567
 21
165.9852881158644
 31
0.0
  0
LINE
  5
350
330
34B
100
AcDbEntity
  8
1
 62
     2
100
AcDbLine
 10
278.7878890876567
 20
165.1278507000848
 30
0.0
 11
281.9878890876567
 21
164.2704132843052
 31
0.0
  0
LINE
  5
351
330
34B
100
AcDbEntity
  8
1
 62
     2
100
AcDbLine
 10
290.7878890876567
 20
165.1278507000848
 30
0.0
 11
287.5878890876567
 21
164.2704132843052
 31
0.0
  0
LINE
  5
352
330
34B
100
AcDbEntity
  8
1
 62
     2
100
AcDbLine
 10
290.7878890876567
 20
165.1278507000848
 30
0.0
 11
287.5878890876567
 21
165.9852881158644
 31
0.0
  0
MTEXT
  5
353
330
34B
100
AcDbEntity
  8
1
 62
     2
100
AcDbMText
 10
282.8678890876567
 20
166.1278507000848
 30
0.0
 40
3.2
 41
0.0
 71
     7
 72
     1
  1
12
  7
CONVERTER_1
 11
0.9999999999970621
 21
2.424068405545307E-6
 31
0.0
 73
     1
 44
0.60024009603842
  0
ENDBLK
  5
355
330
34B
100
AcDbEntity
  8
0
100
AcDbBlockEnd
  0
BLOCK
  5
363
330
358
100
AcDbEntity
  8
0
100
AcDbBlockBegin
  2
*D1619
 70
     1
 71
     0
 10
0.0
 20
0.0
 30
0.0
  3
*D1619
  1

  0
LINE
  5
359
330
358
100
AcDbEntity
  8
1
  6
Continuous
 62
     2
100
AcDbLine
 10
278.7878890876567
 20
165.1278507000848
 30
0.0
 11
285.1878890876566
 21
165.1278507000848
 31
0.0
  0
LINE
  5
35A
330
358
100
AcDbEntity
  8
1
  6
Continuous
 62
     2
100
AcDbLine
 10
273.7878890876571
 20
165.1278507000848
 30
0.0
 11
278.7878890876567
 21
165.1278507000848
 31
0.0
  0
LINE
  5
35B
330
358
100
AcDbEntity
  8
1
  6
Continuous
 62
     2
100
AcDbLine
 10
267.3878890876571
 20
165.1278507000848
 30
0.0
 11
273.7878890876571
 21
165.1278507000848
 31
0.0
  0
LINE
  5
35C
330
358
100
AcDbEntity
  8
1
  6
Continuous
 62
     2
100
AcDbLine
 10
273.7878890876571
 20
176.1278507000848
 30
0.0
 11
273.7878890876571
 21
164.1278507000848
 31
0.0
  0
LINE
  5
35D
330
358
100
AcDbEntity
  8
1
  6
Continuous
 62
     2
100
AcDbLine
 10
278.7878890876567
 20
197.4278507000849
 30
0.0
 11
278.7878890876567
 21
164.1278507000848
 31
0.0
  0
LINE
  5
35E
330
358
100
AcDbEntity
  8
1
 62
     2
100
AcDbLine
 10
273.7878890876571
 20
165.1278507000848
 30
0.0
 11
270.5878890876571
 21
164.2704132843052
 31
0.0
  0
LINE
  5
35F
330
358
100
AcDbEntity
  8
1
 62
     2
100
AcDbLine
 10
273.7878890876571
 20
165.1278507000848
 30
0.0
 11
270.5878890876571
 21
165.9852881158644
 31
0.0
  0
LINE
  5
360
330
358
100
AcDbEntity
  8
1
 62
     2
100
AcDbLine
 10
278.7878890876567
 20
165.1278507000848
 30
0.0
 11
281.9878890876566
 21
165.9852881158644
 31
0.0
  0
LINE
  5
361
330
358
100
AcDbEntity
  8
1
 62
     2
100
AcDbLine
 10
278.7878890876567
 20
165.1278507000848
 30
0.0
 11
281.9878890876566
 21
164.2704132843052
 31
0.0
  0
MTEXT
  5
362
330
358
100
AcDbEntity
  8
1
 62
     2
100
AcDbMText
 10
275.3278890876569
 20
166.1278507000848
 30
0.0
 40
3.2
 41
0.0
 71
     7
 72
     1
  1
5
  7
CONVERTER_1
 11
0.9999999999970621
 21
2.424068405545307E-6
 31
0.0
 73
     1
 44
0.60024009603842
  0
ENDBLK
  5
364
330
358
100
AcDbEntity
  8
0
100
AcDbBlockEnd
  0
BLOCK
  5
370
330
367
100
AcDbEntity
  8
0
100
AcDbBlockBegin
  2
*D1720
 70
     1
 71
     0
 10
0.0
 20
0.0
 30
0.0
  3
*D1720
  1

  0
LINE
  5
368
330
367
100
AcDbEntity
  8
1
  6
Continuous
 62
     2
100
AcDbLine
 10
73.78788908765671
 20
165.1278507000848
 30
0.0
 11
273.7878890876571
 21
165.1278507000848
 31
0.0
  0
LINE
  5
369
330
367
100
AcDbEntity
  8
1
  6
Continuous
 62
     2
100
AcDbLine
 10
73.78788908765671
 20
182.0778507000849
 30
0.0
 11
73.78788908765671
 21
164.1278507000848
 31
0.0
  0
LINE
  5
36A
330
367
100
AcDbEntity
  8
1
  6
Continuous
 62
     2
100
AcDbLine
 10
273.7878890876571
 20
176.1278507000848
 30
0.0
 11
273.7878890876571
 21
164.1278507000848
 31
0.0
  0
LINE
  5
36B
330
367
100
AcDbEntity
  8
1
 62
     2
100
AcDbLine
 10
73.78788908765671
 20
165.1278507000848
 30
0.0
 11
76.98788908765671
 21
165.9852881158644
 31
0.0
  0
LINE
  5
36C
330
367
100
AcDbEntity
  8
1
 62
     2
100
AcDbLine
 10
73.78788908765671
 20
165.1278507000848
 30
0.0
 11
76.98788908765671
 21
164.2704132843052
 31
0.0
  0
LINE
  5
36D
330
367
100
AcDbEntity
  8
1
 62
     2
100
AcDbLine
 10
273.7878890876571
 20
165.1278507000848
 30
0.0
 11
270.5878890876571
 21
164.2704132843052
 31
0.0
  0
LINE
  5
36E
330
367
100
AcDbEntity
  8
1
 62
     2
100
AcDbLine
 10
273.7878890876571
 20
165.1278507000848
 30
0.0
 11
270.5878890876571
 21
165.9852881158644
 31
0.0
  0
MTEXT
  5
36F
330
367
100
AcDbEntity
  8
1
 62
     2
100
AcDbMText
 10
167.6101113098791
 20
166.1278507000848
 30
0.0
 40
3.2
 41
0.0
 71
     7
 72
     1
  1
ローラ幅
  7
CONVERTER_3
 11
0.9999999999970621
 21
2.424068405545307E-6
 31
0.0
 73
     1
 44
0.60024009603842
  0
ENDBLK
  5
371
330
367
100
AcDbEntity
  8
0
100
AcDbBlockEnd
  0
BLOCK
  5
37F
330
374
100
AcDbEntity
  8
0
100
AcDbBlockBegin
  2
*D1821
 70
     1
 71
     0
 10
0.0
 20
0.0
 30
0.0
  3
*D1821
  1

  0
LINE
  5
375
330
374
100
AcDbEntity
  8
1
  6
Continuous
 62
     2
100
AcDbLine
 10
73.78788908765674
 20
165.1278507000848
 30
0.0
 11
80.18788908765674
 21
165.1278507000848
 31
0.0
  0
LINE
  5
376
330
374
100
AcDbEntity
  8
1
  6
Continuous
 62
     2
100
AcDbLine
 10
68.78788908765674
 20
165.1278507000848
 30
0.0
 11
73.78788908765674
 21
165.1278507000848
 31
0.0
  0
LINE
  5
377
330
374
100
AcDbEntity
  8
1
  6
Continuous
 62
     2
100
AcDbLine
 10
62.38788908765674
 20
165.1278507000848
 30
0.0
 11
68.78788908765674
 21
165.1278507000848
 31
0.0
  0
LINE
  5
378
330
374
100
AcDbEntity
  8
1
  6
Continuous
 62
     2
100
AcDbLine
 10
68.78788908765674
 20
198.9557147000849
 30
0.0
 11
68.78788908765674
 21
164.1278507000848
 31
0.0
  0
LINE
  5
379
330
374
100
AcDbEntity
  8
1
  6
Continuous
 62
     2
100
AcDbLine
 10
73.78788908765674
 20
182.0778507000848
 30
0.0
 11
73.78788908765674
 21
164.1278507000848
 31
0.0
  0
LINE
  5
37A
330
374
100
AcDbEntity
  8
1
 62
     2
100
AcDbLine
 10
68.78788908765674
 20
165.1278507000848
 30
0.0
 11
65.58788908765673
 21
164.2704132843052
 31
0.0
  0
LINE
  5
37B
330
374
100
AcDbEntity
  8
1
 62
     2
100
AcDbLine
 10
68.78788908765674
 20
165.1278507000848
 30
0.0
 11
65.58788908765673
 21
165.9852881158644
 31
0.0
  0
LINE
  5
37C
330
374
100
AcDbEntity
  8
1
 62
     2
100
AcDbLine
 10
73.78788908765674
 20
165.1278507000848
 30
0.0
 11
76.98788908765674
 21
165.9852881158644
 31
0.0
  0
LINE
  5
37D
330
374
100
AcDbEntity
  8
1
 62
     2
100
AcDbLine
 10
73.78788908765674
 20
165.1278507000848
 30
0.0
 11
76.98788908765674
 21
164.2704132843052
 31
0.0
  0
MTEXT
  5
37E
330
374
100
AcDbEntity
  8
1
 62
     2
100
AcDbMText
 10
70.32788908765674
 20
166.1278507000848
 30
0.0
 40
3.2
 41
0.0
 71
     7
 72
     1
  1
5
  7
CONVERTER_1
 11
0.9999999999970621
 21
2.424068405545307E-6
 31
0.0
 73
     1
 44
0.60024009603842
  0
ENDBLK
  5
380
330
374
100
AcDbEntity
  8
0
100
AcDbBlockEnd
  0
BLOCK
  5
38E
330
383
100
AcDbEntity
  8
0
100
AcDbBlockBegin
  2
*D1922
 70
     1
 71
     0
 10
0.0
 20
0.0
 30
0.0
  3
*D1922
  1

  0
LINE
  5
384
330
383
100
AcDbEntity
  8
1
  6
Continuous
 62
     2
100
AcDbLine
 10
106.8300531341679
 20
128.3973361674163
 30
0.0
 11
106.8300531341679
 21
121.9973361674163
 31
0.0
  0
LINE
  5
385
330
383
100
AcDbEntity
  8
1
  6
Continuous
 62
     2
100
AcDbLine
 10
106.8300531341679
 20
121.9973361674163
 30
0.0
 11
106.8300531341679
 21
113.9973361674163
 31
0.0
  0
LINE
  5
386
330
383
100
AcDbEntity
  8
1
  6
Continuous
 62
     2
100
AcDbLine
 10
106.8300531341679
 20
113.9973361674163
 30
0.0
 11
106.8300531341679
 21
107.5973361674163
 31
0.0
  0
LINE
  5
387
330
383
100
AcDbEntity
  8
1
  6
Continuous
 62
     2
100
AcDbLine
 10
128.247047134168
 20
113.9973361674163
 30
0.0
 11
105.8300531341679
 21
113.9973361674163
 31
0.0
  0
LINE
  5
388
330
383
100
AcDbEntity
  8
1
  6
Continuous
 62
     2
100
AcDbLine
 10
143.8300531341679
 20
121.9973361674163
 30
0.0
 11
105.8300531341679
 21
121.9973361674163
 31
0.0
  0
LINE
  5
389
330
383
100
AcDbEntity
  8
1
 62
     2
100
AcDbLine
 10
106.8300531341679
 20
121.9973361674163
 30
0.0
 11
105.9726157183883
 21
125.1973361674163
 31
0.0
  0
LINE
  5
38A
330
383
100
AcDbEntity
  8
1
 62
     2
100
AcDbLine
 10
106.8300531341679
 20
121.9973361674163
 30
0.0
 11
107.6874905499475
 21
125.1973361674163
 31
0.0
  0
LINE
  5
38B
330
383
100
AcDbEntity
  8
1
 62
     2
100
AcDbLine
 10
106.8300531341679
 20
113.9973361674163
 30
0.0
 11
107.6874905499475
 21
110.7973361674163
 31
0.0
  0
LINE
  5
38C
330
383
100
AcDbEntity
  8
1
 62
     2
100
AcDbLine
 10
106.8300531341679
 20
113.9973361674163
 30
0.0
 11
105.9726157183883
 21
110.7973361674163
 31
0.0
  0
MTEXT
  5
38D
330
383
100
AcDbEntity
  8
1
 62
     2
100
AcDbMText
 10
105.8300531341679
 20
115.6320776871537
 30
0.0
 40
3.2
 41
0.0
 71
     7
 72
     1
  1
8
  7
CONVERTER_1
 11
0.0
 21
1.0
 31
0.0
 73
     1
 44
0.60024009603842
  0
ENDBLK
  5
38F
330
383
100
AcDbEntity
  8
0
100
AcDbBlockEnd
  0
BLOCK
  5
39B
330
392
100
AcDbEntity
  8
0
100
AcDbBlockBegin
  2
*D2023
 70
     1
 71
     0
 10
0.0
 20
0.0
 30
0.0
  3
*D2023
  1

  0
LINE
  5
393
330
392
100
AcDbEntity
  8
1
  6
Continuous
 62
     2
100
AcDbLine
 10
106.8300531341679
 20
113.9973361674163
 30
0.0
 11
106.8300531341679
 21
77.99733616741628
 31
0.0
  0
LINE
  5
394
330
392
100
AcDbEntity
  8
1
  6
Continuous
 62
     2
100
AcDbLine
 10
132.8300531341679
 20
77.99733616741628
 30
0.0
 11
105.8300531341679
 21
77.99733616741628
 31
0.0
  0
LINE
  5
395
330
392
100
AcDbEntity
  8
1
  6
Continuous
 62
     2
100
AcDbLine
 10
128.247047134168
 20
113.9973361674163
 30
0.0
 11
105.8300531341679
 21
113.9973361674163
 31
0.0
  0
LINE
  5
396
330
392
100
AcDbEntity
  8
1
 62
     2
100
AcDbLine
 10
106.8300531341679
 20
113.9973361674163
 30
0.0
 11
107.6874905499475
 21
110.7973361674163
 31
0.0
  0
LINE
  5
397
330
392
100
AcDbEntity
  8
1
 62
     2
100
AcDbLine
 10
106.8300531341679
 20
113.9973361674163
 30
0.0
 11
105.9726157183883
 21
110.7973361674163
 31
0.0
  0
LINE
  5
398
330
392
100
AcDbEntity
  8
1
 62
     2
100
AcDbLine
 10
106.8300531341679
 20
77.99733616741628
 30
0.0
 11
105.9726157183883
 21
81.19733616741628
 31
0.0
  0
LINE
  5
399
330
392
100
AcDbEntity
  8
1
 62
     2
100
AcDbLine
 10
106.8300531341679
 20
77.99733616741628
 30
0.0
 11
107.6874905499475
 21
81.19733616741628
 31
0.0
  0
MTEXT
  5
39A
330
392
100
AcDbEntity
  8
1
 62
     2
100
AcDbMText
 10
105.3500531341679
 20
93.59733616741627
 30
0.0
 40
3.2
 41
0.0
 71
     7
 72
     1
  1
36
  7
CONVERTER_1
 11
0.0
 21
1.0
 31
0.0
 73
     1
 44
0.60024009603842
  0
ENDBLK
  5
39C
330
392
100
AcDbEntity
  8
0
100
AcDbBlockEnd
  0
ENDSEC
  0
SECTION
  2
ENTITIES
  0
INSERT
  5
3A
330
1F
100
AcDbEntity
  8
0
100
AcDbBlockReference
  2
Zuwaku-A3-web
 10
196.9999999999998
 20
134.0
 30
0.0
  0
POINT
  5
6B
330
1F
100
AcDbEntity
  8
1
 62
     3
 60
     1
100
AcDbPoint
 10
53.78788908765674
 20
208.8999867000849
 30
0.0
  0
POINT
  5
6C
330
1F
100
AcDbEntity
  8
1
 62
     3
 60
     1
100
AcDbPoint
 10
53.78788908765674
 20
199.9557147000849
 30
0.0
  0
POINT
  5
6D
330
1F
100
AcDbEntity
  8
1
 62
     3
 60
     1
100
AcDbPoint
 10
32.91788908765674
 20
198.4278507000849
 30
0.0
  0
POINT
  5
6E
330
1F
100
AcDbEntity
  8
1
 62
     3
 60
     1
100
AcDbPoint
 10
26.91788908765671
 20
204.4278507000849
 30
0.0
  0
LINE
  5
6F
330
1F
100
AcDbEntity
  8
JISSEN
  6
Continuous
 62
     7
100
AcDbLine
 10
168.7878890876567
 20
180.8168507000848
 30
0.0
 11
73.78788908765674
 21
183.0778507000849
 31
0.0
  0
LINE
  5
70
330
1F
100
AcDbEntity
  8
JISSEN
  6
Continuous
 62
     7
100
AcDbLine
 10
168.7878890876567
 20
228.0388507000849
 30
0.0
 11
73.78788908765674
 21
225.7778507000849
 31
0.0
  0
LINE
  5
71
330
1F
100
AcDbEntity
  8
1
  6
Continuous
 62
     3
100
AcDbLine
 10
54.49960886924083
 20
208.475599012467
 30
0.0
 11
68.78788908765674
 21
199.9557147000849
 31
0.0
  0
LINE
  5
72
330
1F
100
AcDbEntity
  8
1
  6
Continuous
 62
     3
100
AcDbLine
 10
68.78788908765674
 20
208.8999867000849
 30
0.0
 11
54.49960886924083
 21
200.3801023877028
 31
0.0
  0
LINE
  5
73
330
1F
100
AcDbEntity
  8
JISSEN
  6
Continuous
 62
     7
100
AcDbLine
 10
73.78788908765674
 20
225.7778507000849
 30
0.0
 11
73.78788908765674
 21
183.0778507000849
 31
0.0
  0
LINE
  5
74
330
1F
100
AcDbEntity
  8
JISSEN
  6
Continuous
 62
     7
100
AcDbLine
 10
273.7878890876571
 20
231.7278507000848
 30
0.0
 11
273.7878890876571
 21
177.1278507000848
 31
0.0
  0
LINE
  5
75
330
1F
100
AcDbEntity
  8
JISSEN
  6
Continuous
 62
     7
100
AcDbLine
 10
70.78788908765674
 20
224.0778507000849
 30
0.0
 11
70.78788908765674
 21
184.7778507000849
 31
0.0
  0
LINE
  5
76
330
1F
100
AcDbEntity
  8
JISSEN
  6
Continuous
 62
     7
100
AcDbLine
 10
68.78788908765674
 20
211.9278507000849
 30
0.0
 11
68.78788908765674
 21
196.9278507000849
 31
0.0
  0
LINE
  5
77
330
1F
100
AcDbEntity
  8
JISSEN
  6
Continuous
 62
     7
100
AcDbLine
 10
276.7878890876571
 20
224.0778507000849
 30
0.0
 11
276.7878890876571
 21
184.7778507000849
 31
0.0
  0
LINE
  5
78
330
1F
100
AcDbEntity
  8
JISSEN
  6
Continuous
 62
     7
100
AcDbLine
 10
278.7878890876571
 20
213.9278507000849
 30
0.0
 11
278.7878890876561
 21
194.9278507000849
 31
0.0
  0
LINE
  5
79
330
1F
100
AcDbEntity
  8
JISSEN
  6
Continuous
 62
     7
100
AcDbLine
 10
72.28788908765674
 20
225.5778507000849
 30
0.0
 11
73.78788908765674
 21
225.5778507000849
 31
0.0
  0
LINE
  5
7A
330
1F
100
AcDbEntity
  8
JISSEN
  6
Continuous
 62
     7
100
AcDbLine
 10
72.28788908765674
 20
183.2778507000849
 30
0.0
 11
73.78788908765674
 21
183.2778507000849
 31
0.0
  0
LINE
  5
7B
330
1F
100
AcDbEntity
  8
JISSEN
  6
Continuous
 62
     7
100
AcDbLine
 10
69.78788908765674
 20
212.9278507000849
 30
0.0
 11
70.78788908765674
 21
212.9278507000849
 31
0.0
  0
LINE
  5
7C
330
1F
100
AcDbEntity
  8
JISSEN
  6
Continuous
 62
     7
100
AcDbLine
 10
69.78788908765674
 20
195.9278507000849
 30
0.0
 11
70.78788908765674
 21
195.9278507000849
 31
0.0
  0
LINE
  5
7D
330
1F
100
AcDbEntity
  8
JISSEN
  6
Continuous
 62
     7
100
AcDbLine
 10
276.7878890876571
 20
214.9278507000849
 30
0.0
 11
277.7878890876571
 21
214.9278507000849
 31
0.0
  0
LINE
  5
7E
330
1F
100
AcDbEntity
  8
JISSEN
  6
Continuous
 62
     7
100
AcDbLine
 10
276.7878890876571
 20
193.9278507000849
 30
0.0
 11
277.7878890876561
 21
193.9278507000849
 31
0.0
  0
LINE
  5
7F
330
1F
100
AcDbEntity
  8
JISSEN
  6
Continuous
 62
     7
100
AcDbLine
 10
273.7878890876571
 20
225.5778507000849
 30
0.0
 11
275.2878890876571
 21
225.5778507000849
 31
0.0
  0
LINE
  5
80
330
1F
100
AcDbEntity
  8
JISSEN
  6
Continuous
 62
     7
100
AcDbLine
 10
273.7878890876571
 20
183.2778507000849
 30
0.0
 11
275.2878890876571
 21
183.2778507000849
 31
0.0
  0
LINE
  5
81
330
1F
100
AcDbEntity
  8
JISSEN
  6
Continuous
 62
     7
100
AcDbLine
 10
273.7878890876571
 20
225.5778507000849
 30
0.0
 11
275.2878890876571
 21
225.5778507000849
 31
0.0
  0
LINE
  5
82
330
1F
100
AcDbEntity
  8
JISSEN
  6
Continuous
 62
     7
100
AcDbLine
 10
273.7878890876571
 20
231.7278507000848
 30
0.0
 11
178.7878890876567
 21
229.4668507000849
 31
0.0
  0
LINE
  5
83
330
1F
100
AcDbEntity
  8
JISSEN
  6
Continuous
 62
     7
100
AcDbLine
 10
273.7878890876571
 20
177.1278507000848
 30
0.0
 11
178.7878890876567
 21
179.3888507000848
 31
0.0
  0
LINE
  5
84
330
1F
100
AcDbEntity
  8
JISSEN
  6
Continuous
 62
     3
100
AcDbLine
 10
262.6775503885616
 20
138.0262594980443
 30
0.0
 11
342.6775503885618
 21
138.0262594980443
 31
0.0
  0
LINE
  5
85
330
1F
100
AcDbEntity
  8
JISSEN
  6
Continuous
 62
     3
100
AcDbLine
 10
262.6775503885616
 20
145.0262594980443
 30
0.0
 11
342.6775503885618
 21
145.0262594980443
 31
0.0
  0
LINE
  5
86
330
1F
100
AcDbEntity
  8
JISSEN
  6
Continuous
 62
     3
100
AcDbLine
 10
262.6775503885616
 20
152.0262594980443
 30
0.0
 11
342.6775503885618
 21
152.0262594980443
 31
0.0
  0
LINE
  5
87
330
1F
100
AcDbEntity
  8
JISSEN
  6
Continuous
 62
     3
100
AcDbLine
 10
297.6775503885618
 20
152.0262594980443
 30
0.0
 11
297.6775503885618
 21
138.0262594980443
 31
0.0
  0
LINE
  5
88
330
1F
100
AcDbEntity
  8
JISSEN
  6
Continuous
 62
     3
100
AcDbLine
 10
282.6775503885618
 20
152.0262594980443
 30
0.0
 11
282.6775503885618
 21
138.0262594980443
 31
0.0
  0
LINE
  5
89
330
1F
100
AcDbEntity
  8
JISSEN
  6
Continuous
 62
     3
100
AcDbLine
 10
262.6775503885616
 20
152.0262594980443
 30
0.0
 11
262.6775503885616
 21
138.0262594980443
 31
0.0
  0
LINE
  5
8A
330
1F
100
AcDbEntity
  8
JISSEN
  6
Continuous
 62
     3
100
AcDbLine
 10
262.6775503885616
 20
152.0262594980443
 30
0.0
 11
262.6775503885616
 21
138.0262594980443
 31
0.0
  0
LINE
  5
8B
330
1F
100
AcDbEntity
  8
JISSEN
  6
Continuous
 62
     3
100
AcDbLine
 10
262.6775503885616
 20
152.0262594980443
 30
0.0
 11
262.6775503885616
 21
138.0262594980443
 31
0.0
  0
LINE
  5
8C
330
1F
100
AcDbEntity
  8
JISSEN
  6
Continuous
 62
     3
100
AcDbLine
 10
342.6775503885618
 20
152.0262594980443
 30
0.0
 11
342.6775503885618
 21
138.0262594980443
 31
0.0
  0
LINE
  5
8D
330
1F
100
AcDbEntity
  8
JISSEN
  6
Continuous
 62
     3
100
AcDbLine
 10
327.6775503885618
 20
152.0262594980443
 30
0.0
 11
327.6775503885618
 21
138.0262594980443
 31
0.0
  0
LINE
  5
8E
330
1F
100
AcDbEntity
  8
JISSEN
  6
Continuous
 62
     3
100
AcDbLine
 10
312.6775503885618
 20
152.0262594980443
 30
0.0
 11
312.6775503885618
 21
138.0262594980443
 31
0.0
  0
LINE
  5
8F
330
1F
100
AcDbEntity
  8
JISSEN
  6
Continuous
 62
     7
100
AcDbLine
 10
333.7878890876567
 20
201.4278507000849
 30
0.0
 11
293.7878890876567
 21
201.4278507000849
 31
0.0
  0
LINE
  5
90
330
1F
100
AcDbEntity
  8
JISSEN
  6
Continuous
 62
     7
100
AcDbLine
 10
333.7878890876567
 20
203.4278507000849
 30
0.0
 11
293.7878890876567
 21
203.4278507000849
 31
0.0
  0
LINE
  5
91
330
1F
100
AcDbEntity
  8
JISSEN
  6
Continuous
 62
     7
100
AcDbLine
 10
293.7878890876567
 20
207.4278507000849
 30
0.0
 11
333.7878890876567
 21
207.4278507000849
 31
0.0
  0
LINE
  5
92
330
1F
100
AcDbEntity
  8
JISSEN
  6
Continuous
 62
     7
100
AcDbLine
 10
366.701448685903
 20
208.8999867000849
 30
0.0
 11
366.701448685903
 21
199.9557147000849
 31
0.0
  0
LINE
  5
93
330
1F
100
AcDbEntity
  8
ITTEN
  6
DASH_CENTER
 62
     3
100
AcDbLine
 10
109.5857130876568
 20
204.4278507000849
 30
0.0
 11
342.633906387646
 21
204.4278507000849
 31
0.0
  0
LINE
  5
94
330
1F
100
AcDbEntity
  8
JISSEN
  6
Continuous
 62
     7
100
AcDbLine
 10
374.7014486859029
 20
208.8999866478084
 30
0.0
 11
374.7014486859029
 21
199.9557147000849
 31
0.0
  0
LINE
  5
95
330
1F
100
AcDbEntity
  8
JISSEN
  6
Continuous
 62
     7
100
AcDbLine
 10
36.91788908765674
 20
208.8999867000849
 30
0.0
 11
36.91788908765674
 21
199.9557147000849
 31
0.0
  0
LINE
  5
96
330
1F
100
AcDbEntity
  8
JISSEN
  6
Continuous
 62
     7
100
AcDbLine
 10
53.78788908765674
 20
209.4278507000849
 30
0.0
 11
54.78788908765674
 21
210.4278507000849
 31
0.0
  0
LINE
  5
97
330
1F
100
AcDbEntity
  8
JISSEN
  6
Continuous
 62
     7
100
AcDbLine
 10
54.78788908765674
 20
210.4278507000849
 30
0.0
 11
54.78788908765674
 21
208.8999867000849
 31
0.0
  0
LINE
  5
98
330
1F
100
AcDbEntity
  8
JISSEN
  6
Continuous
 62
     7
100
AcDbLine
 10
54.78788908765674
 20
208.8999867000849
 30
0.0
 11
53.78788908765674
 21
207.4278507000849
 31
0.0
  0
LINE
  5
99
330
1F
100
AcDbEntity
  8
JISSEN
  6
Continuous
 62
     7
100
AcDbLine
 10
53.78788908765674
 20
199.4278507000849
 30
0.0
 11
54.78788908765674
 21
198.4278507000849
 31
0.0
  0
LINE
  5
9A
330
1F
100
AcDbEntity
  8
JISSEN
  6
Continuous
 62
     7
100
AcDbLine
 10
54.78788908765674
 20
199.9557147000849
 30
0.0
 11
54.78788908765674
 21
198.4278507000849
 31
0.0
  0
LINE
  5
9B
330
1F
100
AcDbEntity
  8
JISSEN
  6
Continuous
 62
     7
100
AcDbLine
 10
53.78788908765674
 20
201.4278507000849
 30
0.0
 11
54.78788908765674
 21
199.9557147000849
 31
0.0
  0
LINE
  5
9C
330
1F
100
AcDbEntity
  8
JISSEN
  6
Continuous
 62
     7
100
AcDbLine
 10
53.78788908765674
 20
199.4278507000849
 30
0.0
 11
53.78788908765674
 21
209.4278507000849
 31
0.0
  0
LINE
  5
9D
330
1F
100
AcDbEntity
  8
JISSEN
  6
Continuous
 62
     7
100
AcDbLine
 10
54.78788908765674
 20
210.4278507000849
 30
0.0
 11
68.78788908765674
 21
210.4278507000849
 31
0.0
  0
LINE
  5
9E
330
1F
100
AcDbEntity
  8
JISSEN
  6
Continuous
 62
     7
100
AcDbLine
 10
54.78788908765674
 20
198.4278507000849
 30
0.0
 11
68.78788908765674
 21
198.4278507000849
 31
0.0
  0
LINE
  5
9F
330
1F
100
AcDbEntity
  8
JISSEN
  6
Continuous
 62
     7
100
AcDbLine
 10
54.78788908765674
 20
208.8999867000849
 30
0.0
 11
68.78788908765674
 21
208.8999867000849
 31
0.0
  0
LINE
  5
A0
330
1F
100
AcDbEntity
  8
JISSEN
  6
Continuous
 62
     7
100
AcDbLine
 10
54.78788908765674
 20
199.9557147000849
 30
0.0
 11
68.78788908765674
 21
199.9557147000849
 31
0.0
  0
LINE
  5
A1
330
1F
100
AcDbEntity
  8
JISSEN
  6
Continuous
 62
     7
100
AcDbLine
 10
340.7878890876567
 20
205.9278507000849
 30
0.0
 11
340.7878890876567
 21
206.9278507000849
 31
0.0
  0
LINE
  5
A2
330
1F
100
AcDbEntity
  8
JISSEN
  6
Continuous
 62
     7
100
AcDbLine
 10
340.7878890876567
 20
203.9278507000849
 30
0.0
 11
340.7878890876567
 21
204.9278507000849
 31
0.0
  0
LINE
  5
A3
330
1F
100
AcDbEntity
  8
JISSEN
  6
Continuous
 62
     7
100
AcDbLine
 10
340.7878890876567
 20
201.9278507000849
 30
0.0
 11
340.7878890876567
 21
202.9278507000849
 31
0.0
  0
LINE
  5
A4
330
1F
100
AcDbEntity
  8
JISSEN
  6
Continuous
 62
     7
100
AcDbLine
 10
333.7878890876567
 20
201.4278507000849
 30
0.0
 11
333.7878890876567
 21
207.4278507000849
 31
0.0
  0
LINE
  5
A5
330
1F
100
AcDbEntity
  8
JISSEN
  6
Continuous
 62
     7
100
AcDbLine
 10
340.7878890876567
 20
206.9278507000849
 30
0.0
 11
333.7878890876567
 21
206.9278507000849
 31
0.0
  0
LINE
  5
A6
330
1F
100
AcDbEntity
  8
JISSEN
  6
Continuous
 62
     7
100
AcDbLine
 10
340.7878890876567
 20
205.9278507000849
 30
0.0
 11
333.7878890876567
 21
205.9278507000849
 31
0.0
  0
LINE
  5
A7
330
1F
100
AcDbEntity
  8
JISSEN
  6
Continuous
 62
     7
100
AcDbLine
 10
340.7878890876567
 20
202.9278507000849
 30
0.0
 11
333.7878890876567
 21
202.9278507000849
 31
0.0
  0
LINE
  5
A8
330
1F
100
AcDbEntity
  8
JISSEN
  6
Continuous
 62
     7
100
AcDbLine
 10
340.7878890876567
 20
201.9278507000849
 30
0.0
 11
333.7878890876567
 21
201.9278507000849
 31
0.0
  0
LINE
  5
A9
330
1F
100
AcDbEntity
  8
JISSEN
  6
Continuous
 62
     7
100
AcDbLine
 10
340.7878890876567
 20
203.9278507000849
 30
0.0
 11
333.7878890876567
 21
203.9278507000849
 31
0.0
  0
LINE
  5
AA
330
1F
100
AcDbEntity
  8
JISSEN
  6
Continuous
 62
     7
100
AcDbLine
 10
340.7878890876567
 20
204.9278507000849
 30
0.0
 11
333.7878890876567
 21
204.9278507000849
 31
0.0
  0
LINE
  5
AB
330
1F
100
AcDbEntity
  8
JISSEN
  6
Continuous
 62
     7
100
AcDbLine
 10
290.7878890876567
 20
209.4278507000849
 30
0.0
 11
291.7878890876567
 21
209.4278507000849
 31
0.0
  0
LINE
  5
AC
330
1F
100
AcDbEntity
  8
JISSEN
  6
Continuous
 62
     7
100
AcDbLine
 10
289.7878890876567
 20
210.4278507000849
 30
0.0
 11
289.7878890876567
 21
208.8999867000849
 31
0.0
  0
LINE
  5
AD
330
1F
100
AcDbEntity
  8
JISSEN
  6
Continuous
 62
     7
100
AcDbLine
 10
290.7878890876567
 20
209.4278507000849
 30
0.0
 11
289.7878890876567
 21
210.4278507000849
 31
0.0
  0
LINE
  5
AE
330
1F
100
AcDbEntity
  8
JISSEN
  6
Continuous
 62
     7
100
AcDbLine
 10
289.7878890876567
 20
208.8999867000849
 30
0.0
 11
290.7878890876567
 21
207.4278507000849
 31
0.0
  0
LINE
  5
AF
330
1F
100
AcDbEntity
  8
JISSEN
  6
Continuous
 62
     7
100
AcDbLine
 10
290.7878890876567
 20
199.4278507000849
 30
0.0
 11
291.7878890876567
 21
199.4278507000849
 31
0.0
  0
LINE
  5
B0
330
1F
100
AcDbEntity
  8
JISSEN
  6
Continuous
 62
     7
100
AcDbLine
 10
289.7878890876567
 20
199.9557147000849
 30
0.0
 11
289.7878890876567
 21
198.4278507000849
 31
0.0
  0
LINE
  5
B1
330
1F
100
AcDbEntity
  8
JISSEN
  6
Continuous
 62
     7
100
AcDbLine
 10
290.7878890876567
 20
199.4278507000849
 30
0.0
 11
289.7878890876567
 21
198.4278507000849
 31
0.0
  0
LINE
  5
B2
330
1F
100
AcDbEntity
  8
JISSEN
  6
Continuous
 62
     7
100
AcDbLine
 10
289.7878890876567
 20
199.9557147000849
 30
0.0
 11
290.7878890876567
 21
201.4278507000849
 31
0.0
  0
LINE
  5
B3
330
1F
100
AcDbEntity
  8
JISSEN
  6
Continuous
 62
     7
100
AcDbLine
 10
293.7878890876567
 20
207.4278507000849
 30
0.0
 11
293.7878890876567
 21
201.4278507000849
 31
0.0
  0
LINE
  5
B4
330
1F
100
AcDbEntity
  8
JISSEN
  6
Continuous
 62
     7
100
AcDbLine
 10
290.7878890876567
 20
199.4278507000849
 30
0.0
 11
290.7878890876567
 21
209.4278507000849
 31
0.0
  0
LINE
  5
B5
330
1F
100
AcDbEntity
  8
JISSEN
  6
Continuous
 62
     7
100
AcDbLine
 10
289.7878890876567
 20
210.4278507000849
 30
0.0
 11
278.7878890876567
 21
210.4278507000849
 31
0.0
  0
LINE
  5
B6
330
1F
100
AcDbEntity
  8
JISSEN
  6
Continuous
 62
     7
100
AcDbLine
 10
289.7878890876567
 20
198.4278507000849
 30
0.0
 11
278.7878890876567
 21
198.4278507000849
 31
0.0
  0
LINE
  5
B7
330
1F
100
AcDbEntity
  8
JISSEN
  6
Continuous
 62
     7
100
AcDbLine
 10
289.7878890876567
 20
208.8999867000849
 30
0.0
 11
278.7878890876567
 21
208.8999867000849
 31
0.0
  0
LINE
  5
B8
330
1F
100
AcDbEntity
  8
JISSEN
  6
Continuous
 62
     7
100
AcDbLine
 10
289.7878890876567
 20
199.9557147000849
 30
0.0
 11
278.7878890876567
 21
199.9557147000849
 31
0.0
  0
LINE
  5
B9
330
1F
100
AcDbEntity
  8
SAISEN
  6
Continuous
 62
     3
100
AcDbLine
 10
278.7878890876567
 20
208.8999867000849
 30
0.0
 11
290.0511840876567
 21
200.3433207000849
 31
0.0
  0
LINE
  5
BA
330
1F
100
AcDbEntity
  8
SAISEN
  6
Continuous
 62
     3
100
AcDbLine
 10
290.0511840876567
 20
208.5123817000849
 30
0.0
 11
278.7878890876567
 21
199.9557147000849
 31
0.0
  0
LINE
  5
BB
330
1F
100
AcDbEntity
  8
JISSEN
  6
Continuous
 62
     7
100
AcDbLine
 10
293.7878890876567
 20
205.4278507000849
 30
0.0
 11
333.7878890876567
 21
205.4278507000849
 31
0.0
  0
LINE
  5
BC
330
1F
100
AcDbEntity
  8
ITTEN
  6
DASH_CENTER
 62
     3
100
AcDbLine
 10
32.91788908765674
 20
212.4278507000849
 30
0.0
 11
32.91788908765674
 21
210.4278507000849
 31
0.0
  0
LINE
  5
BD
330
1F
100
AcDbEntity
  8
ITTEN
  6
DASH_CENTER
 62
     3
100
AcDbLine
 10
370.701448685903
 20
212.4278507000849
 30
0.0
 11
370.701448685903
 21
210.4278507000848
 31
0.0
  0
LINE
  5
BE
330
1F
100
AcDbEntity
  8
ITTEN
  6
DASH_CENTER
 62
     3
100
AcDbLine
 10
40.91788908765674
 20
204.4278507000849
 30
0.0
 11
24.91788908765674
 21
204.4278507000849
 31
0.0
  0
LINE
  5
BF
330
1F
100
AcDbEntity
  8
ITTEN
  6
DASH_CENTER
 62
     3
100
AcDbLine
 10
51.35446969735815
 20
204.4278507000849
 30
0.0
 11
99.77383508765679
 21
204.4278507000849
 31
0.0
  0
LINE
  5
C0
330
1F
100
AcDbEntity
  8
ITTEN
  6
DASH_CENTER
 62
     3
100
AcDbLine
 10
378.701448685903
 20
204.4278507000849
 30
0.0
 11
362.701448685903
 21
204.4278507000849
 31
0.0
  0
LINE
  5
C1
330
1F
100
AcDbEntity
  8
ITTEN
  6
DASH_CENTER
 62
     3
100
AcDbLine
 10
32.91788908765674
 20
210.4278507000849
 30
0.0
 11
32.91788908765674
 21
198.4278507000849
 31
0.0
  0
LINE
  5
C2
330
1F
100
AcDbEntity
  8
ITTEN
  6
DASH_CENTER
 62
     3
100
AcDbLine
 10
32.91788908765674
 20
198.4278507000849
 30
0.0
 11
32.91788908765674
 21
196.4278507000849
 31
0.0
  0
LINE
  5
C3
330
1F
100
AcDbEntity
  8
ITTEN
  6
DASH_CENTER
 62
     3
100
AcDbLine
 10
370.701448685903
 20
198.4278507000849
 30
0.0
 11
370.701448685903
 21
196.4278507000849
 31
0.0
  0
LINE
  5
C4
330
1F
100
AcDbEntity
  8
ITTEN
  6
DASH_CENTER
 62
     3
100
AcDbLine
 10
370.701448685903
 20
210.4278507000848
 30
0.0
 11
370.701448685903
 21
198.4278507000849
 31
0.0
  0
LINE
  5
C5
330
1F
100
AcDbEntity
  8
SUNPOU
  6
Continuous
 62
     3
100
AcDbLine
 10
283.462075134168
 20
77.99733616741628
 30
0.0
 11
283.462075134168
 21
71.78939416741628
 31
0.0
  0
LINE
  5
C6
330
1F
100
AcDbEntity
  8
NITEN
  6
PHANTOM
 62
   140
100
AcDbLine
 10
283.462075134168
 20
121.9973361674163
 30
0.0
 11
283.462075134168
 21
120.9973361674163
 31
0.0
  0
LINE
  5
C7
330
1F
100
AcDbEntity
  8
JISSEN
  6
Continuous
 62
     7
100
AcDbLine
 10
278.1120751341678
 20
107.9973361674163
 30
0.0
 11
280.8620751341679
 21
107.9973361674163
 31
0.0
  0
LINE
  5
C8
330
1F
100
AcDbEntity
  8
JISSEN
  6
Continuous
 62
     7
100
AcDbLine
 10
278.1120751341678
 20
114.9973361674163
 30
0.0
 11
278.1120751341678
 21
107.9973361674163
 31
0.0
  0
LINE
  5
C9
330
1F
100
AcDbEntity
  8
JISSEN
  6
Continuous
 62
     7
100
AcDbLine
 10
278.8220751341679
 20
117.7186961674163
 30
0.0
 11
278.8220751341679
 21
107.9973361674163
 31
0.0
  0
LINE
  5
CA
330
1F
100
AcDbEntity
  8
JISSEN
  6
Continuous
 62
     7
100
AcDbLine
 10
280.8620751341678
 20
119.9973361674163
 30
0.0
 11
279.8620751341678
 21
119.9973361674163
 31
0.0
  0
LINE
  5
CB
330
1F
100
AcDbEntity
  8
JISSEN
  6
Continuous
 62
     3
100
AcDbLine
 10
267.8620751341679
 20
100.4973361674163
 30
0.0
 11
267.8620751341679
 21
105.9973361674163
 31
0.0
  0
LINE
  5
CC
330
1F
100
AcDbEntity
  8
JISSEN
  6
Continuous
 62
     3
100
AcDbLine
 10
267.8620751341679
 20
92.99733616741628
 30
0.0
 11
267.8620751341679
 21
98.49733616741628
 31
0.0
  0
LINE
  5
CD
330
1F
100
AcDbEntity
  8
JISSEN
  6
Continuous
 62
     3
100
AcDbLine
 10
267.8620751341679
 20
85.49733616741628
 30
0.0
 11
267.8620751341679
 21
90.99733616741628
 31
0.0
  0
LINE
  5
CE
330
1F
100
AcDbEntity
  8
JISSEN
  6
Continuous
 62
     3
100
AcDbLine
 10
268.562075134168
 20
85.24733616741628
 30
0.0
 11
270.062075134168
 21
85.24733616741628
 31
0.0
  0
LINE
  5
CF
330
1F
100
AcDbEntity
  8
JISSEN
  6
Continuous
 62
     3
100
AcDbLine
 10
267.8620751341679
 20
85.49733616741628
 30
0.0
 11
268.562075134168
 21
85.49733616741628
 31
0.0
  0
LINE
  5
D0
330
1F
100
AcDbEntity
  8
JISSEN
  6
Continuous
 62
     3
100
AcDbLine
 10
265.8620751341679
 20
87.49723616741628
 30
0.0
 11
265.8620751341679
 21
88.99743616741628
 31
0.0
  0
LINE
  5
D1
330
1F
100
AcDbEntity
  8
JISSEN
  6
Continuous
 62
     3
100
AcDbLine
 10
267.8620751341679
 20
90.99733616741628
 30
0.0
 11
268.562075134168
 21
90.99733616741628
 31
0.0
  0
LINE
  5
D2
330
1F
100
AcDbEntity
  8
JISSEN
  6
Continuous
 62
     3
100
AcDbLine
 10
268.562075134168
 20
91.24733616741628
 30
0.0
 11
270.062075134168
 21
91.24733616741628
 31
0.0
  0
LINE
  5
D3
330
1F
100
AcDbEntity
  8
JISSEN
  6
Continuous
 62
     3
100
AcDbLine
 10
268.562075134168
 20
92.74733616741628
 30
0.0
 11
270.062075134168
 21
92.74733616741628
 31
0.0
  0
LINE
  5
D4
330
1F
100
AcDbEntity
  8
JISSEN
  6
Continuous
 62
     3
100
AcDbLine
 10
267.8620751341679
 20
92.99733616741628
 30
0.0
 11
268.562075134168
 21
92.99733616741628
 31
0.0
  0
LINE
  5
D5
330
1F
100
AcDbEntity
  8
JISSEN
  6
Continuous
 62
     3
100
AcDbLine
 10
265.8620751341679
 20
94.99723616741628
 30
0.0
 11
265.8620751341679
 21
96.49743616741628
 31
0.0
  0
LINE
  5
D6
330
1F
100
AcDbEntity
  8
JISSEN
  6
Continuous
 62
     3
100
AcDbLine
 10
267.8620751341679
 20
98.49733616741628
 30
0.0
 11
268.562075134168
 21
98.49733616741628
 31
0.0
  0
LINE
  5
D7
330
1F
100
AcDbEntity
  8
JISSEN
  6
Continuous
 62
     3
100
AcDbLine
 10
268.562075134168
 20
98.74733616741628
 30
0.0
 11
270.062075134168
 21
98.74733616741628
 31
0.0
  0
LINE
  5
D8
330
1F
100
AcDbEntity
  8
JISSEN
  6
Continuous
 62
     3
100
AcDbLine
 10
268.562075134168
 20
100.2473361674163
 30
0.0
 11
270.062075134168
 21
100.2473361674163
 31
0.0
  0
LINE
  5
D9
330
1F
100
AcDbEntity
  8
JISSEN
  6
Continuous
 62
     3
100
AcDbLine
 10
267.8620751341679
 20
100.4973361674163
 30
0.0
 11
268.562075134168
 21
100.4973361674163
 31
0.0
  0
LINE
  5
DA
330
1F
100
AcDbEntity
  8
JISSEN
  6
Continuous
 62
     3
100
AcDbLine
 10
265.8620751341679
 20
102.4972361674163
 30
0.0
 11
265.8620751341679
 21
103.9974361674163
 31
0.0
  0
LINE
  5
DB
330
1F
100
AcDbEntity
  8
JISSEN
  6
Continuous
 62
     3
100
AcDbLine
 10
267.8620751341679
 20
105.9973361674163
 30
0.0
 11
268.562075134168
 21
105.9973361674163
 31
0.0
  0
LINE
  5
DC
330
1F
100
AcDbEntity
  8
JISSEN
  6
Continuous
 62
     3
100
AcDbLine
 10
268.5620751341679
 20
106.2473361674163
 30
0.0
 11
270.062075134168
 21
106.2473361674163
 31
0.0
  0
LINE
  5
DD
330
1F
100
AcDbEntity
  8
JISSEN
  6
Continuous
 62
     7
100
AcDbLine
 10
262.3620751341679
 20
106.7938211674163
 30
0.0
 11
262.3620751341679
 21
109.8473361674163
 31
0.0
  0
LINE
  5
DE
330
1F
100
AcDbEntity
  8
JISSEN
  6
Continuous
 62
     7
100
AcDbLine
 10
263.3620751341678
 20
110.8473361674163
 30
0.0
 11
263.8620751341678
 21
110.8473361674163
 31
0.0
  0
LINE
  5
DF
330
1F
100
AcDbEntity
  8
JISSEN
  6
Continuous
 62
     7
100
AcDbLine
 10
264.3620751341678
 20
106.5693921674163
 30
0.0
 11
264.3620751341678
 21
110.3473361674163
 31
0.0
  0
LINE
  5
E0
330
1F
100
AcDbEntity
  8
JISSEN
  6
Continuous
 62
     7
100
AcDbLine
 10
273.3620751341679
 20
106.4473361674163
 30
0.0
 11
273.8620751341679
 21
106.4473361674163
 31
0.0
  0
LINE
  5
E1
330
1F
100
AcDbEntity
  8
JISSEN
  6
Continuous
 62
     7
100
AcDbLine
 10
262.559363134168
 20
106.5938401674163
 30
0.0
 11
273.3620751341679
 21
106.4473361674163
 31
0.0
  0
LINE
  5
E2
330
1F
100
AcDbEntity
  8
JISSEN
  6
Continuous
 62
     3
100
AcDbLine
 10
268.562075134168
 20
100.2473361674163
 30
0.0
 11
268.5620751341679
 21
106.2473361674163
 31
0.0
  0
LINE
  5
E3
330
1F
100
AcDbEntity
  8
JISSEN
  6
Continuous
 62
     7
100
AcDbLine
 10
270.062075134168
 20
100.0022151674163
 30
0.0
 11
270.062075134168
 21
106.4920901674163
 31
0.0
  0
LINE
  5
E4
330
1F
100
AcDbEntity
  8
JISSEN
  6
Continuous
 62
     7
100
AcDbLine
 10
271.3620751341679
 20
100.0199901674163
 30
0.0
 11
271.3620751341678
 21
106.4744591674163
 31
0.0
  0
LINE
  5
E5
330
1F
100
AcDbEntity
  8
JISSEN
  6
Continuous
 62
     7
100
AcDbLine
 10
271.3620751341679
 20
92.51999016741627
 30
0.0
 11
271.3620751341679
 21
98.97468116741629
 31
0.0
  0
LINE
  5
E6
330
1F
100
AcDbEntity
  8
JISSEN
  6
Continuous
 62
     7
100
AcDbLine
 10
270.062075134168
 20
92.5022151674163
 30
0.0
 11
270.062075134168
 21
98.99245616741627
 31
0.0
  0
LINE
  5
E7
330
1F
100
AcDbEntity
  8
JISSEN
  6
Continuous
 62
     3
100
AcDbLine
 10
268.562075134168
 20
92.74733616741628
 30
0.0
 11
268.562075134168
 21
98.74733616741628
 31
0.0
  0
LINE
  5
E8
330
1F
100
AcDbEntity
  8
JISSEN
  6
Continuous
 62
     7
100
AcDbLine
 10
279.2563601341678
 20
102.4973361674163
 30
0.0
 11
280.8620751341678
 21
100.4973361674163
 31
0.0
  0
LINE
  5
E9
330
1F
100
AcDbEntity
  8
JISSEN
  6
Continuous
 62
     7
100
AcDbLine
 10
279.256360134168
 20
105.4973361674163
 30
0.0
 11
279.2563601341678
 21
102.4973361674163
 31
0.0
  0
LINE
  5
EA
330
1F
100
AcDbEntity
  8
JISSEN
  6
Continuous
 62
     7
100
AcDbLine
 10
279.256360134168
 20
105.4973361674163
 30
0.0
 11
280.8620751341678
 21
107.4973361674163
 31
0.0
  0
LINE
  5
EB
330
1F
100
AcDbEntity
  8
JISSEN
  6
Continuous
 62
     7
100
AcDbLine
 10
273.8620751341679
 20
100.0473361674163
 30
0.0
 11
273.8620751341678
 21
106.4405551674163
 31
0.0
  0
LINE
  5
EC
330
1F
100
AcDbEntity
  8
JISSEN
  6
Continuous
 62
     7
100
AcDbLine
 10
273.3620751341678
 20
100.0473361674163
 30
0.0
 11
273.3620751341679
 21
106.4473361674163
 31
0.0
  0
LINE
  5
ED
330
1F
100
AcDbEntity
  8
JISSEN
  6
Continuous
 62
     7
100
AcDbLine
 10
273.3620751341679
 20
92.54733616741629
 30
0.0
 11
273.3620751341679
 21
98.94733616741627
 31
0.0
  0
LINE
  5
EE
330
1F
100
AcDbEntity
  8
JISSEN
  6
Continuous
 62
     7
100
AcDbLine
 10
273.8620751341679
 20
92.54733616741629
 30
0.0
 11
273.8620751341679
 21
98.94733616741627
 31
0.0
  0
LINE
  5
EF
330
1F
100
AcDbEntity
  8
JISSEN
  6
Continuous
 62
     7
100
AcDbLine
 10
273.3620751341679
 20
92.54733616741629
 30
0.0
 11
273.8620751341679
 21
92.54733616741629
 31
0.0
  0
LINE
  5
F0
330
1F
100
AcDbEntity
  8
JISSEN
  6
Continuous
 62
     7
100
AcDbLine
 10
273.3620751341679
 20
98.94733616741627
 30
0.0
 11
273.8620751341679
 21
98.94733616741627
 31
0.0
  0
LINE
  5
F1
330
1F
100
AcDbEntity
  8
JISSEN
  6
Continuous
 62
     7
100
AcDbLine
 10
264.8620751341678
 20
108.5473361674163
 30
0.0
 11
272.8620751341679
 21
108.5473361674163
 31
0.0
  0
LINE
  5
F2
330
1F
100
AcDbEntity
  8
JISSEN
  6
Continuous
 62
     7
100
AcDbLine
 10
272.8620751341679
 20
108.5473361674163
 30
0.0
 11
273.8620751341678
 21
107.5473361674163
 31
0.0
  0
LINE
  5
F3
330
1F
100
AcDbEntity
  8
JISSEN
  6
Continuous
 62
     7
100
AcDbLine
 10
262.5593411341681
 20
91.59503916741627
 30
0.0
 11
273.3620751341679
 21
91.44733616741627
 31
0.0
  0
LINE
  5
F4
330
1F
100
AcDbEntity
  8
JISSEN
  6
Continuous
 62
     7
100
AcDbLine
 10
273.8620751341678
 20
107.5473361674163
 30
0.0
 11
280.8620751341679
 21
107.5473361674163
 31
0.0
  0
LINE
  5
F5
330
1F
100
AcDbEntity
  8
JISSEN
  6
Continuous
 62
     7
100
AcDbLine
 10
273.3620751341679
 20
91.44733616741627
 30
0.0
 11
280.8620751341678
 21
91.44733616741627
 31
0.0
  0
LINE
  5
F6
330
1F
100
AcDbEntity
  8
JISSEN
  6
Continuous
 62
     7
100
AcDbLine
 10
262.3620751341679
 20
92.19965116741628
 30
0.0
 11
262.3620751341679
 21
91.79502116741628
 31
0.0
  0
LINE
  5
F7
330
1F
100
AcDbEntity
  8
JISSEN
  6
Continuous
 62
     7
100
AcDbLine
 10
273.3620751341679
 20
92.54733616741629
 30
0.0
 11
262.5593411341681
 21
92.39963216741629
 31
0.0
  0
LINE
  5
F8
330
1F
100
AcDbEntity
  8
JISSEN
  6
Continuous
 62
     7
100
AcDbLine
 10
262.5593411341681
 20
99.09503916741627
 30
0.0
 11
273.3620751341679
 21
98.94733616741627
 31
0.0
  0
LINE
  5
F9
330
1F
100
AcDbEntity
  8
JISSEN
  6
Continuous
 62
     7
100
AcDbLine
 10
262.3620751341679
 20
99.69965116741628
 30
0.0
 11
262.3620751341679
 21
99.29502116741628
 31
0.0
  0
LINE
  5
FA
330
1F
100
AcDbEntity
  8
JISSEN
  6
Continuous
 62
     7
100
AcDbLine
 10
273.3620751341678
 20
100.0473361674163
 30
0.0
 11
262.5593411341681
 21
99.89963216741629
 31
0.0
  0
LINE
  5
FB
330
1F
100
AcDbEntity
  8
JISSEN
  6
Continuous
 62
     7
100
AcDbLine
 10
273.3620751341678
 20
100.0473361674163
 30
0.0
 11
280.8620751341679
 21
100.0473361674163
 31
0.0
  0
LINE
  5
FC
330
1F
100
AcDbEntity
  8
JISSEN
  6
Continuous
 62
     7
100
AcDbLine
 10
273.3620751341679
 20
85.04733616741629
 30
0.0
 11
273.8620751341679
 21
85.04733616741629
 31
0.0
  0
LINE
  5
FD
330
1F
100
AcDbEntity
  8
JISSEN
  6
Continuous
 62
     7
100
AcDbLine
 10
262.0594661341681
 20
84.89991016741629
 30
0.0
 11
273.3620751341679
 21
85.04733616741629
 31
0.0
  0
LINE
  5
FE
330
1F
100
AcDbEntity
  8
JISSEN
  6
Continuous
 62
     3
100
AcDbLine
 10
268.562075134168
 20
85.24733616741628
 30
0.0
 11
268.562075134168
 21
91.24733616741628
 31
0.0
  0
LINE
  5
FF
330
1F
100
AcDbEntity
  8
JISSEN
  6
Continuous
 62
     7
100
AcDbLine
 10
270.0620751341679
 20
85.00429216741628
 30
0.0
 11
270.062075134168
 21
91.49245616741627
 31
0.0
  0
LINE
  5
100
330
1F
100
AcDbEntity
  8
JISSEN
  6
Continuous
 62
     7
100
AcDbLine
 10
271.3620751341678
 20
85.02124916741627
 30
0.0
 11
271.3620751341679
 21
91.47468116741629
 31
0.0
  0
LINE
  5
101
330
1F
100
AcDbEntity
  8
JISSEN
  6
Continuous
 62
     7
100
AcDbLine
 10
273.3620751341679
 20
85.04733616741629
 30
0.0
 11
273.3620751341679
 21
91.44733616741627
 31
0.0
  0
LINE
  5
102
330
1F
100
AcDbEntity
  8
JISSEN
  6
Continuous
 62
     7
100
AcDbLine
 10
273.8620751341679
 20
85.04733616741629
 30
0.0
 11
273.8620751341679
 21
91.44733616741627
 31
0.0
  0
LINE
  5
103
330
1F
100
AcDbEntity
  8
JISSEN
  6
Continuous
 62
     7
100
AcDbLine
 10
262.8620751341679
 20
79.84733616741627
 30
0.0
 11
280.8620751341679
 21
79.84733616741627
 31
0.0
  0
LINE
  5
104
330
1F
100
AcDbEntity
  8
JISSEN
  6
Continuous
 62
     7
100
AcDbLine
 10
261.8620751341679
 20
80.84733616741627
 30
0.0
 11
261.8620751341679
 21
84.69992716741626
 31
0.0
  0
LINE
  5
105
330
1F
100
AcDbEntity
  8
JISSEN
  6
Continuous
 62
     7
100
AcDbLine
 10
280.8620751341678
 20
78.99733616741628
 30
0.0
 11
283.462075134168
 21
78.99733616741628
 31
0.0
  0
LINE
  5
106
330
1F
100
AcDbEntity
  8
JISSEN
  6
Continuous
 62
     7
100
AcDbLine
 10
280.8620751341678
 20
78.99733616741628
 30
0.0
 11
280.8620751341678
 21
121.9973361674163
 31
0.0
  0
LINE
  5
107
330
1F
100
AcDbEntity
  8
JISSEN
  6
Continuous
 62
     7
100
AcDbLine
 10
283.462075134168
 20
78.99733616741628
 30
0.0
 11
283.462075134168
 21
120.9973361674163
 31
0.0
  0
LINE
  5
108
330
1F
100
AcDbEntity
  8
NITEN
  6
PHANTOM
 62
   140
100
AcDbLine
 10
282.3620751341679
 20
78.99733616741628
 30
0.0
 11
282.3620751341679
 21
77.78939416741628
 31
0.0
  0
LINE
  5
109
330
1F
100
AcDbEntity
  8
NITEN
  6
PHANTOM
 62
   140
100
AcDbLine
 10
257.8620751341679
 20
103.5893941674163
 30
0.0
 11
257.6620751341679
 21
103.5893941674163
 31
0.0
  0
LINE
  5
10A
330
1F
100
AcDbEntity
  8
NITEN
  6
PHANTOM
 62
   140
100
AcDbLine
 10
257.8620751341679
 20
87.18939416741628
 30
0.0
 11
257.6620751341679
 21
87.18939416741628
 31
0.0
  0
LINE
  5
10B
330
1F
100
AcDbEntity
  8
NITEN
  6
PHANTOM
 62
   140
100
AcDbLine
 10
257.6620751341679
 20
103.5893941674163
 30
0.0
 11
257.6620751341679
 21
87.18939416741628
 31
0.0
  0
LINE
  5
10C
330
1F
100
AcDbEntity
  8
NITEN
  6
PHANTOM
 62
   140
100
AcDbLine
 10
257.8620751341678
 20
114.7902291674163
 30
0.0
 11
257.8620751341679
 21
80.78939416741628
 31
0.0
  0
LINE
  5
10D
330
1F
100
AcDbEntity
  8
NITEN
  6
PHANTOM
 62
   140
100
AcDbLine
 10
263.9833951341678
 20
121.1186561674163
 30
0.0
 11
258.008522134168
 21
115.1437821674163
 31
0.0
  0
LINE
  5
10E
330
1F
100
AcDbEntity
  8
NITEN
  6
PHANTOM
 62
   140
100
AcDbLine
 10
257.8620751341679
 20
80.78939416741628
 30
0.0
 11
260.8620751341679
 21
77.78939416741628
 31
0.0
  0
LINE
  5
10F
330
1F
100
AcDbEntity
  8
NITEN
  6
PHANTOM
 62
   140
100
AcDbLine
 10
266.1047161341679
 20
121.9973361674163
 30
0.0
 11
283.462075134168
 21
121.9973361674163
 31
0.0
  0
LINE
  5
110
330
1F
100
AcDbEntity
  8
NITEN
  6
PHANTOM
 62
   140
100
AcDbLine
 10
260.8620751341679
 20
77.78939416741628
 30
0.0
 11
282.3620751341679
 21
77.78939416741628
 31
0.0
  0
LINE
  5
111
330
1F
100
AcDbEntity
  8
JISSEN
  6
PHANTOM
 62
   140
100
AcDbLine
 10
216.9648381341679
 20
102.0893941674163
 30
0.0
 11
216.9648381341679
 21
87.58939416741629
 31
0.0
  0
LINE
  5
112
330
1F
100
AcDbEntity
  8
JISSEN
  6
PHANTOM
 62
   140
100
AcDbLine
 10
219.9648381341679
 20
84.58939416741629
 30
0.0
 11
236.064838134168
 21
84.58939416741629
 31
0.0
  0
LINE
  5
113
330
1F
100
AcDbEntity
  8
JISSEN
  6
PHANTOM
 62
   140
100
AcDbLine
 10
219.9648381341679
 20
105.0893941674163
 30
0.0
 11
236.064838134168
 21
105.0893941674163
 31
0.0
  0
LINE
  5
114
330
1F
100
AcDbEntity
  8
JISSEN
  6
PHANTOM
 62
   140
100
AcDbLine
 10
214.9648381341679
 20
105.0893941674163
 30
0.0
 11
214.9648381341679
 21
84.58939416741629
 31
0.0
  0
LINE
  5
115
330
1F
100
AcDbEntity
  8
JISSEN
  6
PHANTOM
 62
   140
100
AcDbLine
 10
230.564838134168
 20
94.83939416741629
 30
0.0
 11
236.064838134168
 21
94.83939416741629
 31
0.0
  0
LINE
  5
116
330
1F
100
AcDbEntity
  8
JISSEN
  6
PHANTOM
 62
   140
100
AcDbLine
 10
216.9648381341679
 20
107.0893941674163
 30
0.0
 11
236.064838134168
 21
107.0893941674163
 31
0.0
  0
LINE
  5
117
330
1F
100
AcDbEntity
  8
JISSEN
  6
PHANTOM
 62
   140
100
AcDbLine
 10
216.9648381341679
 20
82.58939416741629
 30
0.0
 11
236.064838134168
 21
82.58939416741629
 31
0.0
  0
LINE
  5
118
330
1F
100
AcDbEntity
  8
JISSEN
  6
PHANTOM
 62
   140
100
AcDbLine
 10
211.3648381341679
 20
103.5893941674163
 30
0.0
 11
211.3648381341679
 21
87.18939416741628
 31
0.0
  0
LINE
  5
119
330
1F
100
AcDbEntity
  8
JISSEN
  6
PHANTOM
 62
   140
100
AcDbLine
 10
211.5648381341679
 20
103.5893941674163
 30
0.0
 11
211.3648381341679
 21
103.5893941674163
 31
0.0
  0
LINE
  5
11A
330
1F
100
AcDbEntity
  8
JISSEN
  6
PHANTOM
 62
   140
100
AcDbLine
 10
211.564838134168
 20
87.18939416741628
 30
0.0
 11
211.3648381341679
 21
87.18939416741628
 31
0.0
  0
LINE
  5
11B
330
1F
100
AcDbEntity
  8
JISSEN
  6
PHANTOM
 62
   140
100
AcDbLine
 10
218.564838134168
 20
121.7278751674163
 30
0.0
 11
218.564838134168
 21
108.5893941674163
 31
0.0
  0
LINE
  5
11C
330
1F
100
AcDbEntity
  8
JISSEN
  6
PHANTOM
 62
   140
100
AcDbLine
 10
214.564838134168
 20
108.5893941674163
 30
0.0
 11
214.564838134168
 21
77.78939416741628
 31
0.0
  0
LINE
  5
11D
330
1F
100
AcDbEntity
  8
JISSEN
  6
PHANTOM
 62
   140
100
AcDbLine
 10
214.564838134168
 20
108.5893941674163
 30
0.0
 11
211.564838134168
 21
105.5893941674163
 31
0.0
  0
LINE
  5
11E
330
1F
100
AcDbEntity
  8
JISSEN
  6
PHANTOM
 62
   140
100
AcDbLine
 10
214.564838134168
 20
108.5893941674163
 30
0.0
 11
236.2270161341679
 21
108.5893941674163
 31
0.0
  0
LINE
  5
11F
330
1F
100
AcDbEntity
  8
JISSEN
  6
PHANTOM
 62
   140
100
AcDbLine
 10
217.6861581341679
 20
121.1186561674163
 30
0.0
 11
211.7112851341678
 21
115.1437821674163
 31
0.0
  0
LINE
  5
120
330
1F
100
AcDbEntity
  8
JISSEN
  6
PHANTOM
 62
   140
100
AcDbLine
 10
211.564838134168
 20
80.78939416741628
 30
0.0
 11
214.564838134168
 21
77.78939416741628
 31
0.0
  0
LINE
  5
121
330
1F
100
AcDbEntity
  8
JISSEN
  6
PHANTOM
 62
   140
100
AcDbLine
 10
236.064838134168
 20
107.0893941674163
 30
0.0
 11
236.064838134168
 21
77.78939416741628
 31
0.0
  0
LINE
  5
122
330
1F
100
AcDbEntity
  8
JISSEN
  6
PHANTOM
 62
   140
100
AcDbLine
 10
237.164838134168
 20
121.9973361674163
 30
0.0
 11
237.164838134168
 21
112.0893941674163
 31
0.0
  0
LINE
  5
123
330
1F
100
AcDbEntity
  8
JISSEN
  6
PHANTOM
 62
   140
100
AcDbLine
 10
219.8074791341679
 20
121.9973361674163
 30
0.0
 11
237.164838134168
 21
121.9973361674163
 31
0.0
  0
LINE
  5
124
330
1F
100
AcDbEntity
  8
JISSEN
  6
PHANTOM
 62
   140
100
AcDbLine
 10
214.564838134168
 20
77.78939416741628
 30
0.0
 11
236.064838134168
 21
77.78939416741628
 31
0.0
  0
LINE
  5
125
330
1F
100
AcDbEntity
  8
JISSEN
  6
PHANTOM
 62
   140
100
AcDbLine
 10
211.5648381341679
 20
114.7902291674163
 30
0.0
 11
211.564838134168
 21
80.78939416741628
 31
0.0
  0
LINE
  5
126
330
1F
100
AcDbEntity
  8
NITEN
  6
PHANTOM
 62
   140
100
AcDbLine
 10
186.830053134168
 20
95.04733616741629
 30
0.0
 11
187.830053134168
 21
95.04733616741629
 31
0.0
  0
LINE
  5
127
330
1F
100
AcDbEntity
  8
NITEN
  6
PHANTOM
 62
   140
100
AcDbLine
 10
118.830053134168
 20
95.04733616741629
 30
0.0
 11
119.830053134168
 21
95.04733616741629
 31
0.0
  0
LINE
  5
128
330
1F
100
AcDbEntity
  8
NITEN
  6
PHANTOM
 62
   140
100
AcDbLine
 10
179.330053134168
 20
84.79733616741629
 30
0.0
 11
179.330053134168
 21
82.79733616741629
 31
0.0
  0
LINE
  5
129
330
1F
100
AcDbEntity
  8
NITEN
  6
PHANTOM
 62
   140
100
AcDbLine
 10
127.3300531341679
 20
84.79733616741629
 30
0.0
 11
127.330053134168
 21
82.79733616741629
 31
0.0
  0
LINE
  5
12A
330
1F
100
AcDbEntity
  8
NITEN
  6
PHANTOM
 62
   140
100
AcDbLine
 10
178.330053134168
 20
82.79733616741629
 30
0.0
 11
179.330053134168
 21
82.79733616741629
 31
0.0
  0
LINE
  5
12B
330
1F
100
AcDbEntity
  8
NITEN
  6
PHANTOM
 62
   140
100
AcDbLine
 10
178.3300531341679
 20
107.2973361674163
 30
0.0
 11
179.3300531341679
 21
107.2973361674163
 31
0.0
  0
LINE
  5
12C
330
1F
100
AcDbEntity
  8
NITEN
  6
PHANTOM
 62
   140
100
AcDbLine
 10
179.330053134168
 20
84.79733616741629
 30
0.0
 11
184.830053134168
 21
84.79733616741629
 31
0.0
  0
LINE
  5
12D
330
1F
100
AcDbEntity
  8
NITEN
  6
PHANTOM
 62
   140
100
AcDbLine
 10
177.830053134168
 20
85.79733616741629
 30
0.0
 11
184.830053134168
 21
85.79733616741629
 31
0.0
  0
LINE
  5
12E
330
1F
100
AcDbEntity
  8
NITEN
  6
PHANTOM
 62
   140
100
AcDbLine
 10
179.330053134168
 20
105.2973361674163
 30
0.0
 11
184.830053134168
 21
105.2973361674163
 31
0.0
  0
LINE
  5
12F
330
1F
100
AcDbEntity
  8
NITEN
  6
PHANTOM
 62
   140
100
AcDbLine
 10
177.830053134168
 20
104.2973361674163
 30
0.0
 11
184.830053134168
 21
104.2973361674163
 31
0.0
  0
LINE
  5
130
330
1F
100
AcDbEntity
  8
NITEN
  6
PHANTOM
 62
   140
100
AcDbLine
 10
121.830053134168
 20
85.79733616741629
 30
0.0
 11
128.830053134168
 21
85.79733616741629
 31
0.0
  0
LINE
  5
131
330
1F
100
AcDbEntity
  8
NITEN
  6
PHANTOM
 62
   140
100
AcDbLine
 10
121.830053134168
 20
104.2973361674163
 30
0.0
 11
128.830053134168
 21
104.2973361674163
 31
0.0
  0
LINE
  5
132
330
1F
100
AcDbEntity
  8
NITEN
  6
PHANTOM
 62
   140
100
AcDbLine
 10
186.830053134168
 20
102.2973361674163
 30
0.0
 11
186.830053134168
 21
87.79733616741629
 31
0.0
  0
LINE
  5
133
330
1F
100
AcDbEntity
  8
NITEN
  6
PHANTOM
 62
   140
100
AcDbLine
 10
187.830053134168
 20
102.2973361674163
 30
0.0
 11
187.830053134168
 21
87.79733616741629
 31
0.0
  0
LINE
  5
134
330
1F
100
AcDbEntity
  8
NITEN
  6
PHANTOM
 62
   140
100
AcDbLine
 10
179.3300531341679
 20
107.2973361674163
 30
0.0
 11
179.330053134168
 21
105.2973361674163
 31
0.0
  0
LINE
  5
135
330
1F
100
AcDbEntity
  8
NITEN
  6
PHANTOM
 62
   140
100
AcDbLine
 10
127.330053134168
 20
107.2973361674163
 30
0.0
 11
127.3300531341679
 21
105.2973361674163
 31
0.0
  0
LINE
  5
136
330
1F
100
AcDbEntity
  8
NITEN
  6
PHANTOM
 62
   140
100
AcDbLine
 10
119.830053134168
 20
102.2973361674163
 30
0.0
 11
119.8300531341679
 21
87.79733616741629
 31
0.0
  0
LINE
  5
137
330
1F
100
AcDbEntity
  8
NITEN
  6
PHANTOM
 62
   140
100
AcDbLine
 10
121.8300531341679
 20
84.79733616741629
 30
0.0
 11
127.3300531341679
 21
84.79733616741629
 31
0.0
  0
LINE
  5
138
330
1F
100
AcDbEntity
  8
NITEN
  6
PHANTOM
 62
   140
100
AcDbLine
 10
121.830053134168
 20
105.2973361674163
 30
0.0
 11
127.3300531341679
 21
105.2973361674163
 31
0.0
  0
LINE
  5
139
330
1F
100
AcDbEntity
  8
NITEN
  6
PHANTOM
 62
   140
100
AcDbLine
 10
127.330053134168
 20
107.2973361674163
 30
0.0
 11
128.330053134168
 21
107.2973361674163
 31
0.0
  0
LINE
  5
13A
330
1F
100
AcDbEntity
  8
NITEN
  6
PHANTOM
 62
   140
100
AcDbLine
 10
127.330053134168
 20
82.79733616741629
 30
0.0
 11
128.330053134168
 21
82.79733616741629
 31
0.0
  0
LINE
  5
13B
330
1F
100
AcDbEntity
  8
NITEN
  6
PHANTOM
 62
   140
100
AcDbLine
 10
118.8300531341679
 20
102.2973361674163
 30
0.0
 11
118.830053134168
 21
87.79733616741629
 31
0.0
  0
LINE
  5
13C
330
1F
100
AcDbEntity
  8
NITEN
  6
PHANTOM
 62
   140
100
AcDbLine
 10
173.330053134168
 20
107.7973361674163
 30
0.0
 11
174.7300531341679
 21
107.7973361674163
 31
0.0
  0
LINE
  5
13D
330
1F
100
AcDbEntity
  8
NITEN
  6
PHANTOM
 62
   140
100
AcDbLine
 10
132.330053134168
 20
107.7973361674163
 30
0.0
 11
133.330053134168
 21
107.7973361674163
 31
0.0
  0
LINE
  5
13E
330
1F
100
AcDbEntity
  8
NITEN
  6
PHANTOM
 62
   140
100
AcDbLine
 10
131.9300531341681
 20
107.7973361674163
 30
0.0
 11
132.349668134168
 21
107.7973361674163
 31
0.0
  0
LINE
  5
13F
330
1F
100
AcDbEntity
  8
NITEN
  6
PHANTOM
 62
   140
100
AcDbLine
 10
176.830053134168
 20
105.6973361674163
 30
0.0
 11
176.830053134168
 21
82.99733616741628
 31
0.0
  0
LINE
  5
140
330
1F
100
AcDbEntity
  8
NITEN
  6
PHANTOM
 62
   140
100
AcDbLine
 10
129.8300531341679
 20
105.6973361674163
 30
0.0
 11
129.8300531341679
 21
82.99733616741628
 31
0.0
  0
LINE
  5
141
330
1F
100
AcDbEntity
  8
NITEN
  6
PHANTOM
 62
   140
100
AcDbLine
 10
144.830053134168
 20
120.9973361674163
 30
0.0
 11
161.8300531341679
 21
120.9973361674163
 31
0.0
  0
LINE
  5
142
330
1F
100
AcDbEntity
  8
NITEN
  6
PHANTOM
 62
   140
100
AcDbLine
 10
133.830053134168
 20
78.99733616741628
 30
0.0
 11
172.830053134168
 21
78.99733616741628
 31
0.0
  0
LINE
  5
143
330
1F
100
AcDbEntity
  8
NITEN
  6
PHANTOM
 62
   140
100
AcDbLine
 10
133.3300531341679
 20
109.4973361674163
 30
0.0
 11
133.330053134168
 21
107.7973361674163
 31
0.0
  0
LINE
  5
144
330
1F
100
AcDbEntity
  8
NITEN
  6
PHANTOM
 62
   140
100
AcDbLine
 10
173.330053134168
 20
109.4973361674163
 30
0.0
 11
173.330053134168
 21
107.7973361674163
 31
0.0
  0
LINE
  5
145
330
1F
100
AcDbEntity
  8
NITEN
  6
PHANTOM
 62
   140
100
AcDbLine
 10
174.3104371341679
 20
108.7973361674163
 30
0.0
 11
174.7300531341679
 21
108.7973361674163
 31
0.0
  0
LINE
  5
146
330
1F
100
AcDbEntity
  8
NITEN
  6
PHANTOM
 62
   140
100
AcDbLine
 10
177.830053134168
 20
106.7973361674163
 30
0.0
 11
177.830053134168
 21
82.99733616741628
 31
0.0
  0
LINE
  5
147
330
1F
100
AcDbEntity
  8
NITEN
  6
PHANTOM
 62
   140
100
AcDbLine
 10
128.830053134168
 20
106.7973361674163
 30
0.0
 11
128.830053134168
 21
82.99733616741628
 31
0.0
  0
LINE
  5
148
330
1F
100
AcDbEntity
  8
NITEN
  6
PHANTOM
 62
   140
100
AcDbLine
 10
131.9300531341679
 20
108.7973361674163
 30
0.0
 11
132.349668134168
 21
108.7973361674163
 31
0.0
  0
LINE
  5
149
330
1F
100
AcDbEntity
  8
NITEN
  6
PHANTOM
 62
   140
100
AcDbLine
 10
132.330053134168
 20
109.4973361674163
 30
0.0
 11
132.330053134168
 21
108.7714211674163
 31
0.0
  0
LINE
  5
14A
330
1F
100
AcDbEntity
  8
NITEN
  6
PHANTOM
 62
   140
100
AcDbLine
 10
133.830053134168
 20
77.99733616741628
 30
0.0
 11
172.830053134168
 21
77.99733616741628
 31
0.0
  0
LINE
  5
14B
330
1F
100
AcDbEntity
  8
NITEN
  6
PHANTOM
 62
   140
100
AcDbLine
 10
144.830053134168
 20
121.9973361674163
 30
0.0
 11
161.8300531341679
 21
121.9973361674163
 31
0.0
  0
LINE
  5
14C
330
1F
100
AcDbEntity
  8
JISSEN
  6
Continuous
 62
     3
100
AcDbLine
 10
155.330053134168
 20
85.24733616741628
 30
0.0
 11
161.330053134168
 21
85.24733616741628
 31
0.0
  0
LINE
  5
14D
330
1F
100
AcDbEntity
  8
JISSEN
  6
Continuous
 62
     3
100
AcDbLine
 10
155.330053134168
 20
91.24733616741628
 30
0.0
 11
161.330053134168
 21
91.24733616741628
 31
0.0
  0
LINE
  5
14E
330
1F
100
AcDbEntity
  8
JISSEN
  6
Continuous
 62
     7
100
AcDbLine
 10
162.2800531341679
 20
91.44733616741627
 30
0.0
 11
162.2800531341679
 21
85.04733616741629
 31
0.0
  0
LINE
  5
14F
330
1F
100
AcDbEntity
  8
JISSEN
  6
Continuous
 62
     7
100
AcDbLine
 10
161.6800531341681
 20
91.44733616741627
 30
0.0
 11
161.6800531341681
 21
85.04733616741629
 31
0.0
  0
LINE
  5
150
330
1F
100
AcDbEntity
  8
JISSEN
  6
Continuous
 62
     3
100
AcDbLine
 10
161.330053134168
 20
91.24733616741628
 30
0.0
 11
161.330053134168
 21
85.24733616741628
 31
0.0
  0
LINE
  5
151
330
1F
100
AcDbEntity
  8
JISSEN
  6
Continuous
 62
     3
100
AcDbLine
 10
155.330053134168
 20
91.24733616741628
 30
0.0
 11
155.330053134168
 21
85.24733616741628
 31
0.0
  0
LINE
  5
152
330
1F
100
AcDbEntity
  8
JISSEN
  6
Continuous
 62
     3
100
AcDbLine
 10
151.330053134168
 20
91.24733616741628
 30
0.0
 11
151.330053134168
 21
85.24733616741628
 31
0.0
  0
LINE
  5
153
330
1F
100
AcDbEntity
  8
JISSEN
  6
Continuous
 62
     3
100
AcDbLine
 10
155.330053134168
 20
92.74733616741628
 30
0.0
 11
161.330053134168
 21
92.74733616741628
 31
0.0
  0
LINE
  5
154
330
1F
100
AcDbEntity
  8
JISSEN
  6
Continuous
 62
     3
100
AcDbLine
 10
155.330053134168
 20
98.74733616741628
 30
0.0
 11
161.330053134168
 21
98.74733616741628
 31
0.0
  0
LINE
  5
155
330
1F
100
AcDbEntity
  8
JISSEN
  6
Continuous
 62
     7
100
AcDbLine
 10
144.9800531341679
 20
91.44733616741627
 30
0.0
 11
144.9800531341679
 21
85.04733616741629
 31
0.0
  0
LINE
  5
156
330
1F
100
AcDbEntity
  8
JISSEN
  6
Continuous
 62
     7
100
AcDbLine
 10
144.3800531341679
 20
91.44733616741627
 30
0.0
 11
144.3800531341679
 21
85.04733616741629
 31
0.0
  0
LINE
  5
157
330
1F
100
AcDbEntity
  8
JISSEN
  6
Continuous
 62
     3
100
AcDbLine
 10
145.330053134168
 20
91.24733616741628
 30
0.0
 11
145.330053134168
 21
85.24733616741628
 31
0.0
  0
LINE
  5
158
330
1F
100
AcDbEntity
  8
JISSEN
  6
Continuous
 62
     3
100
AcDbLine
 10
145.330053134168
 20
92.74733616741628
 30
0.0
 11
151.330053134168
 21
92.74733616741628
 31
0.0
  0
LINE
  5
159
330
1F
100
AcDbEntity
  8
JISSEN
  6
Continuous
 62
     3
100
AcDbLine
 10
145.330053134168
 20
98.74733616741628
 30
0.0
 11
151.330053134168
 21
98.74733616741628
 31
0.0
  0
LINE
  5
15A
330
1F
100
AcDbEntity
  8
JISSEN
  6
Continuous
 62
     7
100
AcDbLine
 10
162.2800531341679
 20
98.94733616741627
 30
0.0
 11
162.2800531341679
 21
92.54733616741629
 31
0.0
  0
LINE
  5
15B
330
1F
100
AcDbEntity
  8
JISSEN
  6
Continuous
 62
     7
100
AcDbLine
 10
161.6800531341681
 20
98.94733616741627
 30
0.0
 11
161.6800531341681
 21
92.54733616741629
 31
0.0
  0
LINE
  5
15C
330
1F
100
AcDbEntity
  8
JISSEN
  6
Continuous
 62
     3
100
AcDbLine
 10
161.330053134168
 20
98.74733616741628
 30
0.0
 11
161.330053134168
 21
92.74733616741628
 31
0.0
  0
LINE
  5
15D
330
1F
100
AcDbEntity
  8
JISSEN
  6
Continuous
 62
     3
100
AcDbLine
 10
155.330053134168
 20
98.74733616741628
 30
0.0
 11
155.330053134168
 21
92.74733616741628
 31
0.0
  0
LINE
  5
15E
330
1F
100
AcDbEntity
  8
JISSEN
  6
Continuous
 62
     3
100
AcDbLine
 10
151.330053134168
 20
98.74733616741628
 30
0.0
 11
151.330053134168
 21
92.74733616741628
 31
0.0
  0
LINE
  5
15F
330
1F
100
AcDbEntity
  8
JISSEN
  6
Continuous
 62
     3
100
AcDbLine
 10
155.330053134168
 20
100.2473361674163
 30
0.0
 11
161.330053134168
 21
100.2473361674163
 31
0.0
  0
LINE
  5
160
330
1F
100
AcDbEntity
  8
JISSEN
  6
Continuous
 62
     3
100
AcDbLine
 10
155.330053134168
 20
106.2473361674163
 30
0.0
 11
161.330053134168
 21
106.2473361674163
 31
0.0
  0
LINE
  5
161
330
1F
100
AcDbEntity
  8
JISSEN
  6
Continuous
 62
     7
100
AcDbLine
 10
144.9800531341679
 20
98.94733616741627
 30
0.0
 11
144.9800531341679
 21
92.54733616741629
 31
0.0
  0
LINE
  5
162
330
1F
100
AcDbEntity
  8
JISSEN
  6
Continuous
 62
     7
100
AcDbLine
 10
144.3800531341679
 20
98.94733616741627
 30
0.0
 11
144.3800531341679
 21
92.54733616741629
 31
0.0
  0
LINE
  5
163
330
1F
100
AcDbEntity
  8
JISSEN
  6
Continuous
 62
     3
100
AcDbLine
 10
145.330053134168
 20
98.74733616741628
 30
0.0
 11
145.330053134168
 21
92.74733616741628
 31
0.0
  0
LINE
  5
164
330
1F
100
AcDbEntity
  8
JISSEN
  6
Continuous
 62
     3
100
AcDbLine
 10
145.330053134168
 20
85.24733616741628
 30
0.0
 11
151.330053134168
 21
85.24733616741628
 31
0.0
  0
LINE
  5
165
330
1F
100
AcDbEntity
  8
JISSEN
  6
Continuous
 62
     3
100
AcDbLine
 10
145.330053134168
 20
91.24733616741628
 30
0.0
 11
151.330053134168
 21
91.24733616741628
 31
0.0
  0
LINE
  5
166
330
1F
100
AcDbEntity
  8
JISSEN
  6
Continuous
 62
     7
100
AcDbLine
 10
145.330053134168
 20
100.2473361674163
 30
0.0
 11
151.330053134168
 21
100.2473361674163
 31
0.0
  0
LINE
  5
167
330
1F
100
AcDbEntity
  8
JISSEN
  6
Continuous
 62
     3
100
AcDbLine
 10
145.330053134168
 20
106.2473361674163
 30
0.0
 11
151.330053134168
 21
106.2473361674163
 31
0.0
  0
LINE
  5
168
330
1F
100
AcDbEntity
  8
JISSEN
  6
Continuous
 62
     7
100
AcDbLine
 10
164.330053134168
 20
91.59733616741627
 30
0.0
 11
164.330053134168
 21
82.34733616741627
 31
0.0
  0
LINE
  5
169
330
1F
100
AcDbEntity
  8
JISSEN
  6
Continuous
 62
     7
100
AcDbLine
 10
163.830053134168
 20
91.44733616741627
 30
0.0
 11
163.830053134168
 21
85.04733616741629
 31
0.0
  0
LINE
  5
16A
330
1F
100
AcDbEntity
  8
JISSEN
  6
Continuous
 62
     3
100
AcDbLine
 10
155.330053134168
 20
106.2473361674163
 30
0.0
 11
155.330053134168
 21
100.2473361674163
 31
0.0
  0
LINE
  5
16B
330
1F
100
AcDbEntity
  8
JISSEN
  6
Continuous
 62
     3
100
AcDbLine
 10
151.330053134168
 20
106.2473361674163
 30
0.0
 11
151.330053134168
 21
100.2473361674163
 31
0.0
  0
LINE
  5
16C
330
1F
100
AcDbEntity
  8
JISSEN
  6
Continuous
 62
     7
100
AcDbLine
 10
142.330053134168
 20
106.5693921674163
 30
0.0
 11
141.3512891341678
 21
106.5693921674163
 31
0.0
  0
LINE
  5
16D
330
1F
100
AcDbEntity
  8
JISSEN
  6
Continuous
 62
     7
100
AcDbLine
 10
165.297256134168
 20
106.5693921674163
 30
0.0
 11
164.330053134168
 21
106.5693921674163
 31
0.0
  0
LINE
  5
16E
330
1F
100
AcDbEntity
  8
JISSEN
  6
Continuous
 62
     7
100
AcDbLine
 10
161.6800531341681
 20
106.4473361674163
 30
0.0
 11
161.6800531341681
 21
100.0473361674163
 31
0.0
  0
LINE
  5
16F
330
1F
100
AcDbEntity
  8
JISSEN
  6
Continuous
 62
     7
100
AcDbLine
 10
144.9800531341679
 20
106.4473361674163
 30
0.0
 11
144.9800531341679
 21
100.0473361674163
 31
0.0
  0
LINE
  5
170
330
1F
100
AcDbEntity
  8
JISSEN
  6
Continuous
 62
     7
100
AcDbLine
 10
144.3800531341679
 20
106.4473361674163
 30
0.0
 11
144.3800531341679
 21
100.0473361674163
 31
0.0
  0
LINE
  5
171
330
1F
100
AcDbEntity
  8
JISSEN
  6
Continuous
 62
     7
100
AcDbLine
 10
142.330053134168
 20
91.59733616741627
 30
0.0
 11
142.330053134168
 21
82.34733616741627
 31
0.0
  0
LINE
  5
172
330
1F
100
AcDbEntity
  8
JISSEN
  6
Continuous
 62
     7
100
AcDbLine
 10
142.830053134168
 20
91.44733616741627
 30
0.0
 11
142.830053134168
 21
85.04733616741629
 31
0.0
  0
LINE
  5
173
330
1F
100
AcDbEntity
  8
JISSEN
  6
Continuous
 62
     7
100
AcDbLine
 10
165.8184931341679
 20
107.9854291674163
 30
0.0
 11
165.8184931341678
 21
107.4473361674163
 31
0.0
  0
LINE
  5
174
330
1F
100
AcDbEntity
  8
JISSEN
  6
Continuous
 62
     7
100
AcDbLine
 10
140.8300531341679
 20
107.8473361674163
 30
0.0
 11
140.8300531341679
 21
107.4473361674163
 31
0.0
  0
LINE
  5
175
330
1F
100
AcDbEntity
  8
JISSEN
  6
Continuous
 62
     7
100
AcDbLine
 10
163.830053134168
 20
106.4473361674163
 30
0.0
 11
163.830053134168
 21
100.0473361674163
 31
0.0
  0
LINE
  5
176
330
1F
100
AcDbEntity
  8
JISSEN
  6
Continuous
 62
     7
100
AcDbLine
 10
142.830053134168
 20
106.4473361674163
 30
0.0
 11
142.830053134168
 21
100.0473361674163
 31
0.0
  0
LINE
  5
177
330
1F
100
AcDbEntity
  8
JISSEN
  6
Continuous
 62
     7
100
AcDbLine
 10
141.330053134168
 20
98.94733616741627
 30
0.0
 11
141.330053134168
 21
92.54733616741629
 31
0.0
  0
LINE
  5
178
330
1F
100
AcDbEntity
  8
JISSEN
  6
Continuous
 62
     7
100
AcDbLine
 10
162.2800531341679
 20
106.4473361674163
 30
0.0
 11
162.2800531341679
 21
100.0473361674163
 31
0.0
  0
LINE
  5
179
330
1F
100
AcDbEntity
  8
JISSEN
  6
Continuous
 62
     7
100
AcDbLine
 10
165.330053134168
 20
98.94733616741627
 30
0.0
 11
165.330053134168
 21
92.54733616741629
 31
0.0
  0
LINE
  5
17A
330
1F
100
AcDbEntity
  8
JISSEN
  6
Continuous
 62
     7
100
AcDbLine
 10
140.830053134168
 20
99.89733616741629
 30
0.0
 11
140.830053134168
 21
91.59733616741627
 31
0.0
  0
LINE
  5
17B
330
1F
100
AcDbEntity
  8
JISSEN
  6
Continuous
 62
     7
100
AcDbLine
 10
165.830053134168
 20
99.89733616741629
 30
0.0
 11
165.830053134168
 21
91.59733616741627
 31
0.0
  0
LINE
  5
17C
330
1F
100
AcDbEntity
  8
JISSEN
  6
Continuous
 62
     7
100
AcDbLine
 10
140.830053134168
 20
98.94733616741627
 30
0.0
 11
165.830053134168
 21
98.94733616741627
 31
0.0
  0
LINE
  5
17D
330
1F
100
AcDbEntity
  8
JISSEN
  6
Continuous
 62
     7
100
AcDbLine
 10
140.830053134168
 20
92.54733616741629
 30
0.0
 11
165.830053134168
 21
92.54733616741629
 31
0.0
  0
LINE
  5
17E
330
1F
100
AcDbEntity
  8
JISSEN
  6
Continuous
 62
     7
100
AcDbLine
 10
142.330053134168
 20
85.04733616741629
 30
0.0
 11
164.330053134168
 21
85.04733616741629
 31
0.0
  0
LINE
  5
17F
330
1F
100
AcDbEntity
  8
JISSEN
  6
Continuous
 62
     7
100
AcDbLine
 10
142.330053134168
 20
106.4473361674163
 30
0.0
 11
164.330053134168
 21
106.4473361674163
 31
0.0
  0
LINE
  5
180
330
1F
100
AcDbEntity
  8
JISSEN
  6
Continuous
 62
     7
100
AcDbLine
 10
140.830053134168
 20
99.89733616741629
 30
0.0
 11
165.830053134168
 21
99.89733616741629
 31
0.0
  0
LINE
  5
181
330
1F
100
AcDbEntity
  8
JISSEN
  6
Continuous
 62
     7
100
AcDbLine
 10
140.830053134168
 20
99.09733616741627
 30
0.0
 11
165.830053134168
 21
99.09733616741627
 31
0.0
  0
LINE
  5
182
330
1F
100
AcDbEntity
  8
JISSEN
  6
Continuous
 62
     7
100
AcDbLine
 10
140.830053134168
 20
92.39733616741629
 30
0.0
 11
165.830053134168
 21
92.39733616741629
 31
0.0
  0
LINE
  5
183
330
1F
100
AcDbEntity
  8
JISSEN
  6
Continuous
 62
     7
100
AcDbLine
 10
140.830053134168
 20
91.59733616741627
 30
0.0
 11
165.830053134168
 21
91.59733616741627
 31
0.0
  0
LINE
  5
184
330
1F
100
AcDbEntity
  8
JISSEN
  6
Continuous
 62
     7
100
AcDbLine
 10
142.330053134168
 20
100.0473361674163
 30
0.0
 11
164.330053134168
 21
100.0473361674163
 31
0.0
  0
LINE
  5
185
330
1F
100
AcDbEntity
  8
JISSEN
  6
Continuous
 62
     7
100
AcDbLine
 10
142.330053134168
 20
91.44733616741627
 30
0.0
 11
164.330053134168
 21
91.44733616741627
 31
0.0
  0
LINE
  5
186
330
1F
100
AcDbEntity
  8
JISSEN
  6
Continuous
 62
     7
100
AcDbLine
 10
142.330053134168
 20
84.89733616741629
 30
0.0
 11
164.330053134168
 21
84.89733616741629
 31
0.0
  0
LINE
  5
187
330
1F
100
AcDbEntity
  8
JISSEN
  6
Continuous
 62
     3
100
AcDbLine
 10
161.330053134168
 20
106.2473361674163
 30
0.0
 11
161.330053134168
 21
100.2473361674163
 31
0.0
  0
LINE
  5
188
330
1F
100
AcDbEntity
  8
JISSEN
  6
Continuous
 62
     3
100
AcDbLine
 10
145.330053134168
 20
106.2473361674163
 30
0.0
 11
145.330053134168
 21
100.2473361674163
 31
0.0
  0
LINE
  5
189
330
1F
100
AcDbEntity
  8
JISSEN
  6
Continuous
 62
     7
100
AcDbLine
 10
141.3032701341679
 20
106.5973361674163
 30
0.0
 11
165.345275134168
 21
106.5973361674163
 31
0.0
  0
LINE
  5
18A
330
1F
100
AcDbEntity
  8
JISSEN
  6
Continuous
 62
     7
100
AcDbLine
 10
159.330053134168
 20
82.39733616741629
 30
0.0
 11
147.330053134168
 21
82.39733616741629
 31
0.0
  0
LINE
  5
18B
330
1F
100
AcDbEntity
  8
JISSEN
  6
Continuous
 62
     7
100
AcDbLine
 10
140.8300531341679
 20
107.9973361674163
 30
0.0
 11
139.330053134168
 21
107.9973361674163
 31
0.0
  0
LINE
  5
18C
330
1F
100
AcDbEntity
  8
JISSEN
  6
Continuous
 62
     7
100
AcDbLine
 10
144.330053134168
 20
110.8473361674163
 30
0.0
 11
143.8300531341679
 21
110.8473361674163
 31
0.0
  0
LINE
  5
18D
330
1F
100
AcDbEntity
  8
JISSEN
  6
Continuous
 62
     7
100
AcDbLine
 10
161.330053134168
 20
108.5473361674163
 30
0.0
 11
145.330053134168
 21
108.5473361674163
 31
0.0
  0
LINE
  5
18E
330
1F
100
AcDbEntity
  8
JISSEN
  6
Continuous
 62
     7
100
AcDbLine
 10
162.830053134168
 20
110.8473361674163
 30
0.0
 11
162.330053134168
 21
110.8473361674163
 31
0.0
  0
LINE
  5
18F
330
1F
100
AcDbEntity
  8
JISSEN
  6
Continuous
 62
     7
100
AcDbLine
 10
142.330053134168
 20
106.5693921674163
 30
0.0
 11
142.330053134168
 21
99.89733616741629
 31
0.0
  0
LINE
  5
190
330
1F
100
AcDbEntity
  8
JISSEN
  6
Continuous
 62
     7
100
AcDbLine
 10
164.330053134168
 20
106.5693921674163
 30
0.0
 11
164.330053134168
 21
99.89733616741629
 31
0.0
  0
LINE
  5
191
330
1F
100
AcDbEntity
  8
JISSEN
  6
Continuous
 62
     7
100
AcDbLine
 10
145.330053134168
 20
109.8473361674163
 30
0.0
 11
145.330053134168
 21
108.5473361674163
 31
0.0
  0
LINE
  5
192
330
1F
100
AcDbEntity
  8
JISSEN
  6
Continuous
 62
     7
100
AcDbLine
 10
161.330053134168
 20
109.8473361674163
 30
0.0
 11
161.330053134168
 21
108.5473361674163
 31
0.0
  0
LINE
  5
193
330
1F
100
AcDbEntity
  8
JISSEN
  6
Continuous
 62
     7
100
AcDbLine
 10
140.8300531341679
 20
107.8473361674163
 30
0.0
 11
140.8300531341679
 21
107.5973361674163
 31
0.0
  0
LINE
  5
194
330
1F
100
AcDbEntity
  8
JISSEN
  6
Continuous
 62
     7
100
AcDbLine
 10
165.580053134168
 20
112.4161971674163
 30
0.0
 11
165.580053134168
 21
109.0462941674163
 31
0.0
  0
LINE
  5
195
330
1F
100
AcDbEntity
  8
ITTEN
  6
DASH_CENTER
 62
     3
100
AcDbLine
 10
129.247047134168
 20
113.9973361674163
 30
0.0
 11
177.4130581341679
 21
113.9973361674163
 31
0.0
  0
LINE
  5
196
330
1F
100
AcDbEntity
  8
JISSEN
  6
Continuous
 62
     3
100
AcDbLine
 10
163.6800531341679
 20
115.7973361674163
 30
0.0
 11
162.9800531341678
 21
115.7973361674163
 31
0.0
  0
LINE
  5
197
330
1F
100
AcDbEntity
  8
JISSEN
  6
Continuous
 62
     3
100
AcDbLine
 10
162.9800531341678
 20
115.7973361674163
 30
0.0
 11
162.9800531341678
 21
115.0473361674163
 31
0.0
  0
LINE
  5
198
330
1F
100
AcDbEntity
  8
JISSEN
  6
Continuous
 62
     3
100
AcDbLine
 10
163.6800531341679
 20
115.0473361674163
 30
0.0
 11
163.6800531341679
 21
115.7973361674163
 31
0.0
  0
LINE
  5
199
330
1F
100
AcDbEntity
  8
JISSEN
  6
Continuous
 62
     3
100
AcDbLine
 10
165.1300531341679
 20
114.3473361674163
 30
0.0
 11
164.3800531341678
 21
114.3473361674163
 31
0.0
  0
LINE
  5
19A
330
1F
100
AcDbEntity
  8
JISSEN
  6
Continuous
 62
     3
100
AcDbLine
 10
162.2800531341678
 20
114.3473361674163
 30
0.0
 11
161.5300531341678
 21
114.3473361674163
 31
0.0
  0
LINE
  5
19B
330
1F
100
AcDbEntity
  8
JISSEN
  6
Continuous
 62
     3
100
AcDbLine
 10
162.9800531341679
 20
112.1973361674163
 30
0.0
 11
163.6800531341681
 21
112.1973361674163
 31
0.0
  0
LINE
  5
19C
330
1F
100
AcDbEntity
  8
JISSEN
  6
Continuous
 62
     3
100
AcDbLine
 10
162.9800531341679
 20
112.9473361674163
 30
0.0
 11
162.9800531341679
 21
112.1973361674163
 31
0.0
  0
LINE
  5
19D
330
1F
100
AcDbEntity
  8
JISSEN
  6
Continuous
 62
     3
100
AcDbLine
 10
163.6800531341681
 20
112.1973361674163
 30
0.0
 11
163.6800531341679
 21
112.9473361674163
 31
0.0
  0
LINE
  5
19E
330
1F
100
AcDbEntity
  8
JISSEN
  6
Continuous
 62
     3
100
AcDbLine
 10
164.3800531341678
 20
113.6473361674163
 30
0.0
 11
165.1300531341679
 21
113.6473361674163
 31
0.0
  0
LINE
  5
19F
330
1F
100
AcDbEntity
  8
JISSEN
  6
Continuous
 62
     3
100
AcDbLine
 10
161.5300531341678
 20
113.6473361674163
 30
0.0
 11
162.2800531341678
 21
113.6473361674163
 31
0.0
  0
LINE
  5
1A0
330
1F
100
AcDbEntity
  8
JISSEN
  6
Continuous
 62
     3
100
AcDbLine
 10
165.1300531341679
 20
113.6473361674163
 30
0.0
 11
165.1300531341679
 21
114.3473361674163
 31
0.0
  0
LINE
  5
1A1
330
1F
100
AcDbEntity
  8
JISSEN
  6
Continuous
 62
     3
100
AcDbLine
 10
161.5300531341678
 20
114.3473361674163
 30
0.0
 11
161.5300531341678
 21
113.6473361674163
 31
0.0
  0
LINE
  5
1A2
330
1F
100
AcDbEntity
  8
JISSEN
  6
Continuous
 62
     7
100
AcDbLine
 10
167.5200531341678
 20
117.7256871674163
 30
0.0
 11
167.5200531341679
 21
107.9973361674163
 31
0.0
  0
LINE
  5
1A3
330
1F
100
AcDbEntity
  8
JISSEN
  6
Continuous
 62
     7
100
AcDbLine
 10
165.5800531341679
 20
119.4624791674163
 30
0.0
 11
165.5800531341679
 21
115.5784751674163
 31
0.0
  0
LINE
  5
1A4
330
1F
100
AcDbEntity
  8
JISSEN
  6
Continuous
 62
     7
100
AcDbLine
 10
167.3300531341679
 20
107.9973361674163
 30
0.0
 11
165.830053134168
 21
107.9973361674163
 31
0.0
  0
LINE
  5
1A5
330
1F
100
AcDbEntity
  8
JISSEN
  6
Continuous
 62
     7
100
AcDbLine
 10
163.3300531341679
 20
119.9973361674163
 30
0.0
 11
143.330053134168
 21
119.9973361674163
 31
0.0
  0
LINE
  5
1A6
330
1F
100
AcDbEntity
  8
JISSEN
  6
Continuous
 62
     7
100
AcDbLine
 10
165.9300531341681
 20
88.74733616741628
 30
0.0
 11
165.9300531341681
 21
86.74733616741628
 31
0.0
  0
LINE
  5
1A7
330
1F
100
AcDbEntity
  8
JISSEN
  6
Continuous
 62
     7
100
AcDbLine
 10
170.7300531341679
 20
88.74733616741628
 30
0.0
 11
170.7300531341679
 21
86.74733616741628
 31
0.0
  0
LINE
  5
1A8
330
1F
100
AcDbEntity
  8
JISSEN
  6
Continuous
 62
     7
100
AcDbLine
 10
135.9300531341681
 20
88.74733616741628
 30
0.0
 11
135.9300531341681
 21
86.74733616741628
 31
0.0
  0
LINE
  5
1A9
330
1F
100
AcDbEntity
  8
JISSEN
  6
Continuous
 62
     7
100
AcDbLine
 10
140.7300531341679
 20
88.74733616741628
 30
0.0
 11
140.7300531341679
 21
86.74733616741628
 31
0.0
  0
LINE
  5
1AA
330
1F
100
AcDbEntity
  8
JISSEN
  6
Continuous
 62
     7
100
AcDbLine
 10
157.8690501341679
 20
109.9973361674163
 30
0.0
 11
148.7910551341679
 21
109.9973361674163
 31
0.0
  0
LINE
  5
1AB
330
1F
100
AcDbEntity
  8
JISSEN
  6
Continuous
 62
     7
100
AcDbLine
 10
157.869050134168
 20
117.9973361674163
 30
0.0
 11
148.791055134168
 21
117.9973361674163
 31
0.0
  0
LINE
  5
1AC
330
1F
100
AcDbEntity
  8
ITTEN
  6
DASH_CENTER
 62
     3
100
AcDbLine
 10
153.330053134168
 20
125.9973361674163
 30
0.0
 11
153.330053134168
 21
104.9973361674163
 31
0.0
  0
LINE
  5
1AD
330
1F
100
AcDbEntity
  8
JISSEN
  6
Continuous
 62
     7
100
AcDbLine
 10
161.8300531341679
 20
120.9973361674163
 30
0.0
 11
144.830053134168
 21
120.9973361674163
 31
0.0
  0
LINE
  5
1AE
330
1F
100
AcDbEntity
  8
JISSEN
  6
Continuous
 62
     7
100
AcDbLine
 10
168.330053134168
 20
78.99733616741628
 30
0.0
 11
138.330053134168
 21
78.99733616741628
 31
0.0
  0
LINE
  5
1AF
330
1F
100
AcDbEntity
  8
JISSEN
  6
Continuous
 62
     7
100
AcDbLine
 10
138.3300531341679
 20
114.9973361674163
 30
0.0
 11
138.330053134168
 21
108.9973361674163
 31
0.0
  0
LINE
  5
1B0
330
1F
100
AcDbEntity
  8
JISSEN
  6
Continuous
 62
     7
100
AcDbLine
 10
168.3300531341679
 20
114.9973361674163
 30
0.0
 11
168.3300531341679
 21
108.9973361674163
 31
0.0
  0
LINE
  5
1B1
330
1F
100
AcDbEntity
  8
JISSEN
  6
Continuous
 62
     7
100
AcDbLine
 10
133.3300531341679
 20
109.4973361674163
 30
0.0
 11
133.330053134168
 21
83.99733616741628
 31
0.0
  0
LINE
  5
1B2
330
1F
100
AcDbEntity
  8
JISSEN
  6
Continuous
 62
     7
100
AcDbLine
 10
173.330053134168
 20
109.4973361674163
 30
0.0
 11
173.330053134168
 21
83.99733616741628
 31
0.0
  0
LINE
  5
1B3
330
1F
100
AcDbEntity
  8
JISSEN
  6
Continuous
 62
     3
100
AcDbLine
 10
142.9800531341679
 20
115.7973361674163
 30
0.0
 11
142.9800531341679
 21
115.0473361674163
 31
0.0
  0
LINE
  5
1B4
330
1F
100
AcDbEntity
  8
JISSEN
  6
Continuous
 62
     3
100
AcDbLine
 10
142.2800531341678
 20
114.3473361674163
 30
0.0
 11
141.5300531341678
 21
114.3473361674163
 31
0.0
  0
LINE
  5
1B5
330
1F
100
AcDbEntity
  8
JISSEN
  6
Continuous
 62
     3
100
AcDbLine
 10
141.5300531341678
 20
114.3473361674163
 30
0.0
 11
141.5300531341679
 21
113.6473361674163
 31
0.0
  0
LINE
  5
1B6
330
1F
100
AcDbEntity
  8
JISSEN
  6
Continuous
 62
     3
100
AcDbLine
 10
141.5300531341679
 20
113.6473361674163
 30
0.0
 11
142.2800531341679
 21
113.6473361674163
 31
0.0
  0
LINE
  5
1B7
330
1F
100
AcDbEntity
  8
JISSEN
  6
Continuous
 62
     3
100
AcDbLine
 10
142.9800531341679
 20
112.9473361674163
 30
0.0
 11
142.9800531341679
 21
112.1973361674163
 31
0.0
  0
LINE
  5
1B8
330
1F
100
AcDbEntity
  8
JISSEN
  6
Continuous
 62
     3
100
AcDbLine
 10
142.9800531341679
 20
112.1973361674163
 30
0.0
 11
143.6800531341681
 21
112.1973361674163
 31
0.0
  0
LINE
  5
1B9
330
1F
100
AcDbEntity
  8
JISSEN
  6
Continuous
 62
     3
100
AcDbLine
 10
143.6800531341681
 20
112.1973361674163
 30
0.0
 11
143.6800531341681
 21
112.9473361674163
 31
0.0
  0
LINE
  5
1BA
330
1F
100
AcDbEntity
  8
JISSEN
  6
Continuous
 62
     3
100
AcDbLine
 10
144.3800531341679
 20
113.6473361674163
 30
0.0
 11
145.1300531341679
 21
113.6473361674163
 31
0.0
  0
LINE
  5
1BB
330
1F
100
AcDbEntity
  8
JISSEN
  6
Continuous
 62
     3
100
AcDbLine
 10
145.1300531341679
 20
113.6473361674163
 30
0.0
 11
145.1300531341678
 21
114.3473361674163
 31
0.0
  0
LINE
  5
1BC
330
1F
100
AcDbEntity
  8
JISSEN
  6
Continuous
 62
     3
100
AcDbLine
 10
145.1300531341678
 20
114.3473361674163
 30
0.0
 11
144.3800531341678
 21
114.3473361674163
 31
0.0
  0
LINE
  5
1BD
330
1F
100
AcDbEntity
  8
JISSEN
  6
Continuous
 62
     3
100
AcDbLine
 10
143.6800531341679
 20
115.0473361674163
 30
0.0
 11
143.6800531341679
 21
115.7973361674163
 31
0.0
  0
LINE
  5
1BE
330
1F
100
AcDbEntity
  8
JISSEN
  6
Continuous
 62
     3
100
AcDbLine
 10
143.6800531341679
 20
115.7973361674163
 30
0.0
 11
142.9800531341679
 21
115.7973361674163
 31
0.0
  0
LINE
  5
1BF
330
1F
100
AcDbEntity
  8
JISSEN
  6
Continuous
 62
     3
100
AcDbLine
 10
148.6800531341681
 20
104.7473361674163
 30
0.0
 11
147.9800531341679
 21
104.7473361674163
 31
0.0
  0
LINE
  5
1C0
330
1F
100
AcDbEntity
  8
JISSEN
  6
Continuous
 62
     3
100
AcDbLine
 10
146.830053134168
 20
103.5973361674163
 30
0.0
 11
146.830053134168
 21
102.8973361674163
 31
0.0
  0
LINE
  5
1C1
330
1F
100
AcDbEntity
  8
JISSEN
  6
Continuous
 62
     3
100
AcDbLine
 10
148.6800531341681
 20
101.7473361674163
 30
0.0
 11
147.9800531341679
 21
101.7473361674163
 31
0.0
  0
LINE
  5
1C2
330
1F
100
AcDbEntity
  8
JISSEN
  6
Continuous
 62
     3
100
AcDbLine
 10
149.830053134168
 20
103.5973361674163
 30
0.0
 11
149.830053134168
 21
102.8973361674163
 31
0.0
  0
LINE
  5
1C3
330
1F
100
AcDbEntity
  8
JISSEN
  6
Continuous
 62
     3
100
AcDbLine
 10
148.6800531341681
 20
89.74733616741628
 30
0.0
 11
147.9800531341679
 21
89.74733616741628
 31
0.0
  0
LINE
  5
1C4
330
1F
100
AcDbEntity
  8
JISSEN
  6
Continuous
 62
     3
100
AcDbLine
 10
146.830053134168
 20
88.59733616741627
 30
0.0
 11
146.830053134168
 21
87.89733616741629
 31
0.0
  0
LINE
  5
1C5
330
1F
100
AcDbEntity
  8
JISSEN
  6
Continuous
 62
     3
100
AcDbLine
 10
148.6800531341681
 20
86.74733616741628
 30
0.0
 11
147.9800531341679
 21
86.74733616741628
 31
0.0
  0
LINE
  5
1C6
330
1F
100
AcDbEntity
  8
JISSEN
  6
Continuous
 62
     3
100
AcDbLine
 10
149.830053134168
 20
88.59733616741627
 30
0.0
 11
149.830053134168
 21
87.89733616741629
 31
0.0
  0
LINE
  5
1C7
330
1F
100
AcDbEntity
  8
JISSEN
  6
Continuous
 62
     3
100
AcDbLine
 10
158.6800531341681
 20
89.74733616741628
 30
0.0
 11
157.9800531341679
 21
89.74733616741628
 31
0.0
  0
LINE
  5
1C8
330
1F
100
AcDbEntity
  8
JISSEN
  6
Continuous
 62
     3
100
AcDbLine
 10
156.830053134168
 20
88.59733616741627
 30
0.0
 11
156.830053134168
 21
87.89733616741629
 31
0.0
  0
LINE
  5
1C9
330
1F
100
AcDbEntity
  8
JISSEN
  6
Continuous
 62
     3
100
AcDbLine
 10
158.6800531341681
 20
86.74733616741628
 30
0.0
 11
157.9800531341679
 21
86.74733616741628
 31
0.0
  0
LINE
  5
1CA
330
1F
100
AcDbEntity
  8
JISSEN
  6
Continuous
 62
     3
100
AcDbLine
 10
159.830053134168
 20
88.59733616741627
 30
0.0
 11
159.830053134168
 21
87.89733616741629
 31
0.0
  0
LINE
  5
1CB
330
1F
100
AcDbEntity
  8
JISSEN
  6
Continuous
 62
     3
100
AcDbLine
 10
156.830053134168
 20
96.09733616741627
 30
0.0
 11
156.830053134168
 21
95.39733616741629
 31
0.0
  0
LINE
  5
1CC
330
1F
100
AcDbEntity
  8
JISSEN
  6
Continuous
 62
     3
100
AcDbLine
 10
158.6800531341681
 20
94.24733616741628
 30
0.0
 11
157.9800531341679
 21
94.24733616741628
 31
0.0
  0
LINE
  5
1CD
330
1F
100
AcDbEntity
  8
JISSEN
  6
Continuous
 62
     3
100
AcDbLine
 10
159.830053134168
 20
96.09733616741627
 30
0.0
 11
159.830053134168
 21
95.39733616741629
 31
0.0
  0
LINE
  5
1CE
330
1F
100
AcDbEntity
  8
JISSEN
  6
Continuous
 62
     3
100
AcDbLine
 10
158.6800531341681
 20
97.24733616741628
 30
0.0
 11
157.9800531341679
 21
97.24733616741628
 31
0.0
  0
LINE
  5
1CF
330
1F
100
AcDbEntity
  8
JISSEN
  6
Continuous
 62
     3
100
AcDbLine
 10
146.830053134168
 20
96.09733616741627
 30
0.0
 11
146.830053134168
 21
95.39733616741629
 31
0.0
  0
LINE
  5
1D0
330
1F
100
AcDbEntity
  8
JISSEN
  6
Continuous
 62
     3
100
AcDbLine
 10
148.6800531341681
 20
94.24733616741628
 30
0.0
 11
147.9800531341679
 21
94.24733616741628
 31
0.0
  0
LINE
  5
1D1
330
1F
100
AcDbEntity
  8
JISSEN
  6
Continuous
 62
     3
100
AcDbLine
 10
149.830053134168
 20
96.09733616741627
 30
0.0
 11
149.830053134168
 21
95.39733616741629
 31
0.0
  0
LINE
  5
1D2
330
1F
100
AcDbEntity
  8
JISSEN
  6
Continuous
 62
     3
100
AcDbLine
 10
148.6800531341681
 20
97.24733616741628
 30
0.0
 11
147.9800531341679
 21
97.24733616741628
 31
0.0
  0
LINE
  5
1D3
330
1F
100
AcDbEntity
  8
JISSEN
  6
Continuous
 62
     3
100
AcDbLine
 10
158.6800531341681
 20
104.7473361674163
 30
0.0
 11
157.9800531341679
 21
104.7473361674163
 31
0.0
  0
LINE
  5
1D4
330
1F
100
AcDbEntity
  8
JISSEN
  6
Continuous
 62
     3
100
AcDbLine
 10
156.830053134168
 20
103.5973361674163
 30
0.0
 11
156.830053134168
 21
102.8973361674163
 31
0.0
  0
LINE
  5
1D5
330
1F
100
AcDbEntity
  8
JISSEN
  6
Continuous
 62
     3
100
AcDbLine
 10
158.6800531341681
 20
101.7473361674163
 30
0.0
 11
157.9800531341679
 21
101.7473361674163
 31
0.0
  0
LINE
  5
1D6
330
1F
100
AcDbEntity
  8
JISSEN
  6
Continuous
 62
     3
100
AcDbLine
 10
159.830053134168
 20
103.5973361674163
 30
0.0
 11
159.830053134168
 21
102.8973361674163
 31
0.0
  0
LINE
  5
1D7
330
1F
100
AcDbEntity
  8
ITTEN
  6
DASH_CENTER
 62
     3
100
AcDbLine
 10
143.7300531341679
 20
88.99733616741628
 30
0.0
 11
132.9300531341681
 21
88.99733616741628
 31
0.0
  0
LINE
  5
1D8
330
1F
100
AcDbEntity
  8
ITTEN
  6
DASH_CENTER
 62
     3
100
AcDbLine
 10
138.330053134168
 20
94.71537716741628
 30
0.0
 11
138.330053134168
 21
81.59733616741627
 31
0.0
  0
LINE
  5
1D9
330
1F
100
AcDbEntity
  8
ITTEN
  6
DASH_CENTER
 62
     3
100
AcDbLine
 10
168.330053134168
 20
94.71537716741628
 30
0.0
 11
168.330053134168
 21
81.59733616741627
 31
0.0
  0
LINE
  5
1DA
330
1F
100
AcDbEntity
  8
ITTEN
  6
DASH_CENTER
 62
     3
100
AcDbLine
 10
173.7300531341679
 20
88.99733616741628
 30
0.0
 11
162.9300531341681
 21
88.99733616741628
 31
0.0
  0
ARC
  5
1DB
330
1F
100
AcDbEntity
  8
JISSEN
  6
Continuous
 62
     7
100
AcDbCircle
 10
72.28788908765674
 20
224.0778507000849
 30
0.0
 40
1.5
100
AcDbArc
 50
90.0
 51
180.0
  0
ARC
  5
1DC
330
1F
100
AcDbEntity
  8
JISSEN
  6
Continuous
 62
     7
100
AcDbCircle
 10
72.28788908765674
 20
184.7778507000849
 30
0.0
 40
1.5
100
AcDbArc
 50
180.0
 51
-90.0
  0
ARC
  5
1DD
330
1F
100
AcDbEntity
  8
JISSEN
  6
Continuous
 62
     7
100
AcDbCircle
 10
275.2878890876571
 20
224.0778507000849
 30
0.0
 40
1.5
100
AcDbArc
 50
0.0
 51
90.0
  0
ARC
  5
1DE
330
1F
100
AcDbEntity
  8
JISSEN
  6
Continuous
 62
     7
100
AcDbCircle
 10
275.2878890876571
 20
184.7778507000849
 30
0.0
 40
1.5
100
AcDbArc
 50
-90.0
 51
0.0
  0
ARC
  5
1DF
330
1F
100
AcDbEntity
  8
JISSEN
  6
Continuous
 62
     7
100
AcDbCircle
 10
277.7878890876571
 20
213.9278507000849
 30
0.0
 40
1.0
100
AcDbArc
 50
0.0
 51
90.0
  0
ARC
  5
1E0
330
1F
100
AcDbEntity
  8
JISSEN
  6
Continuous
 62
     7
100
AcDbCircle
 10
277.7878890876561
 20
194.9278507000849
 30
0.0
 40
1.0
100
AcDbArc
 50
-90.0
 51
0.0
  0
ARC
  5
1E1
330
1F
100
AcDbEntity
  8
JISSEN
  6
Continuous
 62
     7
100
AcDbCircle
 10
69.78788908765674
 20
211.9278507000849
 30
0.0
 40
1.0
100
AcDbArc
 50
90.0
 51
180.0
  0
ARC
  5
1E2
330
1F
100
AcDbEntity
  8
JISSEN
  6
Continuous
 62
     7
100
AcDbCircle
 10
69.78788908765674
 20
196.9278507000849
 30
0.0
 40
1.0
100
AcDbArc
 50
180.0
 51
-90.0
  0
ARC
  5
1E3
330
1F
100
AcDbEntity
  8
JISSEN
  6
Continuous
 62
     7
100
AcDbCircle
 10
370.701448685903
 20
204.4278507000849
 30
0.0
 40
5.999999999999973
100
AcDbArc
 50
48.18968499999956
 51
131.8103149999988
  0
ARC
  5
1E4
330
1F
100
AcDbEntity
  8
JISSEN
  6
Continuous
 62
     7
100
AcDbCircle
 10
32.91788908765674
 20
204.4278507000849
 30
0.0
 40
6.000000000000028
100
AcDbArc
 50
180.0
 51
-48.1896850000003
  0
ARC
  5
1E5
330
1F
100
AcDbEntity
  8
JISSEN
  6
Continuous
 62
     7
100
AcDbCircle
 10
370.701448685903
 20
204.4278507000849
 30
0.0
 40
5.999999999999885
100
AcDbArc
 50
-131.8103149999983
 51
-48.1896850000001
  0
ARC
  5
1E6
330
1F
100
AcDbEntity
  8
JISSEN
  6
Continuous
 62
     7
100
AcDbCircle
 10
291.7878890876567
 20
207.4278507000849
 30
0.0
 40
2.0
100
AcDbArc
 50
0.0
 51
90.0
  0
ARC
  5
1E7
330
1F
100
AcDbEntity
  8
JISSEN
  6
Continuous
 62
     7
100
AcDbCircle
 10
291.7878890876567
 20
201.4278507000849
 30
0.0
 40
2.0
100
AcDbArc
 50
-90.0
 51
0.0
  0
ARC
  5
1E8
330
1F
100
AcDbEntity
  8
JISSEN
  6
Continuous
 62
     7
100
AcDbCircle
 10
32.91788908765674
 20
204.4278507000849
 30
0.0
 40
5.999999999999954
100
AcDbArc
 50
48.18968499999976
 51
180.0
  0
ARC
  5
1E9
330
1F
100
AcDbEntity
  8
JISSEN
  6
Continuous
 62
     7
100
AcDbCircle
 10
293.296519134168
 20
112.4890301674163
 30
0.0
 40
15.39022200000043
100
AcDbArc
 50
150.7998420000008
 51
170.6200649999999
  0
ARC
  5
1EA
330
1F
100
AcDbEntity
  8
JISSEN
  6
Continuous
 62
     3
100
AcDbCircle
 10
267.861975134168
 20
87.49723616741628
 30
0.0
 40
1.999900000000082
100
AcDbArc
 50
180.0
 51
-90.0
  0
ARC
  5
1EB
330
1F
100
AcDbEntity
  8
JISSEN
  6
Continuous
 62
     3
100
AcDbCircle
 10
267.861975134168
 20
88.99743616741628
 30
0.0
 40
1.999899999999997
100
AcDbArc
 50
90.0
 51
180.0
  0
ARC
  5
1EC
330
1F
100
AcDbEntity
  8
JISSEN
  6
Continuous
 62
     3
100
AcDbCircle
 10
267.861975134168
 20
94.99723616741628
 30
0.0
 40
1.999900000000082
100
AcDbArc
 50
180.0
 51
-90.0
  0
ARC
  5
1ED
330
1F
100
AcDbEntity
  8
JISSEN
  6
Continuous
 62
     3
100
AcDbCircle
 10
267.861975134168
 20
96.49743616741628
 30
0.0
 40
1.999899999999997
100
AcDbArc
 50
90.0
 51
180.0
  0
ARC
  5
1EE
330
1F
100
AcDbEntity
  8
JISSEN
  6
Continuous
 62
     3
100
AcDbCircle
 10
267.861975134168
 20
102.4972361674163
 30
0.0
 40
1.999900000000082
100
AcDbArc
 50
180.0
 51
-90.0
  0
ARC
  5
1EF
330
1F
100
AcDbEntity
  8
JISSEN
  6
Continuous
 62
     3
100
AcDbCircle
 10
267.861975134168
 20
103.9974361674163
 30
0.0
 40
1.999899999999997
100
AcDbArc
 50
90.0
 51
180.0
  0
ARC
  5
1F0
330
1F
100
AcDbEntity
  8
JISSEN
  6
Continuous
 62
     7
100
AcDbCircle
 10
262.5620751341679
 20
106.7938211674163
 30
0.0
 40
0.1999999999999886
100
AcDbArc
 50
180.0
 51
-90.77698600012573
  0
ARC
  5
1F1
330
1F
100
AcDbEntity
  8
JISSEN
  6
Continuous
 62
     7
100
AcDbCircle
 10
263.3620751341678
 20
109.8473361674163
 30
0.0
 40
1.0
100
AcDbArc
 50
90.0
 51
180.0
  0
ARC
  5
1F2
330
1F
100
AcDbEntity
  8
JISSEN
  6
Continuous
 62
     7
100
AcDbCircle
 10
263.8620751341678
 20
110.3473361674163
 30
0.0
 40
0.5
100
AcDbArc
 50
0.0
 51
90.0
  0
ARC
  5
1F3
330
1F
100
AcDbEntity
  8
JISSEN
  6
Continuous
 62
     7
100
AcDbCircle
 10
264.8620751341678
 20
109.0473361674163
 30
0.0
 40
0.4999999999998863
100
AcDbArc
 50
180.0
 51
-90.0
  0
ARC
  5
1F4
330
1F
100
AcDbEntity
  8
JISSEN
  6
Continuous
 62
     7
100
AcDbCircle
 10
262.562075134168
 20
91.79502116741628
 30
0.0
 40
0.2000000000001023
100
AcDbArc
 50
180.0
 51
-90.78334499993905
  0
ARC
  5
1F5
330
1F
100
AcDbEntity
  8
JISSEN
  6
Continuous
 62
     7
100
AcDbCircle
 10
262.562075134168
 20
92.19965116741628
 30
0.0
 40
0.1999999999999689
100
AcDbArc
 50
90.78334499993905
 51
180.0
  0
ARC
  5
1F6
330
1F
100
AcDbEntity
  8
JISSEN
  6
Continuous
 62
     7
100
AcDbCircle
 10
262.562075134168
 20
99.69965116741628
 30
0.0
 40
0.1999999999999689
100
AcDbArc
 50
90.78334499993905
 51
180.0
  0
ARC
  5
1F7
330
1F
100
AcDbEntity
  8
JISSEN
  6
Continuous
 62
     7
100
AcDbCircle
 10
262.562075134168
 20
99.29502116741628
 30
0.0
 40
0.2000000000001023
100
AcDbArc
 50
180.0
 51
-90.78334499993905
  0
ARC
  5
1F8
330
1F
100
AcDbEntity
  8
JISSEN
  6
Continuous
 62
     7
100
AcDbCircle
 10
262.062075134168
 20
84.69992716741626
 30
0.0
 40
0.1999999999999772
100
AcDbArc
 50
90.74729400009427
 51
180.0
  0
ARC
  5
1F9
330
1F
100
AcDbEntity
  8
JISSEN
  6
Continuous
 62
     7
100
AcDbCircle
 10
262.8620751341679
 20
80.84733616741627
 30
0.0
 40
1.0
100
AcDbArc
 50
180.0
 51
-90.0
  0
ARC
  5
1FA
330
1F
100
AcDbEntity
  8
NITEN
  6
PHANTOM
 62
   140
100
AcDbCircle
 10
266.104716134168
 20
118.9973361674163
 30
0.0
 40
3.0
100
AcDbArc
 50
90.00000000000109
 51
135.0000000000008
  0
ARC
  5
1FB
330
1F
100
AcDbEntity
  8
NITEN
  6
PHANTOM
 62
   140
100
AcDbCircle
 10
258.3620751341678
 20
114.7902291674163
 30
0.0
 40
0.4999999999996222
100
AcDbArc
 50
134.9999999999517
 51
180.0
  0
ARC
  5
1FC
330
1F
100
AcDbEntity
  8
JISSEN
  6
PHANTOM
 62
   140
100
AcDbCircle
 10
219.9648381341679
 20
87.58939416741629
 30
0.0
 40
3.0
100
AcDbArc
 50
180.0
 51
-90.0
  0
ARC
  5
1FD
330
1F
100
AcDbEntity
  8
JISSEN
  6
PHANTOM
 62
   140
100
AcDbCircle
 10
219.9648381341679
 20
102.0893941674163
 30
0.0
 40
3.0
100
AcDbArc
 50
90.0
 51
180.0
  0
ARC
  5
1FE
330
1F
100
AcDbEntity
  8
JISSEN
  6
PHANTOM
 62
   140
100
AcDbCircle
 10
216.9648381341679
 20
84.58939416741629
 30
0.0
 40
2.0
100
AcDbArc
 50
180.0
 51
-90.0
  0
ARC
  5
1FF
330
1F
100
AcDbEntity
  8
JISSEN
  6
PHANTOM
 62
   140
100
AcDbCircle
 10
216.9648381341679
 20
105.0893941674163
 30
0.0
 40
2.0
100
AcDbArc
 50
90.0
 51
180.0
  0
ARC
  5
200
330
1F
100
AcDbEntity
  8
JISSEN
  6
PHANTOM
 62
   140
100
AcDbCircle
 10
219.807479134168
 20
118.9973361674163
 30
0.0
 40
3.0
100
AcDbArc
 50
90.00000000000217
 51
135.0
  0
ARC
  5
201
330
1F
100
AcDbEntity
  8
JISSEN
  6
PHANTOM
 62
   140
100
AcDbCircle
 10
230.164838134168
 20
112.0893941674163
 30
0.0
 40
7.000000000000019
100
AcDbArc
 50
-45.5846910000003
 51
0.0
  0
ARC
  5
202
330
1F
100
AcDbEntity
  8
JISSEN
  6
PHANTOM
 62
   140
100
AcDbCircle
 10
235.564838134168
 20
84.08939416741629
 30
0.0
 40
0.5
100
AcDbArc
 50
0.0
 51
90.0
  0
ARC
  5
203
330
1F
100
AcDbEntity
  8
JISSEN
  6
PHANTOM
 62
   140
100
AcDbCircle
 10
212.0648381341679
 20
114.7902291674163
 30
0.0
 40
0.4999999999997629
100
AcDbArc
 50
134.9999999999678
 51
180.0
  0
ARC
  5
204
330
1F
100
AcDbEntity
  8
NITEN
  6
PHANTOM
 62
   140
100
AcDbCircle
 10
128.330053134168
 20
83.29733616741629
 30
0.0
 40
0.5
100
AcDbArc
 50
-90.0
 51
0.0
  0
ARC
  5
205
330
1F
100
AcDbEntity
  8
NITEN
  6
PHANTOM
 62
   140
100
AcDbCircle
 10
178.330053134168
 20
83.29733616741629
 30
0.0
 40
0.5
100
AcDbArc
 50
180.0
 51
-90.0
  0
ARC
  5
206
330
1F
100
AcDbEntity
  8
NITEN
  6
PHANTOM
 62
   140
100
AcDbCircle
 10
178.3300531341679
 20
106.7973361674163
 30
0.0
 40
0.5
100
AcDbArc
 50
90.0
 51
180.0
  0
ARC
  5
207
330
1F
100
AcDbEntity
  8
NITEN
  6
PHANTOM
 62
   140
100
AcDbCircle
 10
128.330053134168
 20
106.7973361674163
 30
0.0
 40
0.5
100
AcDbArc
 50
0.0
 51
90.0
  0
ARC
  5
208
330
1F
100
AcDbEntity
  8
NITEN
  6
PHANTOM
 62
   140
100
AcDbCircle
 10
184.830053134168
 20
102.2973361674163
 30
0.0
 40
2.0
100
AcDbArc
 50
0.0
 51
90.0
  0
ARC
  5
209
330
1F
100
AcDbEntity
  8
NITEN
  6
PHANTOM
 62
   140
100
AcDbCircle
 10
184.830053134168
 20
87.79733616741629
 30
0.0
 40
2.0
100
AcDbArc
 50
-90.0
 51
0.0
  0
ARC
  5
20A
330
1F
100
AcDbEntity
  8
NITEN
  6
PHANTOM
 62
   140
100
AcDbCircle
 10
121.830053134168
 20
87.79733616741629
 30
0.0
 40
2.0000000000001
100
AcDbArc
 50
180.0
 51
-90.0
  0
ARC
  5
20B
330
1F
100
AcDbEntity
  8
NITEN
  6
PHANTOM
 62
   140
100
AcDbCircle
 10
121.830053134168
 20
102.2973361674163
 30
0.0
 40
2.0
100
AcDbArc
 50
90.0
 51
180.0
  0
ARC
  5
20C
330
1F
100
AcDbEntity
  8
NITEN
  6
PHANTOM
 62
   140
100
AcDbCircle
 10
184.830053134168
 20
87.79733616741629
 30
0.0
 40
3.0
100
AcDbArc
 50
-90.0
 51
0.0
  0
ARC
  5
20D
330
1F
100
AcDbEntity
  8
NITEN
  6
PHANTOM
 62
   140
100
AcDbCircle
 10
184.830053134168
 20
102.2973361674163
 30
0.0
 40
3.0
100
AcDbArc
 50
0.0
 51
90.0
  0
ARC
  5
20E
330
1F
100
AcDbEntity
  8
NITEN
  6
PHANTOM
 62
   140
100
AcDbCircle
 10
121.830053134168
 20
87.79733616741629
 30
0.0
 40
3.0
100
AcDbArc
 50
180.0
 51
-90.0000000000019
  0
ARC
  5
20F
330
1F
100
AcDbEntity
  8
NITEN
  6
PHANTOM
 62
   140
100
AcDbCircle
 10
121.830053134168
 20
102.2973361674163
 30
0.0
 40
3.0
100
AcDbArc
 50
90.0
 51
180.0
  0
ARC
  5
210
330
1F
100
AcDbEntity
  8
NITEN
  6
PHANTOM
 62
   140
100
AcDbCircle
 10
133.8300531341679
 20
82.99733616741628
 30
0.0
 40
4.0
100
AcDbArc
 50
180.0
 51
-89.99999999999878
  0
ARC
  5
211
330
1F
100
AcDbEntity
  8
NITEN
  6
PHANTOM
 62
   140
100
AcDbCircle
 10
172.830053134168
 20
82.99733616741628
 30
0.0
 40
4.0
100
AcDbArc
 50
-90.0
 51
0.0
  0
ARC
  5
212
330
1F
100
AcDbEntity
  8
NITEN
  6
PHANTOM
 62
   140
100
AcDbCircle
 10
174.7300531341679
 20
105.6973361674163
 30
0.0
 40
2.100000000000108
100
AcDbArc
 50
0.0
 51
90.0
  0
ARC
  5
213
330
1F
100
AcDbEntity
  8
NITEN
  6
PHANTOM
 62
   140
100
AcDbCircle
 10
131.9300531341681
 20
105.6973361674163
 30
0.0
 40
2.100000000000009
100
AcDbArc
 50
90.0
 51
180.0
  0
ARC
  5
214
330
1F
100
AcDbEntity
  8
NITEN
  6
PHANTOM
 62
   140
100
AcDbCircle
 10
161.830053134168
 20
109.4973361674163
 30
0.0
 40
11.5
100
AcDbArc
 50
0.0
 51
90.00000000000043
  0
ARC
  5
215
330
1F
100
AcDbEntity
  8
NITEN
  6
PHANTOM
 62
   140
100
AcDbCircle
 10
144.830053134168
 20
109.4973361674163
 30
0.0
 40
11.5
100
AcDbArc
 50
90.0
 51
180.0
  0
ARC
  5
216
330
1F
100
AcDbEntity
  8
NITEN
  6
PHANTOM
 62
   140
100
AcDbCircle
 10
161.830053134168
 20
109.4973361674163
 30
0.0
 40
12.49999999999991
100
AcDbArc
 50
-3.34226700000025
 51
90.0000000000004
  0
ARC
  5
217
330
1F
100
AcDbEntity
  8
NITEN
  6
PHANTOM
 62
   140
100
AcDbCircle
 10
144.830053134168
 20
109.4973361674163
 30
0.0
 40
12.5
100
AcDbArc
 50
90.0
 51
180.0
  0
ARC
  5
218
330
1F
100
AcDbEntity
  8
NITEN
  6
PHANTOM
 62
   140
100
AcDbCircle
 10
131.9300531341681
 20
105.6973361674163
 30
0.0
 40
3.100000000000009
100
AcDbArc
 50
90.00000000000368
 51
180.0
  0
ARC
  5
219
330
1F
100
AcDbEntity
  8
NITEN
  6
PHANTOM
 62
   140
100
AcDbCircle
 10
174.7300531341679
 20
105.6973361674163
 30
0.0
 40
3.100000000000108
100
AcDbArc
 50
0.0
 51
90.0
  0
ARC
  5
21A
330
1F
100
AcDbEntity
  8
NITEN
  6
PHANTOM
 62
   140
100
AcDbCircle
 10
172.830053134168
 20
82.99733616741628
 30
0.0
 40
5.0
100
AcDbArc
 50
-90.0
 51
0.0
  0
ARC
  5
21B
330
1F
100
AcDbEntity
  8
NITEN
  6
PHANTOM
 62
   140
100
AcDbCircle
 10
133.8300531341679
 20
82.99733616741628
 30
0.0
 40
4.999999999999915
100
AcDbArc
 50
180.0
 51
-89.99999999999902
  0
ARC
  5
21C
330
1F
100
AcDbEntity
  8
JISSEN
  6
Continuous
 62
     7
100
AcDbCircle
 10
164.8184931341678
 20
107.4473361674163
 30
0.0
 40
1.000000000000019
100
AcDbArc
 50
-61.39532099999715
 51
0.0
  0
ARC
  5
21D
330
1F
100
AcDbEntity
  8
JISSEN
  6
Continuous
 62
     7
100
AcDbCircle
 10
141.830053134168
 20
107.4473361674163
 30
0.0
 40
1.000000000000085
100
AcDbArc
 50
180.0
 51
-118.6046789999986
  0
ARC
  5
21E
330
1F
100
AcDbEntity
  8
JISSEN
  6
Continuous
 62
     7
100
AcDbCircle
 10
161.830053134168
 20
82.34733616741627
 30
0.0
 40
2.5
100
AcDbArc
 50
180.0
 51
0.0
  0
ARC
  5
21F
330
1F
100
AcDbEntity
  8
JISSEN
  6
Continuous
 62
     7
100
AcDbCircle
 10
144.830053134168
 20
82.34733616741627
 30
0.0
 40
2.5
100
AcDbArc
 50
180.0
 51
0.0
  0
ARC
  5
220
330
1F
100
AcDbEntity
  8
JISSEN
  6
Continuous
 62
     7
100
AcDbCircle
 10
162.330053134168
 20
109.8473361674163
 30
0.0
 40
1.0
100
AcDbArc
 50
90.0
 51
180.0
  0
ARC
  5
221
330
1F
100
AcDbEntity
  8
JISSEN
  6
Continuous
 62
     7
100
AcDbCircle
 10
144.330053134168
 20
109.8473361674163
 30
0.0
 40
1.0
100
AcDbArc
 50
0.0
 51
90.0
  0
ARC
  5
222
330
1F
100
AcDbEntity
  8
JISSEN
  6
Continuous
 62
     7
100
AcDbCircle
 10
162.830053134168
 20
107.8473361674163
 30
0.0
 40
3.000000000000047
100
AcDbArc
 50
2.86598400000026
 51
90.0
  0
ARC
  5
223
330
1F
100
AcDbEntity
  8
JISSEN
  6
Continuous
 62
     7
100
AcDbCircle
 10
143.830053134168
 20
107.8473361674163
 30
0.0
 40
3.0
100
AcDbArc
 50
90.00000000000163
 51
180.0
  0
ARC
  5
224
330
1F
100
AcDbEntity
  8
JISSEN
  6
Continuous
 62
     3
100
AcDbCircle
 10
164.3800531341679
 20
115.0473361674163
 30
0.0
 40
0.6999999999999886
100
AcDbArc
 50
180.0
 51
-90.00000000000698
  0
ARC
  5
225
330
1F
100
AcDbEntity
  8
JISSEN
  6
Continuous
 62
     3
100
AcDbCircle
 10
162.2800531341678
 20
115.0473361674163
 30
0.0
 40
0.7000000000000028
100
AcDbArc
 50
-90.0
 51
0.0
  0
ARC
  5
226
330
1F
100
AcDbEntity
  8
JISSEN
  6
Continuous
 62
     3
100
AcDbCircle
 10
164.3800531341679
 20
112.9473361674163
 30
0.0
 40
0.7000000000000028
100
AcDbArc
 50
90.00000000000698
 51
180.0
  0
ARC
  5
227
330
1F
100
AcDbEntity
  8
JISSEN
  6
Continuous
 62
     3
100
AcDbCircle
 10
162.2800531341679
 20
112.9473361674163
 30
0.0
 40
0.6999999999999886
100
AcDbArc
 50
0.0
 51
90.00000000000931
  0
ARC
  5
228
330
1F
100
AcDbEntity
  8
JISSEN
  6
Continuous
 62
     7
100
AcDbCircle
 10
167.330053134168
 20
108.9973361674163
 30
0.0
 40
1.0
100
AcDbArc
 50
-90.00000000000489
 51
0.0
  0
ARC
  5
229
330
1F
100
AcDbEntity
  8
JISSEN
  6
Continuous
 62
     7
100
AcDbCircle
 10
139.330053134168
 20
108.9973361674163
 30
0.0
 40
1.0
100
AcDbArc
 50
180.0
 51
-90.0
  0
ARC
  5
22A
330
1F
100
AcDbEntity
  8
JISSEN
  6
Continuous
 62
     7
100
AcDbCircle
 10
163.3300531341679
 20
114.9973361674163
 30
0.0
 40
5.0
100
AcDbArc
 50
0.0
 51
90.0
  0
ARC
  5
22B
330
1F
100
AcDbEntity
  8
JISSEN
  6
Continuous
 62
     7
100
AcDbCircle
 10
143.330053134168
 20
114.9973361674163
 30
0.0
 40
5.0
100
AcDbArc
 50
90.0
 51
180.0
  0
ARC
  5
22C
330
1F
100
AcDbEntity
  8
JISSEN
  6
Continuous
 62
     7
100
AcDbCircle
 10
138.330053134168
 20
88.74733616741628
 30
0.0
 40
2.399999999999892
100
AcDbArc
 50
0.0
 51
180.0
  0
ARC
  5
22D
330
1F
100
AcDbEntity
  8
JISSEN
  6
Continuous
 62
     7
100
AcDbCircle
 10
138.330053134168
 20
86.74733616741628
 30
0.0
 40
2.399999999999892
100
AcDbArc
 50
180.0
 51
0.0
  0
ARC
  5
22E
330
1F
100
AcDbEntity
  8
JISSEN
  6
Continuous
 62
     7
100
AcDbCircle
 10
168.330053134168
 20
88.74733616741628
 30
0.0
 40
2.399999999999892
100
AcDbArc
 50
0.0
 51
180.0
  0
ARC
  5
22F
330
1F
100
AcDbEntity
  8
JISSEN
  6
Continuous
 62
     7
100
AcDbCircle
 10
168.330053134168
 20
86.74733616741628
 30
0.0
 40
2.399999999999892
100
AcDbArc
 50
180.0
 51
0.0
  0
ARC
  5
230
330
1F
100
AcDbEntity
  8
JISSEN
  6
Continuous
 62
     7
100
AcDbCircle
 10
168.330053134168
 20
83.99733616741628
 30
0.0
 40
5.0
100
AcDbArc
 50
-90.0
 51
0.0
  0
ARC
  5
231
330
1F
100
AcDbEntity
  8
JISSEN
  6
Continuous
 62
     7
100
AcDbCircle
 10
138.330053134168
 20
83.99733616741628
 30
0.0
 40
5.0
100
AcDbArc
 50
180.0
 51
-90.0
  0
ARC
  5
232
330
1F
100
AcDbEntity
  8
JISSEN
  6
Continuous
 62
     7
100
AcDbCircle
 10
144.830053134168
 20
109.4973361674163
 30
0.0
 40
11.5
100
AcDbArc
 50
90.0
 51
180.0
  0
ARC
  5
233
330
1F
100
AcDbEntity
  8
JISSEN
  6
Continuous
 62
     7
100
AcDbCircle
 10
161.830053134168
 20
109.4973361674163
 30
0.0
 40
11.5
100
AcDbArc
 50
0.0
 51
90.00000000000043
  0
ARC
  5
234
330
1F
100
AcDbEntity
  8
JISSEN
  6
Continuous
 62
     7
100
AcDbCircle
 10
153.3300531341679
 20
113.9973361674163
 30
0.0
 40
6.049999999999847
100
AcDbArc
 50
138.6118259999988
 51
-138.6118259999989
  0
ARC
  5
235
330
1F
100
AcDbEntity
  8
JISSEN
  6
Continuous
 62
     7
100
AcDbCircle
 10
153.3300531341679
 20
113.9973361674163
 30
0.0
 40
6.0499999999999
100
AcDbArc
 50
-41.38817400000054
 51
41.38817400000065
  0
ARC
  5
236
330
1F
100
AcDbEntity
  8
JISSEN
  6
Continuous
 62
     3
100
AcDbCircle
 10
142.2800531341679
 20
115.0473361674163
 30
0.0
 40
0.7000000000000028
100
AcDbArc
 50
-90.00000000000931
 51
0.0
  0
ARC
  5
237
330
1F
100
AcDbEntity
  8
JISSEN
  6
Continuous
 62
     3
100
AcDbCircle
 10
142.2800531341679
 20
112.9473361674163
 30
0.0
 40
0.6999999999999886
100
AcDbArc
 50
0.0
 51
90.0
  0
ARC
  5
238
330
1F
100
AcDbEntity
  8
JISSEN
  6
Continuous
 62
     3
100
AcDbCircle
 10
144.3800531341679
 20
112.9473361674163
 30
0.0
 40
0.7000000000000028
100
AcDbArc
 50
90.0
 51
180.0
  0
ARC
  5
239
330
1F
100
AcDbEntity
  8
JISSEN
  6
Continuous
 62
     3
100
AcDbCircle
 10
144.3800531341678
 20
115.0473361674163
 30
0.0
 40
0.6999999999999034
100
AcDbArc
 50
180.0
 51
-90.0
  0
ARC
  5
23A
330
1F
100
AcDbEntity
  8
JISSEN
  6
Continuous
 62
     3
100
AcDbCircle
 10
149.6139681341679
 20
101.9634201674163
 30
0.0
 40
0.9585879999999604
100
AcDbArc
 50
76.97245799999662
 51
-166.9724579999966
  0
ARC
  5
23B
330
1F
100
AcDbEntity
  8
JISSEN
  6
Continuous
 62
     3
100
AcDbCircle
 10
147.0461371341681
 20
101.9634201674163
 30
0.0
 40
0.9585879999998773
100
AcDbArc
 50
-13.02754200000453
 51
103.0275419999984
  0
ARC
  5
23C
330
1F
100
AcDbEntity
  8
JISSEN
  6
Continuous
 62
     3
100
AcDbCircle
 10
149.6139681341679
 20
104.5312511674163
 30
0.0
 40
0.9585879999999604
100
AcDbArc
 50
166.9724579999966
 51
-76.97245800000178
  0
ARC
  5
23D
330
1F
100
AcDbEntity
  8
JISSEN
  6
Continuous
 62
     3
100
AcDbCircle
 10
147.0461371341681
 20
104.5312511674163
 30
0.0
 40
0.958587999999955
100
AcDbArc
 50
-103.0275419999982
 51
13.02754200000453
  0
ARC
  5
23E
330
1F
100
AcDbEntity
  8
JISSEN
  6
Continuous
 62
     3
100
AcDbCircle
 10
149.6139681341679
 20
86.96342016741627
 30
0.0
 40
0.9585879999999604
100
AcDbArc
 50
76.97245799999662
 51
-166.9724579999966
  0
ARC
  5
23F
330
1F
100
AcDbEntity
  8
JISSEN
  6
Continuous
 62
     3
100
AcDbCircle
 10
147.0461371341681
 20
86.96342016741627
 30
0.0
 40
0.9585879999998773
100
AcDbArc
 50
-13.02754200000453
 51
103.0275419999984
  0
ARC
  5
240
330
1F
100
AcDbEntity
  8
JISSEN
  6
Continuous
 62
     3
100
AcDbCircle
 10
149.6139681341679
 20
89.53125116741629
 30
0.0
 40
0.9585879999999604
100
AcDbArc
 50
166.9724579999966
 51
-76.97245800000158
  0
ARC
  5
241
330
1F
100
AcDbEntity
  8
JISSEN
  6
Continuous
 62
     3
100
AcDbCircle
 10
147.0461371341681
 20
89.53125116741629
 30
0.0
 40
0.9585879999999412
100
AcDbArc
 50
-103.0275419999984
 51
13.02754200000453
  0
ARC
  5
242
330
1F
100
AcDbEntity
  8
JISSEN
  6
Continuous
 62
     3
100
AcDbCircle
 10
159.6139681341679
 20
86.96342016741627
 30
0.0
 40
0.9585879999999604
100
AcDbArc
 50
76.97245799999662
 51
-166.9724579999966
  0
ARC
  5
243
330
1F
100
AcDbEntity
  8
JISSEN
  6
Continuous
 62
     3
100
AcDbCircle
 10
157.0461371341681
 20
86.96342016741627
 30
0.0
 40
0.9585879999998773
100
AcDbArc
 50
-13.02754200000453
 51
103.027542000015
  0
ARC
  5
244
330
1F
100
AcDbEntity
  8
JISSEN
  6
Continuous
 62
     3
100
AcDbCircle
 10
159.6139681341679
 20
89.53125116741629
 30
0.0
 40
0.9585879999999604
100
AcDbArc
 50
166.9724579999966
 51
-76.97245799999662
  0
ARC
  5
245
330
1F
100
AcDbEntity
  8
JISSEN
  6
Continuous
 62
     3
100
AcDbCircle
 10
157.0461371341681
 20
89.53125116741629
 30
0.0
 40
0.9585880000000052
100
AcDbArc
 50
-103.027542000015
 51
13.02754200000453
  0
ARC
  5
246
330
1F
100
AcDbEntity
  8
JISSEN
  6
Continuous
 62
     3
100
AcDbCircle
 10
159.6139681341679
 20
94.46342016741627
 30
0.0
 40
0.9585879999999604
100
AcDbArc
 50
76.97245799999662
 51
-166.9724579999966
  0
ARC
  5
247
330
1F
100
AcDbEntity
  8
JISSEN
  6
Continuous
 62
     3
100
AcDbCircle
 10
157.0461371341681
 20
94.46342016741627
 30
0.0
 40
0.9585879999998773
100
AcDbArc
 50
-13.02754200000453
 51
103.027542000015
  0
ARC
  5
248
330
1F
100
AcDbEntity
  8
JISSEN
  6
Continuous
 62
     3
100
AcDbCircle
 10
159.6139681341679
 20
97.03125116741629
 30
0.0
 40
0.9585879999999604
100
AcDbArc
 50
166.9724579999966
 51
-76.97245799999662
  0
ARC
  5
249
330
1F
100
AcDbEntity
  8
JISSEN
  6
Continuous
 62
     3
100
AcDbCircle
 10
157.0461371341681
 20
97.03125116741629
 30
0.0
 40
0.9585880000000052
100
AcDbArc
 50
-103.027542000015
 51
13.02754200000453
  0
ARC
  5
24A
330
1F
100
AcDbEntity
  8
JISSEN
  6
Continuous
 62
     3
100
AcDbCircle
 10
149.6139681341679
 20
94.46342016741627
 30
0.0
 40
0.9585879999999604
100
AcDbArc
 50
76.97245799999662
 51
-166.9724579999966
  0
ARC
  5
24B
330
1F
100
AcDbEntity
  8
JISSEN
  6
Continuous
 62
     3
100
AcDbCircle
 10
147.0461371341681
 20
94.46342016741627
 30
0.0
 40
0.9585879999998773
100
AcDbArc
 50
-13.02754200000453
 51
103.0275419999984
  0
ARC
  5
24C
330
1F
100
AcDbEntity
  8
JISSEN
  6
Continuous
 62
     3
100
AcDbCircle
 10
149.6139681341679
 20
97.03125116741629
 30
0.0
 40
0.9585879999999604
100
AcDbArc
 50
166.9724579999966
 51
-76.97245800000158
  0
ARC
  5
24D
330
1F
100
AcDbEntity
  8
JISSEN
  6
Continuous
 62
     3
100
AcDbCircle
 10
147.0461371341681
 20
97.03125116741629
 30
0.0
 40
0.9585879999999412
100
AcDbArc
 50
-103.0275419999984
 51
13.02754200000453
  0
ARC
  5
24E
330
1F
100
AcDbEntity
  8
JISSEN
  6
Continuous
 62
     3
100
AcDbCircle
 10
159.6139681341679
 20
101.9634201674163
 30
0.0
 40
0.9585879999999604
100
AcDbArc
 50
76.97245799999662
 51
-166.9724579999966
  0
ARC
  5
24F
330
1F
100
AcDbEntity
  8
JISSEN
  6
Continuous
 62
     3
100
AcDbCircle
 10
157.0461371341681
 20
101.9634201674163
 30
0.0
 40
0.9585879999998773
100
AcDbArc
 50
-13.02754200000453
 51
103.027542000015
  0
ARC
  5
250
330
1F
100
AcDbEntity
  8
JISSEN
  6
Continuous
 62
     3
100
AcDbCircle
 10
159.6139681341679
 20
104.5312511674163
 30
0.0
 40
0.9585879999999604
100
AcDbArc
 50
166.9724579999966
 51
-76.97245799999682
  0
ARC
  5
251
330
1F
100
AcDbEntity
  8
JISSEN
  6
Continuous
 62
     3
100
AcDbCircle
 10
157.0461371341681
 20
104.5312511674163
 30
0.0
 40
0.9585880000000192
100
AcDbArc
 50
-103.0275420000148
 51
13.02754200000453
  0
CIRCLE
  5
252
330
1F
100
AcDbEntity
  8
JISSEN
  6
PHANTOM
 62
   140
100
AcDbCircle
 10
226.564838134168
 20
94.83939416741629
 30
0.0
 40
4.0
  0
CIRCLE
  5
253
330
1F
100
AcDbEntity
  8
SAISEN
  6
Continuous
 62
     3
100
AcDbCircle
 10
138.3300531341679
 20
103.9973361674163
 30
0.0
 40
1.099999999999994
  0
CIRCLE
  5
254
330
1F
100
AcDbEntity
  8
SAISEN
  6
Continuous
 62
     3
100
AcDbCircle
 10
168.330053134168
 20
103.9973361674163
 30
0.0
 40
1.100000000000108
  0
CIRCLE
  5
255
330
1F
100
AcDbEntity
  8
JISSEN
  6
Continuous
 62
     7
100
AcDbCircle
 10
144.830053134168
 20
82.39733616741629
 30
0.0
 40
1.25
  0
CIRCLE
  5
256
330
1F
100
AcDbEntity
  8
JISSEN
  6
Continuous
 62
     7
100
AcDbCircle
 10
161.830053134168
 20
82.39733616741629
 30
0.0
 40
1.25
  0
CIRCLE
  5
257
330
1F
100
AcDbEntity
  8
JISSEN
  6
Continuous
 62
     3
100
AcDbCircle
 10
163.3300531341679
 20
113.9973361674163
 30
0.0
 40
2.750000000000085
  0
CIRCLE
  5
258
330
1F
100
AcDbEntity
  8
JISSEN
  6
Continuous
 62
     7
100
AcDbCircle
 10
138.3300531341679
 20
103.9973361674163
 30
0.0
 40
3.500000000000085
  0
CIRCLE
  5
259
330
1F
100
AcDbEntity
  8
JISSEN
  6
Continuous
 62
     7
100
AcDbCircle
 10
168.330053134168
 20
103.9973361674163
 30
0.0
 40
3.5
  0
CIRCLE
  5
25A
330
1F
100
AcDbEntity
  8
JISSEN
  6
Continuous
 62
     7
100
AcDbCircle
 10
138.3300531341679
 20
103.9973361674163
 30
0.0
 40
1.25
  0
CIRCLE
  5
25B
330
1F
100
AcDbEntity
  8
JISSEN
  6
Continuous
 62
     7
100
AcDbCircle
 10
168.330053134168
 20
103.9973361674163
 30
0.0
 40
1.25
  0
CIRCLE
  5
25C
330
1F
100
AcDbEntity
  8
JISSEN
  6
Continuous
 62
     3
100
AcDbCircle
 10
143.330053134168
 20
113.9973361674163
 30
0.0
 40
2.749999999999915
  0
CIRCLE
  5
25D
330
1F
100
AcDbEntity
  8
JISSEN
  6
Continuous
 62
     3
100
AcDbCircle
 10
148.330053134168
 20
103.2473361674163
 30
0.0
 40
2.75
  0
CIRCLE
  5
25E
330
1F
100
AcDbEntity
  8
JISSEN
  6
Continuous
 62
     3
100
AcDbCircle
 10
158.330053134168
 20
103.2473361674163
 30
0.0
 40
2.75
  0
CIRCLE
  5
25F
330
1F
100
AcDbEntity
  8
JISSEN
  6
Continuous
 62
     3
100
AcDbCircle
 10
148.330053134168
 20
88.24733616741628
 30
0.0
 40
2.75
  0
CIRCLE
  5
260
330
1F
100
AcDbEntity
  8
JISSEN
  6
Continuous
 62
     3
100
AcDbCircle
 10
158.330053134168
 20
88.24733616741628
 30
0.0
 40
2.75
  0
CIRCLE
  5
261
330
1F
100
AcDbEntity
  8
JISSEN
  6
Continuous
 62
     3
100
AcDbCircle
 10
158.330053134168
 20
95.74733616741628
 30
0.0
 40
2.75
  0
CIRCLE
  5
262
330
1F
100
AcDbEntity
  8
JISSEN
  6
Continuous
 62
     3
100
AcDbCircle
 10
148.330053134168
 20
95.74733616741628
 30
0.0
 40
2.75
  0
SPLINE
  5
263
330
1F
100
AcDbEntity
  8
1
  6
Continuous
 62
     3
100
AcDbSpline
210
0.0
220
0.0
230
1.0
 70
     8
 71
     3
 72
    11
 73
     7
 74
     5
 42
0.0000000001
 43
0.0000000001
 44
0.00000001
 40
0.0
 40
0.0
 40
0.0
 40
0.0
 40
10.14371569925597
 40
20.81978919333145
 40
34.83771256691816
 40
48.85453609590138
 40
48.85453609590138
 40
48.85453609590138
 40
48.85453609590138
 10
168.7878890876567
 20
228.0388507000849
 30
0.0
 10
167.5981162094803
 20
224.6165180923713
 30
0.0
 10
165.1561293433269
 20
217.592243600206
 30
0.0
 10
175.0924073269895
 20
207.5803506186511
 30
0.0
 10
165.9529536950504
 20
194.8502823654707
 30
0.0
 10
167.8429353390467
 20
185.4945389086603
 30
0.0
 10
168.7878890876567
 20
180.8168507000848
 30
0.0
 11
168.7878890876567
 21
228.0388507000849
 31
0.0
 11
167.2078328478212
 21
218.01895097672
 31
0.0
 11
171.7330717035443
 21
208.349371950229
 31
0.0
 11
168.0800763129165
 21
194.8157914785356
 31
0.0
 11
168.7878890876567
 21
180.8168507000848
 31
0.0
  0
SPLINE
  5
264
330
1F
100
AcDbEntity
  8
1
  6
Continuous
 62
     3
100
AcDbSpline
210
0.0
220
0.0
230
1.0
 70
     8
 71
     3
 72
    11
 73
     7
 74
     5
 42
0.0000000001
 43
0.0000000001
 44
0.00000001
 40
0.0
 40
0.0
 40
0.0
 40
0.0
 40
10.97678258344627
 40
23.22791762547161
 40
38.26064470231354
 40
53.15476325465814
 40
53.15476325465814
 40
53.15476325465814
 40
53.15476325465814
 10
178.7878890876567
 20
229.4668507000849
 30
0.0
 10
176.7418381560088
 20
225.8628858676053
 30
0.0
 10
172.4121994721282
 20
218.236552958345
 30
0.0
 10
186.4988063516059
 20
208.1146885515429
 30
0.0
 10
174.3430099890339
 20
194.2776750018964
 30
0.0
 10
177.3108446408305
 20
184.336444271657
 30
0.0
 10
178.7878890876567
 20
179.3888507000848
 30
0.0
 11
178.7878890876567
 21
229.4668507000849
 31
0.0
 11
175.5264622367855
 21
218.9857796297856
 31
0.0
 11
181.863919852334
 21
208.501174687821
 31
0.0
 11
177.2281774253144
 21
194.2010776420962
 31
0.0
 11
178.7878890876567
 21
179.3888507000848
 31
0.0
  0
XLINE
  5
265
330
1F
100
AcDbEntity
  8
1
  6
DOT_CENTER
 62
     3
 60
     1
100
AcDbXline
 10
109.5857130876568
 20
204.4278507000849
 30
0.0
 11
1.0
 21
0.0
 31
0.0
  0
LINE
  5
266
330
1F
100
AcDbEntity
  8
1
 62
     2
100
AcDbLine
 10
135.9300531341681
 20
86.74733616741628
 30
0.0
 11
134.297261150748
 21
83.86476973091254
 31
0.0
  0
LINE
  5
267
330
1F
100
AcDbEntity
  8
1
 62
     2
100
AcDbLine
 10
135.9300531341681
 20
86.74733616741628
 30
0.0
 11
133.0747305791789
 21
85.0673563970177
 31
0.0
  0
LEADER
  5
268
330
1F
100
AcDbEntity
  8
1
  6
Continuous
 62
     2
100
AcDbLeader
  3
Standard
 71
     0
 76
     3
 10
135.9300531341681
 20
86.74733616741628
 30
0.0
 10
115.518560855776
 20
65.99733616741628
 30
0.0
 10
102.117623840015
 20
65.99733616741628
 30
0.0
  0
MTEXT
  5
269
330
1F
100
AcDbEntity
  8
JISSEN
 62
     2
100
AcDbMText
 10
301.6876147479017
 20
141.5262594980443
 30
0.0
 40
3.2
 41
0.0
 71
     4
 72
     1
  1
56.9
  7
CONVERTER_1
 73
     1
 44
0.60024009603842
  0
MTEXT
  5
26A
330
1F
100
AcDbEntity
  8
JISSEN
 62
     2
100
AcDbMText
 10
301.6876147479017
 20
148.5262594980443
 30
0.0
 40
3.2
 41
0.0
 71
     4
 72
     1
  1
300
  7
CONVERTER_1
 73
     1
 44
0.60024009603842
  0
MTEXT
  5
26B
330
1F
100
AcDbEntity
  8
JISSEN
 62
     2
100
AcDbMText
 10
286.6876147479017
 20
141.5262594980443
 30
0.0
 40
3.2
 41
0.0
 71
     4
 72
     1
  1
54.6
  7
CONVERTER_1
 73
     1
 44
0.60024009603842
  0
MTEXT
  5
26C
330
1F
100
AcDbEntity
  8
JISSEN
 62
     2
100
AcDbMText
 10
265.1421146788171
 20
141.5262594980443
 30
0.0
 40
3.2
 41
0.0
 71
     4
 72
     1
  1
D寸法
  7
CONVERTER_3
 73
     1
 44
0.60024009603842
  0
MTEXT
  5
26D
330
1F
100
AcDbEntity
  8
JISSEN
 62
     2
100
AcDbMText
 10
265.1421146788171
 20
148.5262594980443
 30
0.0
 40
3.2
 41
0.0
 71
     4
 72
     1
  1
ローラ幅
  7
CONVERTER_3
 73
     1
 44
0.60024009603842
  0
MTEXT
  5
26E
330
1F
100
AcDbEntity
  8
JISSEN
 62
     2
100
AcDbMText
 10
286.6876147479017
 20
148.5262594980443
 30
0.0
 40
3.2
 41
0.0
 71
     4
 72
     1
  1
250
  7
CONVERTER_1
 73
     1
 44
0.60024009603842
  0
MTEXT
  5
26F
330
1F
100
AcDbEntity
  8
JISSEN
 62
     2
100
AcDbMText
 10
331.6876147479017
 20
141.5262594980443
 30
0.0
 40
3.2
 41
0.0
 71
     4
 72
     1
  1
66.4
  7
CONVERTER_1
 73
     1
 44
0.60024009603842
  0
MTEXT
  5
270
330
1F
100
AcDbEntity
  8
JISSEN
 62
     2
100
AcDbMText
 10
316.6876147479017
 20
141.5262594980443
 30
0.0
 40
3.2
 41
0.0
 71
     4
 72
     1
  1
61.7
  7
CONVERTER_1
 73
     1
 44
0.60024009603842
  0
MTEXT
  5
271
330
1F
100
AcDbEntity
  8
JISSEN
 62
     2
100
AcDbMText
 10
316.6876147479017
 20
148.5262594980443
 30
0.0
 40
3.2
 41
0.0
 71
     4
 72
     1
  1
400
  7
CONVERTER_1
 73
     1
 44
0.60024009603842
  0
MTEXT
  5
272
330
1F
100
AcDbEntity
  8
JISSEN
 62
     2
100
AcDbMText
 10
331.6876147479017
 20
148.5262594980443
 30
0.0
 40
3.2
 41
0.0
 71
     4
 72
     1
  1
500
  7
CONVERTER_1
 73
     1
 44
0.60024009603842
  0
MTEXT
  5
273
330
1F
100
AcDbEntity
  8
1
 62
     2
100
AcDbMText
 10
328.7129238367101
 20
63.37677345040873
 30
0.0
 40
3.2
 41
0.0
 71
     1
 72
     1
  1
適用機種\PDMT42YS
  7
CONVERTER_3
 73
     1
 44
1.20048019207683
  0
MTEXT
  5
275
330
1F
100
AcDbEntity
  8
1
 62
     2
100
AcDbMText
 10
297.3841693614355
 20
15.0
 30
0.0
 40
3.2
 41
0.0
 71
     4
 72
     1
  1
本体組立図 DMT42YS ローラ幅 250 ～ 599 mm　取付金具付
  7
CONVERTER_6
 73
     1
 44
0.60024009603842
  0
MTEXT
  5
276
330
1F
100
AcDbEntity
  8
1
 62
     2
100
AcDbMText
 10
344.4618808567554
 20
5.0
 30
0.0
 40
3.2
 41
0.0
 71
     4
 72
     1
  1
W_DMT42YS_S_010
  7
CONVERTER_1
 73
     1
 44
0.60024009603842
  0
MTEXT
  5
277
330
1F
100
AcDbEntity
  8
1
 62
     2
100
AcDbMText
 10
232.5491066386065
 20
15.0
 30
0.0
 40
3.2
 41
0.0
 71
     4
 72
     1
  1
マルチベヤシリーズ
  7
CONVERTER_3
 73
     1
 44
0.60024009603842
  0
MTEXT
  5
278
330
1F
100
AcDbEntity
  8
1
 62
     2
100
AcDbMText
 10
233.812332410118
 20
5.0
 30
0.0
 40
3.2
 41
0.0
 71
     4
 72
     1
  1
モータローラ
  7
CONVERTER_3
 73
     1
 44
0.60024009603842
  0
MTEXT
  5
279
330
1F
100
AcDbEntity
  8
1
 62
     2
100
AcDbMText
 10
168.9047361015815
 20
12.5
 30
0.0
 40
3.2
 41
0.0
 71
     4
 72
     1
  1
2011.8.26
  7
CONVERTER_1
 73
     1
 44
0.60024009603842
  0
MTEXT
  5
27A
330
1F
100
AcDbEntity
  8
1
 62
     2
100
AcDbMText
 10
114.518560855776
 20
66.99733616741628
 30
0.0
 40
3.2
 41
0.0
 71
     9
 72
     1
  1
2-4.8
  7
CONVERTER_1
 73
     1
 44
0.60024009603842
  0
TEXT
  5
27B
330
1F
100
AcDbEntity
  8
1
 62
     2
100
AcDbText
 10
146.5394872093019
 20
135.3916907813827
 30
0.0
 40
5.0
  1
取付金具
 41
0.89
  7
CONVERTER_3
100
AcDbText
  0
DIMENSION
  5
290
330
1F
100
AcDbEntity
  8
1
100
AcDbDimension
  2
*D02
 10
309.808050089445
 20
231.7278507000848
 30
0.0
 11
304.768515205725
 21
223.777379511257
 31
0.0
 70
    32
  1
<>
 71
     5
 42
-1.0
 53
90.0
  3
ME10_DIM_0
100
AcDbAlignedDimension
 13
273.7878890876571
 23
177.1278507000848
 33
0.0
 14
273.7878890876571
 24
231.7278507000848
 34
0.0
 50
90.0
100
AcDbRotatedDimension
  0
DIMENSION
  5
29D
330
1F
100
AcDbEntity
  8
1
100
AcDbDimension
  2
*D14
 10
107.009231579914
 20
195.1694305096295
 30
0.0
 11
104.409231579914
 21
211.744817227624
 31
0.0
 70
    33
  1
<>
 71
     5
 42
-1.0
 52
110.0
 53
90.0
  3
ME10_DIM_1
100
AcDbAlignedDimension
 13
73.78788908765674
 23
225.7778507000849
 33
0.0
 14
73.78788908765674
 24
183.0778507000849
 34
0.0
  0
DIMENSION
  5
2AC
330
1F
100
AcDbEntity
  8
1
100
AcDbDimension
  2
*D25
 10
366.701448685903
 20
186.427850700085
 30
0.0
 11
371.3046150544174
 21
190.051261443279
 31
0.0
 70
    32
  1
<>
 71
     5
 42
-1.0
 53
0.00013888888889
  3
ME10_DIM_2
100
AcDbAlignedDimension
 13
374.7014486859029
 23
199.9557147000849
 33
0.0
 14
366.701448685903
 24
199.9557147000849
 34
0.0
100
AcDbRotatedDimension
  0
DIMENSION
  5
2B9
330
1F
100
AcDbEntity
  8
1
100
AcDbDimension
  2
*D36
 10
26.91788908765671
 20
186.4278507000849
 30
0.0
 11
31.75910554561714
 21
190.051261443279
 31
0.0
 70
    32
  1
<>
 71
     5
 42
-1.0
 53
0.00013888888889
  3
ME10_DIM_3
100
AcDbAlignedDimension
 13
36.91788908765674
 23
199.9557147000849
 33
0.0
 14
26.91788908765671
 24
204.4278507000849
 34
0.0
100
AcDbRotatedDimension
  0
DIMENSION
  5
2C6
330
1F
100
AcDbEntity
  8
1
100
AcDbDimension
  2
*D47
 10
14.91788908765671
 20
210.4278507000849
 30
0.0
 11
10.43799642218213
 21
204.394553035408
 31
0.0
 70
    32
  1
<>
 71
     5
 42
-1.0
 53
90.0
  3
ME10_DIM_4
100
AcDbAlignedDimension
 13
32.91788908765674
 23
198.4278507000849
 33
0.0
 14
32.91788908765674
 24
210.4278507000849
 34
0.0
 50
90.0
100
AcDbRotatedDimension
  0
DIMENSION
  5
2D3
330
1F
100
AcDbEntity
  8
1
100
AcDbDimension
  2
*D58
 10
354.701448685903
 20
198.4278507000849
 30
0.0
 11
351.475155228215
 21
203.381437768541
 31
0.0
 70
    32
  1
<>
 71
     5
 42
-1.0
 53
90.0
  3
ME10_DIM_5
100
AcDbAlignedDimension
 13
370.701448685903
 23
210.4278507000848
 33
0.0
 14
370.701448685903
 24
198.4278507000849
 34
0.0
 50
90.0
100
AcDbRotatedDimension
  0
DIMENSION
  5
2E0
330
1F
100
AcDbEntity
  8
1
100
AcDbDimension
  2
*D69
 10
96.83005313416794
 20
121.9973361674163
 30
0.0
 11
94.23005313416792
 21
102.0192666138327
 31
0.0
 70
    32
  1
<>
 71
     5
 42
-1.0
 53
90.0
  3
ME10_DIM_6
100
AcDbAlignedDimension
 13
133.830053134168
 23
77.99733616741628
 33
0.0
 14
144.830053134168
 24
121.9973361674163
 34
0.0
 50
90.0
100
AcDbRotatedDimension
  0
DIMENSION
  5
2ED
330
1F
100
AcDbEntity
  8
1
100
AcDbDimension
  2
*D710
 10
199.8300531341679
 20
113.9973361674163
 30
0.0
 11
197.2300531341679
 21
100.0299622450937
 31
0.0
 70
    32
  1
<>
 71
     5
 42
-1.0
 53
90.0
  3
ME10_DIM_7
100
AcDbAlignedDimension
 13
173.7300531341679
 23
88.99733616741628
 33
0.0
 14
177.4130581341679
 24
113.9973361674163
 34
0.0
 50
90.0
100
AcDbRotatedDimension
  0
DIMENSION
  5
2FA
330
1F
100
AcDbEntity
  8
1
100
AcDbDimension
  2
*D811
 10
138.3300531341681
 20
65.99733616741628
 30
0.0
 11
155.1087694129811
 21
68.59733616741627
 31
0.0
 70
    32
  1
<>
 71
     5
 42
-1.0
 53
0.00013888888889
  3
ME10_DIM_8
100
AcDbAlignedDimension
 13
168.330053134168
 23
81.59733616741627
 33
0.0
 14
138.330053134168
 24
81.59733616741627
 34
0.0
100
AcDbRotatedDimension
  0
DIMENSION
  5
307
330
1F
100
AcDbEntity
  8
1
100
AcDbDimension
  2
*D912
 10
128.8300531341681
 20
55.99733616741628
 30
0.0
 11
154.4148260285371
 21
58.83733616741628
 31
0.0
 70
    32
  1
<>
 71
     5
 42
-1.0
 53
0.00013888888889
  3
ME10_DIM_9
100
AcDbAlignedDimension
 13
177.830053134168
 23
82.99733616741628
 33
0.0
 14
128.830053134168
 24
82.99733616741628
 34
0.0
100
AcDbRotatedDimension
  0
DIMENSION
  5
314
330
1F
100
AcDbEntity
  8
1
100
AcDbDimension
  2
*D1013
 10
118.830053134168
 20
45.99733616741628
 30
0.0
 11
154.8774549515
 21
48.83733616741628
 31
0.0
 70
    32
  1
<>
 71
     5
 42
-1.0
 53
0.00013888888889
  3
ME10_DIM_10
100
AcDbAlignedDimension
 13
187.830053134168
 23
87.79733616741629
 33
0.0
 14
118.830053134168
 24
87.79733616741629
 34
0.0
100
AcDbRotatedDimension
  0
DIMENSION
  5
321
330
1F
100
AcDbEntity
  8
1
100
AcDbDimension
  2
*D1114
 10
257.862075134168
 20
55.99733616741628
 30
0.0
 11
271.390425860834
 21
58.83733616741628
 31
0.0
 70
    32
  1
<>
 71
     5
 42
-1.0
 53
0.00013888888889
  3
ME10_DIM_11
100
AcDbAlignedDimension
 13
283.462075134168
 23
78.99733616741628
 33
0.0
 14
257.8620751341679
 24
80.78939416741628
 34
0.0
100
AcDbRotatedDimension
  0
DIMENSION
  5
330
330
1F
100
AcDbEntity
  8
1
100
AcDbDimension
  2
*D1215
 10
280.862075134168
 20
65.99733616741628
 30
0.0
 11
272.897954729666
 21
68.83733616741628
 31
0.0
 70
    32
  1
<>
 71
     5
 42
-1.0
 53
0.00013888888889
  3
ME10_DIM_12
100
AcDbAlignedDimension
 13
283.462075134168
 23
78.99733616741628
 33
0.0
 14
280.8620751341678
 24
78.99733616741628
 34
0.0
100
AcDbRotatedDimension
  0
DIMENSION
  5
33D
330
1F
100
AcDbEntity
  8
1
100
AcDbDimension
  2
*D1316
 10
53.78788908765674
 20
165.1278507000848
 30
0.0
 11
59.7695885509839
 21
167.7278507000848
 31
0.0
 70
    32
  1
<>
 71
     5
 42
-1.0
 53
0.00013888888889
  3
ME10_DIM_13
100
AcDbAlignedDimension
 13
68.78788908765674
 23
199.9557147000849
 33
0.0
 14
53.78788908765674
 24
199.4278507000849
 34
0.0
100
AcDbRotatedDimension
  0
DIMENSION
  5
34A
330
1F
100
AcDbEntity
  8
1
100
AcDbDimension
  2
*D1417
 10
290.7878890876567
 20
165.1278507000848
 30
0.0
 11
315.7878890876567
 21
167.7278507000848
 31
0.0
 70
    32
  1
<>
 71
     5
 42
-1.0
 53
0.00013888888889
  3
ME10_DIM_14
100
AcDbAlignedDimension
 13
340.7878890876567
 23
201.9278507000849
 33
0.0
 14
290.7878890876567
 24
199.4278507000849
 34
0.0
100
AcDbRotatedDimension
  0
DIMENSION
  5
357
330
1F
100
AcDbEntity
  8
1
100
AcDbDimension
  2
*D1518
 10
278.7878890876567
 20
165.1278507000848
 30
0.0
 11
284.7878890876567
 21
167.7278507000848
 31
0.0
 70
    32
  1
<>
 71
     5
 42
-1.0
 53
0.00013888888889
  3
ME10_DIM_15
100
AcDbAlignedDimension
 13
290.7878890876567
 23
199.4278507000849
 33
0.0
 14
278.7878890876567
 24
198.4278507000849
 34
0.0
100
AcDbRotatedDimension
  0
DIMENSION
  5
366
330
1F
100
AcDbEntity
  8
1
100
AcDbDimension
  2
*D1619
 10
273.7878890876571
 20
165.1278507000848
 30
0.0
 11
276.2878890876569
 21
167.7278507000848
 31
0.0
 70
    32
  1
<>
 71
     5
 42
-1.0
 53
0.00013888888889
  3
ME10_DIM_16
100
AcDbAlignedDimension
 13
278.7878890876567
 23
198.4278507000849
 33
0.0
 14
273.7878890876571
 24
177.1278507000848
 34
0.0
100
AcDbRotatedDimension
  0
DIMENSION
  5
373
330
1F
100
AcDbEntity
  8
1
100
AcDbDimension
  2
*D1720
 10
73.78788908765671
 20
165.1278507000848
 30
0.0
 11
173.7878890876569
 21
167.6778507000848
 31
0.0
 70
    32
  1
ローラ幅
 71
     5
 42
-1.0
 53
0.00013888888889
  3
ME10_DIM_17
100
AcDbAlignedDimension
 13
273.7878890876571
 23
177.1278507000848
 33
0.0
 14
73.78788908765674
 24
183.0778507000849
 34
0.0
100
AcDbRotatedDimension
  0
DIMENSION
  5
382
330
1F
100
AcDbEntity
  8
1
100
AcDbDimension
  2
*D1821
 10
68.78788908765674
 20
165.1278507000848
 30
0.0
 11
71.28788908765674
 21
167.7278507000848
 31
0.0
 70
    32
  1
<>
 71
     5
 42
-1.0
 53
0.00013888888889
  3
ME10_DIM_18
100
AcDbAlignedDimension
 13
73.78788908765674
 23
183.0778507000849
 33
0.0
 14
68.78788908765674
 24
199.9557147000849
 34
0.0
100
AcDbRotatedDimension
  0
DIMENSION
  5
391
330
1F
100
AcDbEntity
  8
1
100
AcDbDimension
  2
*D1922
 10
106.8300531341679
 20
121.9973361674163
 30
0.0
 11
104.2300531341679
 21
116.5920776871537
 31
0.0
 70
    32
  1
<>
 71
     5
 42
-1.0
 53
90.0
  3
ME10_DIM_19
100
AcDbAlignedDimension
 13
129.247047134168
 23
113.9973361674163
 33
0.0
 14
144.830053134168
 24
121.9973361674163
 34
0.0
 50
90.0
100
AcDbRotatedDimension
  0
DIMENSION
  5
39E
330
1F
100
AcDbEntity
  8
1
100
AcDbDimension
  2
*D2023
 10
106.8300531341679
 20
113.9973361674163
 30
0.0
 11
103.9900531341679
 21
95.99733616741628
 31
0.0
 70
    32
  1
<>
 71
     5
 42
-1.0
 53
90.0
  3
ME10_DIM_20
100
AcDbAlignedDimension
 13
133.830053134168
 23
77.99733616741628
 33
0.0
 14
129.247047134168
 24
113.9973361674163
 34
0.0
 50
90.0
100
AcDbRotatedDimension
  0
ENDSEC
  0
SECTION
  2
OBJECTS
  0
DICTIONARY
  5
C
330
0
100
AcDbDictionary
281
     1
  3
ACAD_GROUP
350
D
  3
ACAD_LAYOUT
350
1A
  3
ACAD_MLINESTYLE
350
17
  3
ACAD_PLOTSETTINGS
350
19
  3
ACAD_PLOTSTYLENAME
350
E
  0
DICTIONARY
  5
D
102
{ACAD_REACTORS
330
C
102
}
330
C
100
AcDbDictionary
281
     1
  0
DICTIONARY
  5
1A
102
{ACAD_REACTORS
330
C
102
}
330
C
100
AcDbDictionary
281
     1
  3
Layout1
350
1E
  3
Layout2
350
26
  3
Model
350
22
  0
DICTIONARY
  5
17
102
{ACAD_REACTORS
330
C
102
}
330
C
100
AcDbDictionary
281
     1
  3
Standard
350
18
  0
DICTIONARY
  5
19
102
{ACAD_REACTORS
330
C
102
}
330
C
100
AcDbDictionary
281
     1
  0
ACDBDICTIONARYWDFLT
  5
E
102
{ACAD_REACTORS
330
C
102
}
330
C
100
AcDbDictionary
281
     1
  3
Normal
350
F
100
AcDbDictionaryWithDefault
340
F
  0
LAYOUT
  5
1E
102
{ACAD_REACTORS
330
1A
102
}
330
1A
100
AcDbPlotSettings
  1

  2

  4

  6

 40
0.0
 41
0.0
 42
0.0
 43
0.0
 44
0.0
 45
0.0
 46
0.0
 47
0.0
 48
0.0
 49
0.0
140
0.0
141
0.0
142
1.0
143
1.0
 70
   688
 72
     0
 73
     0
 74
     5
  7

 75
    16
147
1.0
148
0.0
149
0.0
100
AcDbLayout
  1
Layout1
 70
     1
 71
     1
 10
0.0
 20
0.0
 11
0.0
 21
0.0
 12
0.0
 22
0.0
 32
0.0
 14
0.0
 24
0.0
 34
0.0
 15
0.0
 25
0.0
 35
0.0
146
0.0
 13
0.0
 23
0.0
 33
0.0
 16
1.0
 26
0.0
 36
0.0
 17
0.0
 27
1.0
 37
0.0
 76
     0
330
1B
  0
LAYOUT
  5
26
102
{ACAD_REACTORS
330
1A
102
}
330
1A
100
AcDbPlotSettings
  1

  2

  4

  6

 40
0.0
 41
0.0
 42
0.0
 43
0.0
 44
0.0
 45
0.0
 46
0.0
 47
0.0
 48
0.0
 49
0.0
140
0.0
141
0.0
142
1.0
143
1.0
 70
   688
 72
     0
 73
     0
 74
     5
  7

 75
    16
147
1.0
148
0.0
149
0.0
100
AcDbLayout
  1
Layout2
 70
     1
 71
     2
 10
0.0
 20
0.0
 11
0.0
 21
0.0
 12
0.0
 22
0.0
 32
0.0
 14
0.0
 24
0.0
 34
0.0
 15
0.0
 25
0.0
 35
0.0
146
0.0
 13
0.0
 23
0.0
 33
0.0
 16
1.0
 26
0.0
 36
0.0
 17
0.0
 27
1.0
 37
0.0
 76
     0
330
23
  0
LAYOUT
  5
22
102
{ACAD_REACTORS
330
1A
102
}
330
1A
100
AcDbPlotSettings
  1

  2

  4

  6

 40
0.0
 41
0.0
 42
0.0
 43
0.0
 44
0.0
 45
0.0
 46
0.0
 47
0.0
 48
0.0
 49
0.0
140
0.0
141
0.0
142
1.0
143
1.0
 70
  1712
 72
     0
 73
     0
 74
     0
  7

 75
     0
147
1.0
148
0.0
149
0.0
100
AcDbLayout
  1
Model
 70
     1
 71
     0
 10
0.0
 20
0.0
 11
0.0
 21
0.0
 12
0.0
 22
0.0
 32
0.0
 14
0.0
 24
-2.25615332095569
 34
0.0
 15
394.0
 25
268.0
 35
0.0
146
0.0
 13
0.0
 23
0.0
 33
0.0
 16
1.0
 26
0.0
 36
0.0
 17
0.0
 27
1.0
 37
0.0
 76
     0
330
1F
  0
MLINESTYLE
  5
18
102
{ACAD_REACTORS
330
17
102
}
330
17
100
AcDbMlineStyle
  2
Standard
 70
     0
  3

 62
   256
 51
90.0
 52
90.0
 71
     2
 49
0.5
 62
   256
  6
BYLAYER
 49
-0.5
 62
   256
  6
BYLAYER
  0
ACDBPLACEHOLDER
  5
F
102
{ACAD_REACTORS
330
E
102
}
330
E
  0
ENDSEC
  0
EOF
