  0
SECTION
  2
HEADER
  9
$ACADVER
  1
AC1015
  9
$ACADMAINTVER
 70
     6
  9
$DWGCODEPAGE
  3
DOS932
  9
$INSBASE
 10
0.0
 20
0.0
 30
0.0
  9
$EXTMIN
 10
0.0
 20
-2.25615332095569
 30
0.0
  9
$EXTMAX
 10
394.0
 20
268.0
 30
0.0
  9
$LIMMIN
 10
0.0
 20
0.0
  9
$LIMMAX
 10
12.0
 20
9.0
  9
$ORTHOMODE
 70
     0
  9
$REGENMODE
 70
     1
  9
$FILLMODE
 70
     1
  9
$QTEXTMODE
 70
     0
  9
$MIRRTEXT
 70
     1
  9
$LTSCALE
 40
1.0
  9
$ATTMODE
 70
     1
  9
$TEXTSIZE
 40
0.2
  9
$TRACEWID
 40
0.05
  9
$TEXTSTYLE
  7
Standard
  9
$CLAYER
  8
0
  9
$CELTYPE
  6
ByLayer
  9
$CECOLOR
 62
   256
  9
$CELTSCALE
 40
1.0
  9
$DISPSILH
 70
     0
  9
$DIMSCALE
 40
1.0
  9
$DIMASZ
 40
0.18
  9
$DIMEXO
 40
0.0625
  9
$DIMDLI
 40
0.38
  9
$DIMRND
 40
0.0
  9
$DIMDLE
 40
0.0
  9
$DIMEXE
 40
0.18
  9
$DIMTP
 40
0.0
  9
$DIMTM
 40
0.0
  9
$DIMTXT
 40
0.18
  9
$DIMCEN
 40
0.09
  9
$DIMTSZ
 40
0.0
  9
$DIMTOL
 70
     0
  9
$DIMLIM
 70
     0
  9
$DIMTIH
 70
     1
  9
$DIMTOH
 70
     1
  9
$DIMSE1
 70
     0
  9
$DIMSE2
 70
     0
  9
$DIMTAD
 70
     0
  9
$DIMZIN
 70
     0
  9
$DIMBLK
  1

  9
$DIMASO
 70
     1
  9
$DIMSHO
 70
     1
  9
$DIMPOST
  1

  9
$DIMAPOST
  1

  9
$DIMALT
 70
     0
  9
$DIMALTD
 70
     2
  9
$DIMALTF
 40
25.4
  9
$DIMLFAC
 40
1.0
  9
$DIMTOFL
 70
     0
  9
$DIMTVP
 40
0.0
  9
$DIMTIX
 70
     0
  9
$DIMSOXD
 70
     0
  9
$DIMSAH
 70
     0
  9
$DIMBLK1
  1

  9
$DIMBLK2
  1

  9
$DIMSTYLE
  2
Standard
  9
$DIMCLRD
 70
     0
  9
$DIMCLRE
 70
     0
  9
$DIMCLRT
 70
     0
  9
$DIMTFAC
 40
1.0
  9
$DIMGAP
 40
0.09
  9
$DIMJUST
 70
     0
  9
$DIMSD1
 70
     0
  9
$DIMSD2
 70
     0
  9
$DIMTOLJ
 70
     1
  9
$DIMTZIN
 70
     0
  9
$DIMALTZ
 70
     0
  9
$DIMALTTZ
 70
     0
  9
$DIMUPT
 70
     0
  9
$DIMDEC
 70
     4
  9
$DIMTDEC
 70
     4
  9
$DIMALTU
 70
     2
  9
$DIMALTTD
 70
     2
  9
$DIMTXSTY
  7
Standard
  9
$DIMAUNIT
 70
     0
  9
$DIMADEC
 70
     0
  9
$DIMALTRND
 40
0.0
  9
$DIMAZIN
 70
     0
  9
$DIMDSEP
 70
    46
  9
$DIMATFIT
 70
     3
  9
$DIMFRAC
 70
     0
  9
$DIMLDRBLK
  1

  9
$DIMLUNIT
 70
     2
  9
$DIMLWD
 70
    -2
  9
$DIMLWE
 70
    -2
  9
$DIMTMOVE
 70
     0
  9
$LUNITS
 70
     2
  9
$LUPREC
 70
     4
  9
$SKETCHINC
 40
0.1
  9
$FILLETRAD
 40
0.5
  9
$AUNITS
 70
     0
  9
$AUPREC
 70
     0
  9
$MENU
  1
.
  9
$ELEVATION
 40
0.0
  9
$PELEVATION
 40
0.0
  9
$THICKNESS
 40
0.0
  9
$LIMCHECK
 70
     0
  9
$CHAMFERA
 40
0.5
  9
$CHAMFERB
 40
0.5
  9
$CHAMFERC
 40
1.0
  9
$CHAMFERD
 40
0.0
  9
$SKPOLY
 70
     0
  9
$TDCREATE
 40
2455804.544672639
  9
$TDUCREATE
 40
2455804.169672639
  9
$TDUPDATE
 40
2455804.54467265
  9
$TDUUPDATE
 40
2455804.16967265
  9
$TDINDWG
 40
0.0000000116
  9
$TDUSRTIMER
 40
0.0000000116
  9
$USRTIMER
 70
     1
  9
$ANGBASE
 50
0.0
  9
$ANGDIR
 70
     0
  9
$PDMODE
 70
     0
  9
$PDSIZE
 40
0.0
  9
$PLINEWID
 40
0.0
  9
$SPLFRAME
 70
     0
  9
$SPLINETYPE
 70
     6
  9
$SPLINESEGS
 70
     8
  9
$HANDSEED
  5
3BA
  9
$SURFTAB1
 70
     6
  9
$SURFTAB2
 70
     6
  9
$SURFTYPE
 70
     6
  9
$SURFU
 70
     6
  9
$SURFV
 70
     6
  9
$UCSBASE
  2

  9
$UCSNAME
  2

  9
$UCSORG
 10
0.0
 20
0.0
 30
0.0
  9
$UCSXDIR
 10
1.0
 20
0.0
 30
0.0
  9
$UCSYDIR
 10
0.0
 20
1.0
 30
0.0
  9
$UCSORTHOREF
  2

  9
$UCSORTHOVIEW
 70
     0
  9
$UCSORGTOP
 10
0.0
 20
0.0
 30
0.0
  9
$UCSORGBOTTOM
 10
0.0
 20
0.0
 30
0.0
  9
$UCSORGLEFT
 10
0.0
 20
0.0
 30
0.0
  9
$UCSORGRIGHT
 10
0.0
 20
0.0
 30
0.0
  9
$UCSORGFRONT
 10
0.0
 20
0.0
 30
0.0
  9
$UCSORGBACK
 10
0.0
 20
0.0
 30
0.0
  9
$PUCSBASE
  2

  9
$PUCSNAME
  2

  9
$PUCSORG
 10
0.0
 20
0.0
 30
0.0
  9
$PUCSXDIR
 10
1.0
 20
0.0
 30
0.0
  9
$PUCSYDIR
 10
0.0
 20
1.0
 30
0.0
  9
$PUCSORTHOREF
  2

  9
$PUCSORTHOVIEW
 70
     0
  9
$PUCSORGTOP
 10
0.0
 20
0.0
 30
0.0
  9
$PUCSORGBOTTOM
 10
0.0
 20
0.0
 30
0.0
  9
$PUCSORGLEFT
 10
0.0
 20
0.0
 30
0.0
  9
$PUCSORGRIGHT
 10
0.0
 20
0.0
 30
0.0
  9
$PUCSORGFRONT
 10
0.0
 20
0.0
 30
0.0
  9
$PUCSORGBACK
 10
0.0
 20
0.0
 30
0.0
  9
$USERI1
 70
     0
  9
$USERI2
 70
     0
  9
$USERI3
 70
     0
  9
$USERI4
 70
     0
  9
$USERI5
 70
     0
  9
$USERR1
 40
14.0
  9
$USERR2
 40
0.0
  9
$USERR3
 40
0.0
  9
$USERR4
 40
0.0
  9
$USERR5
 40
0.0
  9
$WORLDVIEW
 70
     1
  9
$SHADEDGE
 70
     3
  9
$SHADEDIF
 70
    70
  9
$TILEMODE
 70
     1
  9
$MAXACTVP
 70
    64
  9
$PINSBASE
 10
0.0
 20
0.0
 30
0.0
  9
$PLIMCHECK
 70
     0
  9
$PEXTMIN
 10
1.00000000000000E+20
 20
1.00000000000000E+20
 30
1.00000000000000E+20
  9
$PEXTMAX
 10
-1.00000000000000E+20
 20
-1.00000000000000E+20
 30
-1.00000000000000E+20
  9
$PLIMMIN
 10
0.0
 20
0.0
  9
$PLIMMAX
 10
12.0
 20
9.0
  9
$UNITMODE
 70
     0
  9
$VISRETAIN
 70
     1
  9
$PLINEGEN
 70
     0
  9
$PSLTSCALE
 70
     1
  9
$TREEDEPTH
 70
  3020
  9
$CMLSTYLE
  2
Standard
  9
$CMLJUST
 70
     0
  9
$CMLSCALE
 40
1.0
  9
$PROXYGRAPHICS
 70
     1
  9
$MEASUREMENT
 70
     1
  9
$CELWEIGHT
370
    -1
  9
$ENDCAPS
280
     0
  9
$JOINSTYLE
280
     0
  9
$LWDISPLAY
290
     0
  9
$INSUNITS
 70
     1
  9
$HYPERLINKBASE
  1

  9
$STYLESHEET
  1

  9
$XEDIT
290
     1
  9
$CEPSNTYPE
380
     0
  9
$PSTYLEMODE
290
     1
  9
$FINGERPRINTGUID
  2
{FEED72EB-10FC-4D56-879D-131965BAD117}
  9
$VERSIONGUID
  2
{FAEB1C32-E019-11D5-929B-00C0DF256EC4}
  9
$EXTNAMES
290
     1
  9
$PSVPSCALE
 40
0.0
  9
$OLESTARTUP
290
     0
  0
ENDSEC
  0
SECTION
  2
CLASSES
  0
CLASS
  1
ACDBDICTIONARYWDFLT
  2
AcDbDictionaryWithDefault
  3
ObjectDBX Classes
 90
        0
280
     0
281
     0
  0
CLASS
  1

  2
exOdDbCircle
  3

 90
        0
280
     0
281
     1
  0
CLASS
  1

  2
exOdDbSpline
  3

 90
        0
280
     0
281
     1
  0
CLASS
  1
ACDBPLACEHOLDER
  2
AcDbPlaceHolder
  3
ObjectDBX Classes
 90
        0
280
     0
281
     0
  0
CLASS
  1
LAYOUT
  2
AcDbLayout
  3
ObjectDBX Classes
 90
        0
280
     0
281
     0
  0
ENDSEC
  0
SECTION
  2
TABLES
  0
TABLE
  2
VPORT
  5
8
330
0
100
AcDbSymbolTable
 70
     1
  0
VPORT
  5
29
330
8
100
AcDbSymbolTableRecord
100
AcDbViewportTableRecord
  2
*Active
 70
     0
 10
0.0
 20
0.0
 11
1.0
 21
1.0
 12
197.0
 22
132.8719233395221
 13
0.0
 23
0.0
 14
0.5
 24
0.5
 15
0.5
 25
0.5
 16
0.0
 26
0.0
 36
1.0
 17
0.0
 27
0.0
 37
0.0
 40
297.2817686530513
 41
1.60267857142857
 42
50.0
 43
0.0
 44
0.0
 50
0.0
 51
0.0
 71
     0
 72
   100
 73
     1
 74
     3
 75
     0
 76
     0
 77
     0
 78
     0
281
     0
 65
     1
110
0.0
120
0.0
130
0.0
111
1.0
121
0.0
131
0.0
112
0.0
122
1.0
132
0.0
 79
     0
146
0.0
  0
ENDTAB
  0
TABLE
  2
LTYPE
  5
5
330
0
100
AcDbSymbolTable
 70
     8
  0
LTYPE
  5
14
330
5
100
AcDbSymbolTableRecord
100
AcDbLinetypeTableRecord
  2
ByBlock
 70
     0
  3

 72
    65
 73
     0
 40
0.0
  0
LTYPE
  5
15
330
5
100
AcDbSymbolTableRecord
100
AcDbLinetypeTableRecord
  2
ByLayer
 70
     0
  3

 72
    65
 73
     0
 40
0.0
  0
LTYPE
  5
16
330
5
100
AcDbSymbolTableRecord
100
AcDbLinetypeTableRecord
  2
Continuous
 70
     0
  3
Solid line
 72
    65
 73
     0
 40
0.0
  0
LTYPE
  5
2A
330
5
100
AcDbSymbolTableRecord
100
AcDbLinetypeTableRecord
  2
DASHED
 70
     0
  3
Dashed
 72
    65
 73
     2
 40
15.0
 49
7.0
 74
     0
 49
-8.0
 74
     0
  0
LTYPE
  5
2B
330
5
100
AcDbSymbolTableRecord
100
AcDbLinetypeTableRecord
  2
DOTTED
 70
     0
  3
Dotted
 72
    65
 73
     2
 40
1.0
 49
0.0
 74
     0
 49
-1.0
 74
     0
  0
LTYPE
  5
2C
330
5
100
AcDbSymbolTableRecord
100
AcDbLinetypeTableRecord
  2
DOT_CENTER
 70
     0
  3
Dot_Center
 72
    65
 73
     4
 40
14.0
 49
12.0
 74
     0
 49
-1.0
 74
     0
 49
0.0
 74
     0
 49
-1.0
 74
     0
  0
LTYPE
  5
2D
330
5
100
AcDbSymbolTableRecord
100
AcDbLinetypeTableRecord
  2
LONG_DASHED
 70
     0
  3
Long_Dashed
 72
    65
 73
     2
 40
15.0
 49
10.0
 74
     0
 49
-5.0
 74
     0
  0
LTYPE
  5
2E
330
5
100
AcDbSymbolTableRecord
100
AcDbLinetypeTableRecord
  2
DASH_CENTER
 70
     0
  3
Dash_Center
 72
    65
 73
     4
 40
14.0
 49
11.0
 74
     0
 49
-1.0
 74
     0
 49
1.0
 74
     0
 49
-1.0
 74
     0
  0
LTYPE
  5
2F
330
5
100
AcDbSymbolTableRecord
100
AcDbLinetypeTableRecord
  2
PHANTOM
 70
     0
  3
Phantom
 72
    65
 73
     6
 40
13.0
 49
10.0
 74
     0
 49
-1.0
 74
     0
 49
0.0
 74
     0
 49
-1.0
 74
     0
 49
0.0
 74
     0
 49
-1.0
 74
     0
  0
LTYPE
  5
30
330
5
100
AcDbSymbolTableRecord
100
AcDbLinetypeTableRecord
  2
CENTER_DASH_DASH
 70
     0
  3
Center_Dash_Dash
 72
    65
 73
     6
 40
14.0
 49
9.0
 74
     0
 49
-1.0
 74
     0
 49
1.0
 74
     0
 49
-1.0
 74
     0
 49
1.0
 74
     0
 49
-1.0
 74
     0
  0
ENDTAB
  0
TABLE
  2
LAYER
  5
2
330
0
100
AcDbSymbolTable
 70
     7
  0
LAYER
  5
10
330
2
100
AcDbSymbolTableRecord
100
AcDbLayerTableRecord
  2
0
 70
     0
 62
     7
  6
Continuous
370
    -3
390
F
  0
LAYER
  5
31
330
2
100
AcDbSymbolTableRecord
100
AcDbLayerTableRecord
  2
1
 70
     0
 62
     7
  6
Continuous
370
    -3
390
F
  0
LAYER
  5
32
330
2
100
AcDbSymbolTableRecord
100
AcDbLayerTableRecord
  2
ITTEN
 70
     0
 62
     7
  6
Continuous
370
    -3
390
F
  0
LAYER
  5
33
330
2
100
AcDbSymbolTableRecord
100
AcDbLayerTableRecord
  2
JISSEN
 70
     0
 62
     7
  6
Continuous
370
    -3
390
F
  0
LAYER
  5
34
330
2
100
AcDbSymbolTableRecord
100
AcDbLayerTableRecord
  2
NITEN
 70
     0
 62
     7
  6
Continuous
370
    -3
390
F
  0
LAYER
  5
35
330
2
100
AcDbSymbolTableRecord
100
AcDbLayerTableRecord
  2
SAISEN
 70
     0
 62
     7
  6
Continuous
370
    -3
390
F
  0
LAYER
  5
36
330
2
100
AcDbSymbolTableRecord
100
AcDbLayerTableRecord
  2
TENSEN
 70
     0
 62
     7
  6
Continuous
370
    -3
390
F
  0
ENDTAB
  0
TABLE
  2
STYLE
  5
3
330
0
100
AcDbSymbolTable
 70
     7
  0
STYLE
  5
11
330
3
100
AcDbSymbolTableRecord
100
AcDbTextStyleTableRecord
  2
Standard
 70
     0
 40
0.0
 41
1.0
 50
0.0
 71
     0
 42
0.2
  3
txt
  4

  0
STYLE
  5
55
330
3
100
AcDbSymbolTableRecord
100
AcDbTextStyleTableRecord
  2
CONVERTER_1
 70
     0
 40
0.0
 41
0.9
 50
0.0
 71
     0
 42
0.2
  3
txt.shx
  4

  0
STYLE
  5
58
330
3
100
AcDbSymbolTableRecord
100
AcDbTextStyleTableRecord
  2
CONVERTER_2
 70
     0
 40
0.0
 41
1.068
 50
0.0
 71
     0
 42
0.2
  3
msmincho.ttc
  4

1001
ACAD
1000
MS Mincho
1071
    32785
  0
STYLE
  5
5B
330
3
100
AcDbSymbolTableRecord
100
AcDbTextStyleTableRecord
  2
CONVERTER_3
 70
     0
 40
0.0
 41
0.89
 50
0.0
 71
     0
 42
0.2
  3
MSMINCHO.TTC
  4

1001
ACAD
1000
MS Mincho
1071
    32785
  0
STYLE
  5
5E
330
3
100
AcDbSymbolTableRecord
100
AcDbTextStyleTableRecord
  2
CONVERTER_4
 70
     0
 40
0.0
 41
0.801
 50
0.0
 71
     0
 42
0.2
  3
msmincho.ttc
  4

1001
ACAD
1000
MS Mincho
1071
    32785
  0
STYLE
  5
62
330
3
100
AcDbSymbolTableRecord
100
AcDbTextStyleTableRecord
  2
CONVERTER_5
 70
     0
 40
0.0
 41
0.9025
 50
0.0
 71
     0
 42
0.2
  3
complex.shx
  4

  0
STYLE
  5
29A
330
3
100
AcDbSymbolTableRecord
100
AcDbTextStyleTableRecord
  2
CONVERTER_6
 70
     0
 40
0.0
 41
0.712
 50
0.0
 71
     0
 42
0.2
  3
msmincho.ttc
  4

1001
ACAD
1000
MS Mincho
1071
    32785
  0
ENDTAB
  0
TABLE
  2
VIEW
  5
6
330
0
100
AcDbSymbolTable
 70
     0
  0
ENDTAB
  0
TABLE
  2
UCS
  5
7
330
0
100
AcDbSymbolTable
 70
     0
  0
ENDTAB
  0
TABLE
  2
APPID
  5
9
330
0
100
AcDbSymbolTable
 70
     1
  0
APPID
  5
12
330
9
100
AcDbSymbolTableRecord
100
AcDbRegAppTableRecord
  2
ACAD
 70
     0
  0
ENDTAB
  0
TABLE
  2
DIMSTYLE
  5
A
330
0
100
AcDbSymbolTable
 70
    21
100
AcDbDimStyleTable
  0
DIMSTYLE
105
27
330
A
100
AcDbSymbolTableRecord
100
AcDbDimStyleTableRecord
  2
Standard
 70
     0
340
11
  0
DIMSTYLE
105
2B1
102
{ACAD_REACTORS
330
2B2
102
}
330
A
100
AcDbSymbolTableRecord
100
AcDbDimStyleTableRecord
  2
ME10_DIM_0
 70
     0
 41
3.2
 42
1.0
 44
1.0
 73
     0
 74
     0
 77
     1
 78
     8
140
3.2
147
0.7
172
     1
173
     1
176
     2
177
     2
178
     2
271
     2
340
55
343
2AB
344
2AB
  0
DIMSTYLE
105
2BE
102
{ACAD_REACTORS
330
2BF
102
}
330
A
100
AcDbSymbolTableRecord
100
AcDbDimStyleTableRecord
  2
ME10_DIM_1
 70
     0
 41
3.2
 42
1.0
 44
1.0
 73
     0
 74
     0
 77
     1
 78
     8
140
3.2
147
0.7
172
     1
173
     1
176
     2
177
     2
178
     2
271
     2
340
55
343
2AB
344
2AB
  0
DIMSTYLE
105
2CB
102
{ACAD_REACTORS
330
2CC
102
}
330
A
100
AcDbSymbolTableRecord
100
AcDbDimStyleTableRecord
  2
ME10_DIM_2
 70
     0
 41
3.2
 42
1.0
 44
1.0
 73
     0
 74
     0
 77
     1
 78
     8
140
3.2
147
0.7
172
     1
173
     1
176
     2
177
     2
178
     2
271
     2
340
55
343
2AB
344
2AB
  0
DIMSTYLE
105
2D8
102
{ACAD_REACTORS
330
2D9
102
}
330
A
100
AcDbSymbolTableRecord
100
AcDbDimStyleTableRecord
  2
ME10_DIM_3
 70
     0
 41
3.2
 42
1.0
 44
1.0
 77
     1
 78
     8
140
3.2
147
0.7
172
     1
173
     1
176
     2
177
     2
178
     2
271
     2
340
55
343
2AB
344
2AB
  0
DIMSTYLE
105
2E7
102
{ACAD_REACTORS
330
2E8
102
}
330
A
100
AcDbSymbolTableRecord
100
AcDbDimStyleTableRecord
  2
ME10_DIM_4
 70
     0
  3
ｔ<>
 41
3.2
 42
1.0
 44
1.0
 77
     1
 78
     8
140
3.2
147
0.7
172
     1
173
     1
176
     2
177
     2
178
     2
271
     2
340
5B
343
2AB
344
2AB
  0
DIMSTYLE
105
2F4
102
{ACAD_REACTORS
330
2F5
102
}
330
A
100
AcDbSymbolTableRecord
100
AcDbDimStyleTableRecord
  2
ME10_DIM_5
 70
     0
 41
3.2
 42
1.0
 44
1.0
 73
     0
 74
     0
 77
     1
 78
     8
140
3.2
147
1.0
172
     1
173
     1
176
     2
177
     2
178
     2
271
     2
340
55
343
2AB
344
2AB
  0
DIMSTYLE
105
301
102
{ACAD_REACTORS
330
302
102
}
330
A
100
AcDbSymbolTableRecord
100
AcDbDimStyleTableRecord
  2
ME10_DIM_6
 70
     0
 41
3.2
 42
1.0
 44
1.0
 73
     0
 74
     0
 77
     1
 78
     8
140
3.2
147
0.7
172
     1
173
     1
176
     2
177
     2
178
     2
271
     2
340
55
343
2AB
344
2AB
  0
DIMSTYLE
105
30E
102
{ACAD_REACTORS
330
30F
102
}
330
A
100
AcDbSymbolTableRecord
100
AcDbDimStyleTableRecord
  2
ME10_DIM_7
 70
     0
  3
φ<>
 41
3.2
 42
1.0
 44
1.0
 73
     0
 74
     0
 77
     1
 78
     8
140
3.2
147
1.0
172
     1
173
     1
176
     2
177
     2
178
     2
271
     2
340
5B
343
2AB
344
2AB
  0
DIMSTYLE
105
31C
102
{ACAD_REACTORS
330
31D
102
}
330
A
100
AcDbSymbolTableRecord
100
AcDbDimStyleTableRecord
  2
ME10_DIM_8
 70
     0
  3
φ<>　(D寸法）
 41
3.2
 42
1.0
 44
1.0
 73
     0
 74
     0
 77
     1
 78
     8
140
3.2
147
1.0
172
     1
173
     1
176
     2
177
     2
178
     2
271
     2
340
5B
343
2AB
344
2AB
  0
DIMSTYLE
105
329
102
{ACAD_REACTORS
330
32A
102
}
330
A
100
AcDbSymbolTableRecord
100
AcDbDimStyleTableRecord
  2
ME10_DIM_9
 70
     0
  3
φ<>
 41
3.2
 42
1.0
 44
1.0
 73
     0
 74
     0
 77
     1
 78
     8
140
3.2
147
1.0
172
     1
173
     1
176
     2
177
     2
178
     2
271
     2
340
5B
343
2AB
344
2AB
  0
DIMSTYLE
105
336
102
{ACAD_REACTORS
330
337
102
}
330
A
100
AcDbSymbolTableRecord
100
AcDbDimStyleTableRecord
  2
ME10_DIM_10
 70
     0
 41
3.2
 42
1.0
 44
1.0
 73
     0
 74
     0
 77
     1
 78
     8
140
3.2
147
0.7
172
     1
173
     1
176
     2
177
     2
178
     2
271
     2
340
55
343
2AB
344
2AB
  0
DIMSTYLE
105
343
102
{ACAD_REACTORS
330
344
102
}
330
A
100
AcDbSymbolTableRecord
100
AcDbDimStyleTableRecord
  2
ME10_DIM_11
 70
     0
  3
φ<>
 41
3.2
 42
1.0
 44
1.0
 73
     0
 74
     0
 77
     1
 78
     8
140
3.2
147
1.0
172
     1
173
     1
176
     2
177
     2
178
     2
271
     2
340
5B
343
2AB
344
2AB
  0
DIMSTYLE
105
350
102
{ACAD_REACTORS
330
351
102
}
330
A
100
AcDbSymbolTableRecord
100
AcDbDimStyleTableRecord
  2
ME10_DIM_12
 70
     0
 41
3.2
 42
1.0
 44
1.0
 73
     0
 74
     0
 77
     1
 78
     8
140
3.2
147
0.7
172
     1
173
     1
176
     2
177
     2
178
     2
271
     2
340
55
343
2AB
344
2AB
  0
DIMSTYLE
105
35D
102
{ACAD_REACTORS
330
35E
102
}
330
A
100
AcDbSymbolTableRecord
100
AcDbDimStyleTableRecord
  2
ME10_DIM_13
 70
     0
 41
3.2
 42
1.0
 44
1.0
 73
     0
 74
     0
 77
     1
 78
     8
140
3.2
147
0.7
172
     1
173
     1
176
     2
177
     2
178
     2
271
     2
340
55
343
2AB
344
2AB
  0
DIMSTYLE
105
36A
102
{ACAD_REACTORS
330
36B
102
}
330
A
100
AcDbSymbolTableRecord
100
AcDbDimStyleTableRecord
  2
ME10_DIM_14
 70
     0
 41
3.2
 42
1.0
 44
1.0
 73
     0
 74
     0
 77
     1
 78
     8
140
3.2
147
1.0
172
     1
173
     1
176
     2
177
     2
178
     2
271
     2
340
55
343
2AB
344
2AB
  0
DIMSTYLE
105
377
102
{ACAD_REACTORS
330
378
102
}
330
A
100
AcDbSymbolTableRecord
100
AcDbDimStyleTableRecord
  2
ME10_DIM_15
 70
     0
 41
3.2
 42
1.0
 44
1.0
 73
     0
 74
     0
 77
     1
 78
     8
140
3.2
147
1.0
172
     1
173
     1
176
     2
177
     2
178
     2
271
     2
340
55
343
2AB
344
2AB
  0
DIMSTYLE
105
384
102
{ACAD_REACTORS
330
385
102
}
330
A
100
AcDbSymbolTableRecord
100
AcDbDimStyleTableRecord
  2
ME10_DIM_16
 70
     0
 41
3.2
 42
1.0
 44
1.0
 73
     0
 74
     0
 77
     1
 78
     8
140
3.2
147
1.0
172
     1
173
     1
176
     2
177
     2
178
     2
271
     2
340
55
343
2AB
344
2AB
  0
DIMSTYLE
105
393
102
{ACAD_REACTORS
330
394
102
}
330
A
100
AcDbSymbolTableRecord
100
AcDbDimStyleTableRecord
  2
ME10_DIM_17
 70
     0
 41
3.2
 42
1.0
 44
1.0
 73
     0
 74
     0
 77
     1
 78
     8
140
3.2
147
1.0
172
     1
173
     1
176
     2
177
     2
178
     2
271
     2
340
55
343
2AB
344
2AB
  0
DIMSTYLE
105
3A0
102
{ACAD_REACTORS
330
3A1
102
}
330
A
100
AcDbSymbolTableRecord
100
AcDbDimStyleTableRecord
  2
ME10_DIM_18
 70
     0
 41
3.2
 42
1.0
 44
1.0
 73
     0
 74
     0
 77
     1
 78
     8
140
3.2
147
1.0
172
     1
173
     1
176
     2
177
     2
178
     2
271
     2
340
5B
343
2AB
344
2AB
  0
DIMSTYLE
105
3AF
102
{ACAD_REACTORS
330
3B0
102
}
330
A
100
AcDbSymbolTableRecord
100
AcDbDimStyleTableRecord
  2
ME10_DIM_19
 70
     0
 41
3.2
 42
1.0
 44
1.0
 73
     0
 74
     0
 77
     1
 78
     8
140
3.2
147
1.0
172
     1
173
     1
176
     2
177
     2
178
     2
271
     2
340
55
343
2AB
344
2AB
  0
ENDTAB
  0
TABLE
  2
BLOCK_RECORD
  5
1
330
0
100
AcDbSymbolTable
 70
    24
  0
BLOCK_RECORD
  5
1F
330
1
100
AcDbSymbolTableRecord
100
AcDbBlockTableRecord
  2
*Model_Space
340
22
  0
BLOCK_RECORD
  5
1B
330
1
100
AcDbSymbolTableRecord
100
AcDbBlockTableRecord
  2
*Paper_Space
340
1E
  0
BLOCK_RECORD
  5
23
330
1
100
AcDbSymbolTableRecord
100
AcDbBlockTableRecord
  2
*Paper_Space0
340
26
  0
BLOCK_RECORD
  5
37
330
1
100
AcDbSymbolTableRecord
100
AcDbBlockTableRecord
  2
Zuwaku-A3-web
340
0
102
{BLKREFS
331
3A
102
}
  0
BLOCK_RECORD
  5
2A0
330
1
100
AcDbSymbolTableRecord
100
AcDbBlockTableRecord
  2
*D02
340
0
  0
BLOCK_RECORD
  5
2AB
330
1
100
AcDbSymbolTableRecord
100
AcDbBlockTableRecord
  2
_Open30
340
0
  0
BLOCK_RECORD
  5
2B3
330
1
100
AcDbSymbolTableRecord
100
AcDbBlockTableRecord
  2
*D14
340
0
  0
BLOCK_RECORD
  5
2C0
330
1
100
AcDbSymbolTableRecord
100
AcDbBlockTableRecord
  2
*D25
340
0
  0
BLOCK_RECORD
  5
2CD
330
1
100
AcDbSymbolTableRecord
100
AcDbBlockTableRecord
  2
*D36
340
0
  0
BLOCK_RECORD
  5
2DA
330
1
100
AcDbSymbolTableRecord
100
AcDbBlockTableRecord
  2
*D47
340
0
  0
BLOCK_RECORD
  5
2E9
330
1
100
AcDbSymbolTableRecord
100
AcDbBlockTableRecord
  2
*D58
340
0
  0
BLOCK_RECORD
  5
2F6
330
1
100
AcDbSymbolTableRecord
100
AcDbBlockTableRecord
  2
*D69
340
0
  0
BLOCK_RECORD
  5
303
330
1
100
AcDbSymbolTableRecord
100
AcDbBlockTableRecord
  2
*D710
340
0
  0
BLOCK_RECORD
  5
310
330
1
100
AcDbSymbolTableRecord
100
AcDbBlockTableRecord
  2
*D811
340
0
  0
BLOCK_RECORD
  5
31E
330
1
100
AcDbSymbolTableRecord
100
AcDbBlockTableRecord
  2
*D912
340
0
  0
BLOCK_RECORD
  5
32B
330
1
100
AcDbSymbolTableRecord
100
AcDbBlockTableRecord
  2
*D1013
340
0
  0
BLOCK_RECORD
  5
338
330
1
100
AcDbSymbolTableRecord
100
AcDbBlockTableRecord
  2
*D1114
340
0
  0
BLOCK_RECORD
  5
345
330
1
100
AcDbSymbolTableRecord
100
AcDbBlockTableRecord
  2
*D1215
340
0
  0
BLOCK_RECORD
  5
352
330
1
100
AcDbSymbolTableRecord
100
AcDbBlockTableRecord
  2
*D1316
340
0
  0
BLOCK_RECORD
  5
35F
330
1
100
AcDbSymbolTableRecord
100
AcDbBlockTableRecord
  2
*D1417
340
0
  0
BLOCK_RECORD
  5
36C
330
1
100
AcDbSymbolTableRecord
100
AcDbBlockTableRecord
  2
*D1518
340
0
  0
BLOCK_RECORD
  5
379
330
1
100
AcDbSymbolTableRecord
100
AcDbBlockTableRecord
  2
*D1619
340
0
  0
BLOCK_RECORD
  5
386
330
1
100
AcDbSymbolTableRecord
100
AcDbBlockTableRecord
  2
*D1720
340
0
  0
BLOCK_RECORD
  5
395
330
1
100
AcDbSymbolTableRecord
100
AcDbBlockTableRecord
  2
*D1821
340
0
  0
BLOCK_RECORD
  5
3A2
330
1
100
AcDbSymbolTableRecord
100
AcDbBlockTableRecord
  2
*D1922
340
0
  0
BLOCK_RECORD
  5
3B1
330
1
100
AcDbSymbolTableRecord
100
AcDbBlockTableRecord
  2
*D2023
340
0
102
{BLKREFS
331
3B9
102
}
  0
ENDTAB
  0
ENDSEC
  0
SECTION
  2
BLOCKS
  0
BLOCK
  5
20
330
1F
100
AcDbEntity
  8
0
100
AcDbBlockBegin
  2
*Model_Space
 70
     0
 71
     0
 10
0.0
 20
0.0
 30
0.0
  3
*Model_Space
  1

  0
ENDBLK
  5
21
330
1F
100
AcDbEntity
  8
0
100
AcDbBlockEnd
  0
BLOCK
  5
1C
330
1B
100
AcDbEntity
 67
     1
  8
0
100
AcDbBlockBegin
  2
*Paper_Space
 70
     0
 71
     0
 10
0.0
 20
0.0
 30
0.0
  3
*Paper_Space
  1

  0
ENDBLK
  5
1D
330
1B
100
AcDbEntity
 67
     1
  8
0
100
AcDbBlockEnd
  0
BLOCK
  5
24
330
23
100
AcDbEntity
  8
0
100
AcDbBlockBegin
  2
*Paper_Space0
 70
     0
 71
     0
 10
0.0
 20
0.0
 30
0.0
  3
*Paper_Space0
  1

  0
ENDBLK
  5
25
330
23
100
AcDbEntity
  8
0
100
AcDbBlockEnd
  0
BLOCK
  5
38
330
37
100
AcDbEntity
  8
0
100
AcDbBlockBegin
  2
Zuwaku-A3-web
 70
     0
 71
     0
 10
196.9999999999998
 20
134.0
 30
0.0
  3
Zuwaku-A3-web
  1

  0
POINT
  5
3B
330
37
100
AcDbEntity
  8
1
 62
     3
 60
     1
100
AcDbPoint
 10
162.5
 20
20.0
 30
0.0
  0
POINT
  5
3C
330
37
100
AcDbEntity
  8
1
 62
     3
 60
     1
100
AcDbPoint
 10
202.0
 20
15.0
 30
0.0
  0
POINT
  5
3D
330
37
100
AcDbEntity
  8
1
 62
     3
 60
     1
100
AcDbPoint
 10
162.5
 20
15.0
 30
0.0
  0
POINT
  5
3E
330
37
100
AcDbEntity
  8
1
 62
     3
 60
     1
100
AcDbPoint
 10
9.5
 20
12.5
 30
0.0
  0
POINT
  5
3F
330
37
100
AcDbEntity
  8
1
 62
     3
 60
     1
100
AcDbPoint
 10
2.5
 20
12.5
 30
0.0
  0
POINT
  5
40
330
37
100
AcDbEntity
  8
1
 62
     3
 60
     1
100
AcDbPoint
 10
0.0
 20
0.0
 30
0.0
  0
LINE
  5
41
330
37
100
AcDbEntity
  8
1
  6
Continuous
 62
     4
100
AcDbLine
 10
189.4945771572093
 20
2.13397584248199
 30
0.0
 11
195.2266254722454
 21
7.866024157518
 31
0.0
  0
LINE
  5
42
330
37
100
AcDbEntity
  8
1
  6
Continuous
 62
     7
100
AcDbLine
 10
0.0
 20
0.0
 30
0.0
 11
394.0
 21
0.0
 31
0.0
  0
LINE
  5
43
330
37
100
AcDbEntity
  8
1
  6
Continuous
 62
     4
100
AcDbLine
 10
162.5
 20
15.0
 30
0.0
 11
202.0
 21
15.0
 31
0.0
  0
LINE
  5
44
330
37
100
AcDbEntity
  8
1
  6
Continuous
 62
     3
100
AcDbLine
 10
9.5
 20
12.5
 30
0.0
 11
6.0
 21
19.0
 31
0.0
  0
LINE
  5
45
330
37
100
AcDbEntity
  8
1
  6
Continuous
 62
     3
100
AcDbLine
 10
2.5
 20
12.5
 30
0.0
 11
9.5
 21
12.5
 31
0.0
  0
LINE
  5
46
330
37
100
AcDbEntity
  8
1
  6
Continuous
 62
     3
100
AcDbLine
 10
6.0
 20
19.0
 30
0.0
 11
2.5
 21
12.5
 31
0.0
  0
LINE
  5
47
330
37
100
AcDbEntity
  8
1
  6
Continuous
 62
     4
100
AcDbLine
 10
12.0
 20
20.0
 30
0.0
 11
12.0
 21
0.0
 31
0.0
  0
LINE
  5
48
330
37
100
AcDbEntity
  8
1
  6
Continuous
 62
     4
100
AcDbLine
 10
0.0
 20
10.0
 30
0.0
 11
394.0
 21
10.0
 31
0.0
  0
LINE
  5
49
330
37
100
AcDbEntity
  8
1
  6
Continuous
 62
     7
100
AcDbLine
 10
393.9999999999996
 20
268.0
 30
0.0
 11
0.0
 21
268.0
 31
0.0
  0
LINE
  5
4A
330
37
100
AcDbEntity
  8
1
  6
Continuous
 62
     7
100
AcDbLine
 10
394.0
 20
0.0
 30
0.0
 11
393.9999999999996
 21
268.0
 31
0.0
  0
LINE
  5
4B
330
37
100
AcDbEntity
  8
1
  6
Continuous
 62
     4
100
AcDbLine
 10
202.0
 20
0.0
 30
0.0
 11
202.0
 21
20.0
 31
0.0
  0
LINE
  5
4C
330
37
100
AcDbEntity
  8
1
  6
Continuous
 62
     4
100
AcDbLine
 10
162.5
 20
0.0
 30
0.0
 11
162.5
 21
20.0
 31
0.0
  0
LINE
  5
4D
330
37
100
AcDbEntity
  8
1
  6
Continuous
 62
     4
100
AcDbLine
 10
283.0
 20
20.0
 30
0.0
 11
283.0
 21
0.0
 31
0.0
  0
LINE
  5
4E
330
37
100
AcDbEntity
  8
1
  6
Continuous
 62
     4
100
AcDbLine
 10
227.0
 20
20.0
 30
0.0
 11
227.0
 21
0.0
 31
0.0
  0
LINE
  5
4F
330
37
100
AcDbEntity
  8
1
  6
Continuous
 62
     4
100
AcDbLine
 10
170.5
 20
10.0
 30
0.0
 11
170.5
 21
0.0
 31
0.0
  0
LINE
  5
50
330
37
100
AcDbEntity
  8
1
  6
Continuous
 62
     4
100
AcDbLine
 10
66.0
 20
20.0
 30
0.0
 11
66.0
 21
0.0
 31
0.0
  0
LINE
  5
51
330
37
100
AcDbEntity
  8
1
  6
Continuous
 62
     7
100
AcDbLine
 10
0.0
 20
268.0
 30
0.0
 11
0.0
 21
0.0
 31
0.0
  0
LINE
  5
52
330
37
100
AcDbEntity
  8
1
  6
Continuous
 62
     4
100
AcDbLine
 10
173.7445771572093
 20
2.13397584248199
 30
0.0
 11
179.4766254722454
 21
7.866024157518
 31
0.0
  0
LINE
  5
53
330
37
100
AcDbEntity
  8
1
  6
Continuous
 62
     4
100
AcDbLine
 10
394.0
 20
20.0
 30
0.0
 11
0.0
 21
20.0
 31
0.0
  0
LINE
  5
54
330
37
100
AcDbEntity
  8
1
  6
Continuous
 62
     4
100
AcDbLine
 10
295.0
 20
20.0
 30
0.0
 11
295.0
 21
0.0
 31
0.0
  0
MTEXT
  5
56
330
37
100
AcDbEntity
  8
1
 62
     2
100
AcDbMText
 10
180.9766254722454
 20
3.75
 30
0.0
 40
4.0
 41
0.0
 71
     5
 72
     1
  1
1
  7
CONVERTER_1
 73
     1
 44
0.60024009603842
  0
MTEXT
  5
57
330
37
100
AcDbEntity
  8
1
 62
     2
100
AcDbMText
 10
173.183432867907
 20
6.25
 30
0.0
 40
4.0
 41
0.0
 71
     5
 72
     1
  1
1
  7
CONVERTER_1
 73
     1
 44
0.60024009603842
  0
MTEXT
  5
59
330
37
100
AcDbEntity
  8
1
 62
     2
100
AcDbMText
 10
289.0
 20
2.75
 30
0.0
 40
3.5
 41
0.0
 71
     5
 72
     1
  1
番号
  7
CONVERTER_2
 73
     1
 44
0.78031212484994
  0
MTEXT
  5
5A
330
37
100
AcDbEntity
  8
1
 62
     2
100
AcDbMText
 10
166.5
 20
2.75
 30
0.0
 40
3.5
 41
0.0
 71
     5
 72
     1
  1
度
  7
CONVERTER_2
 73
     1
 44
0.78031212484994
  0
MTEXT
  5
5C
330
37
100
AcDbEntity
  8
1
 62
     2
100
AcDbMText
 10
5.67807803017169
 20
2.75
 30
0.0
 40
3.5
 41
0.0
 71
     5
 72
     1
  1
番号
  7
CONVERTER_3
 73
     1
 44
0.78031212484994
  0
MTEXT
  5
5D
330
37
100
AcDbEntity
  8
1
 62
     7
100
AcDbMText
 10
114.25
 20
15.0
 30
0.0
 40
5.0
 41
0.0
 71
     5
 72
     1
  1
技術情報サービス
  7
CONVERTER_3
 73
     1
 44
1.20048019207683
  0
MTEXT
  5
5F
330
37
100
AcDbEntity
  8
1
 62
     2
100
AcDbMText
 10
214.5
 20
15.0
 30
0.0
 40
4.0
 41
0.0
 71
     5
 72
     1
  1
シリーズ名
  7
CONVERTER_4
 73
     1
 44
1.32052821128451
  0
MTEXT
  5
60
330
37
100
AcDbEntity
  8
1
 62
     2
100
AcDbMText
 10
214.5
 20
5.0
 30
0.0
 40
4.0
 41
0.0
 71
     5
 72
     1
  1
機　種
  7
CONVERTER_3
 73
     1
 44
1.32052821128451
  0
MTEXT
  5
61
330
37
100
AcDbEntity
  8
1
 62
     2
100
AcDbMText
 10
189.75
 20
6.5
 30
0.0
 40
4.0
 41
0.0
 71
     5
 72
     1
  1
1
  7
CONVERTER_1
 73
     1
 44
1.32052821128451
  0
MTEXT
  5
63
330
37
100
AcDbEntity
  8
1
 62
     7
100
AcDbMText
 10
114.25
 20
5.0
 30
0.0
 40
4.0
 41
0.0
 71
     5
 72
     1
  1
MARUYASU KIKAI CO.,LTD.
  7
CONVERTER_5
 73
     1
 44
1.32052821128451
  0
MTEXT
  5
64
330
37
100
AcDbEntity
  8
1
 62
     2
100
AcDbMText
 10
6.0
 20
7.25
 30
0.0
 40
3.5
 41
0.0
 71
     5
 72
     1
  1
改訂
  7
CONVERTER_3
 73
     1
 44
0.78031212484994
  0
MTEXT
  5
65
330
37
100
AcDbEntity
  8
1
 62
     2
100
AcDbMText
 10
39.0
 20
5.0
 30
0.0
 40
3.5
 41
0.0
 71
     5
 72
     1
  1
改　 訂　 記　 事
  7
CONVERTER_3
 73
     1
 44
1.32052821128451
  0
MTEXT
  5
66
330
37
100
AcDbEntity
  8
1
 62
     2
100
AcDbMText
 10
166.5
 20
7.25
 30
0.0
 40
3.5
 41
0.0
 71
     5
 72
     1
  1
尺
  7
CONVERTER_2
 73
     1
 44
0.78031212484994
  0
MTEXT
  5
67
330
37
100
AcDbEntity
  8
1
 62
     2
100
AcDbMText
 10
182.25
 20
17.5
 30
0.0
 40
3.5
 41
0.0
 71
     5
 72
     1
  1
年　　月　　日
  7
CONVERTER_3
 73
     1
 44
0.78031212484994
  0
MTEXT
  5
68
330
37
100
AcDbEntity
  8
1
 62
     2
100
AcDbMText
 10
289.0
 20
7.25
 30
0.0
 40
3.5
 41
0.0
 71
     5
 72
     1
  1
図面
  7
CONVERTER_2
 73
     1
 44
0.78031212484994
  0
MTEXT
  5
69
330
37
100
AcDbEntity
  8
1
 62
     2
100
AcDbMText
 10
289.0
 20
15.0
 30
0.0
 40
4.0
 41
0.0
 71
     5
 72
     1
  1
図名
  7
CONVERTER_3
 73
     1
 44
1.32052821128451
  0
MTEXT
  5
6A
330
37
100
AcDbEntity
  8
1
 62
     4
100
AcDbMText
 10
393.4565543923691
 20
-0.25615332095569
 30
0.0
 40
2.0
 41
0.0
 71
     3
 72
     1
  1
A3
  7
CONVERTER_1
 73
     1
 44
1.32052821128451
  0
ENDBLK
  5
39
330
37
100
AcDbEntity
  8
0
100
AcDbBlockEnd
  0
BLOCK
  5
2A9
330
2A0
100
AcDbEntity
  8
0
100
AcDbBlockBegin
  2
*D02
 70
     1
 71
     0
 10
0.0
 20
0.0
 30
0.0
  3
*D02
  1

  0
LINE
  5
2A1
330
2A0
100
AcDbEntity
  8
1
  6
Continuous
 62
     2
100
AcDbLine
 10
113.7958893098333
 20
79.698719975072
 30
0.0
 11
113.7958893098333
 21
144.1987199750722
 31
0.0
  0
LINE
  5
2A2
330
2A0
100
AcDbEntity
  8
1
  6
Continuous
 62
     2
100
AcDbLine
 10
144.7958893098333
 20
144.1987199750722
 30
0.0
 11
112.7958893098333
 21
144.1987199750722
 31
0.0
  0
LINE
  5
2A3
330
2A0
100
AcDbEntity
  8
1
  6
Continuous
 62
     2
100
AcDbLine
 10
146.5458893098332
 20
79.698719975072
 30
0.0
 11
112.7958893098333
 21
79.698719975072
 31
0.0
  0
LINE
  5
2A4
330
2A0
100
AcDbEntity
  8
1
 62
     2
100
AcDbLine
 10
113.7958893098333
 20
79.698719975072
 30
0.0
 11
112.9384518940537
 21
82.898719975072
 31
0.0
  0
LINE
  5
2A5
330
2A0
100
AcDbEntity
  8
1
 62
     2
100
AcDbLine
 10
113.7958893098333
 20
79.698719975072
 30
0.0
 11
114.6533267256129
 21
82.898719975072
 31
0.0
  0
LINE
  5
2A6
330
2A0
100
AcDbEntity
  8
1
 62
     2
100
AcDbLine
 10
113.7958893098333
 20
144.1987199750722
 30
0.0
 11
114.6533267256129
 21
140.9987199750722
 31
0.0
  0
LINE
  5
2A7
330
2A0
100
AcDbEntity
  8
1
 62
     2
100
AcDbLine
 10
113.7958893098333
 20
144.1987199750722
 30
0.0
 11
112.9384518940537
 21
140.9987199750722
 31
0.0
  0
MTEXT
  5
2A8
330
2A0
100
AcDbEntity
  8
1
 62
     2
100
AcDbMText
 10
112.6158893098333
 20
106.941529779594
 30
0.0
 40
3.2
 41
0.0
 71
     7
 72
     1
  1
64.5
  7
CONVERTER_1
 11
0.0
 21
1.0
 31
0.0
 73
     1
 44
0.60024009603842
  0
ENDBLK
  5
2AA
330
2A0
100
AcDbEntity
  8
0
100
AcDbBlockEnd
  0
BLOCK
  5
2AC
330
2AB
100
AcDbEntity
  8
0
100
AcDbBlockBegin
  2
_Open30
 70
     0
 71
     0
 10
0.0
 20
0.0
 30
0.0
  3
_Open30
  1

  0
LINE
  5
2AE
330
2AB
100
AcDbEntity
  8
0
  6
ByBlock
 62
     0
370
    -2
100
AcDbLine
 10
-1.0
 20
0.267949
 30
0.0
 11
0.0
 21
0.0
 31
0.0
  0
LINE
  5
2AF
330
2AB
100
AcDbEntity
  8
0
  6
ByBlock
 62
     0
370
    -2
100
AcDbLine
 10
0.0
 20
0.0
 30
0.0
 11
-1.0
 21
-0.267949
 31
0.0
  0
LINE
  5
2B0
330
2AB
100
AcDbEntity
  8
0
  6
ByBlock
 62
     0
370
    -2
100
AcDbLine
 10
0.0
 20
0.0
 30
0.0
 11
-1.0
 21
0.0
 31
0.0
  0
ENDBLK
  5
2AD
330
2AB
100
AcDbEntity
  8
0
100
AcDbBlockEnd
  0
BLOCK
  5
2BC
330
2B3
100
AcDbEntity
  8
0
100
AcDbBlockBegin
  2
*D14
 70
     1
 71
     0
 10
0.0
 20
0.0
 30
0.0
  3
*D14
  1

  0
LINE
  5
2B4
330
2B3
100
AcDbEntity
  8
1
  6
Continuous
 62
     2
100
AcDbLine
 10
143.7958893098333
 20
67.698719975072
 30
0.0
 11
177.7958893098333
 21
67.698719975072
 31
0.0
  0
LINE
  5
2B5
330
2B3
100
AcDbEntity
  8
1
  6
Continuous
 62
     2
100
AcDbLine
 10
177.7958893098333
 20
84.1987199750721
 30
0.0
 11
177.7958893098333
 21
66.698719975072
 31
0.0
  0
LINE
  5
2B6
330
2B3
100
AcDbEntity
  8
1
  6
Continuous
 62
     2
100
AcDbLine
 10
143.7958893098333
 20
84.1987199750721
 30
0.0
 11
143.7958893098333
 21
66.698719975072
 31
0.0
  0
LINE
  5
2B7
330
2B3
100
AcDbEntity
  8
1
 62
     2
100
AcDbLine
 10
143.7958893098333
 20
67.698719975072
 30
0.0
 11
146.9958893098333
 21
68.55615739085158
 31
0.0
  0
LINE
  5
2B8
330
2B3
100
AcDbEntity
  8
1
 62
     2
100
AcDbLine
 10
143.7958893098333
 20
67.698719975072
 30
0.0
 11
146.9958893098333
 21
66.84128255929241
 31
0.0
  0
LINE
  5
2B9
330
2B3
100
AcDbEntity
  8
1
 62
     2
100
AcDbLine
 10
177.7958893098333
 20
67.698719975072
 30
0.0
 11
174.5958893098333
 21
66.84128255929241
 31
0.0
  0
LINE
  5
2BA
330
2B3
100
AcDbEntity
  8
1
 62
     2
100
AcDbLine
 10
177.7958893098333
 20
67.698719975072
 30
0.0
 11
174.5958893098333
 21
68.5561573908516
 31
0.0
  0
MTEXT
  5
2BB
330
2B3
100
AcDbEntity
  8
1
 62
     2
100
AcDbMText
 10
158.1065063644521
 20
68.398719975072
 30
0.0
 40
3.2
 41
0.0
 71
     7
 72
     1
  1
34
  7
CONVERTER_1
 11
0.9999999999970621
 21
2.424068405545307E-6
 31
0.0
 73
     1
 44
0.60024009603842
  0
ENDBLK
  5
2BD
330
2B3
100
AcDbEntity
  8
0
100
AcDbBlockEnd
  0
BLOCK
  5
2C9
330
2C0
100
AcDbEntity
  8
0
100
AcDbBlockBegin
  2
*D25
 70
     1
 71
     0
 10
0.0
 20
0.0
 30
0.0
  3
*D25
  1

  0
LINE
  5
2C1
330
2C0
100
AcDbEntity
  8
1
  6
Continuous
 62
     2
100
AcDbLine
 10
135.7958893098333
 20
57.698719975072
 30
0.0
 11
185.7958893098337
 21
57.698719975072
 31
0.0
  0
LINE
  5
2C2
330
2C0
100
AcDbEntity
  8
1
  6
Continuous
 62
     2
100
AcDbLine
 10
185.7958893098337
 20
87.1987199750721
 30
0.0
 11
185.7958893098337
 21
56.698719975072
 31
0.0
  0
LINE
  5
2C3
330
2C0
100
AcDbEntity
  8
1
  6
Continuous
 62
     2
100
AcDbLine
 10
135.7958893098333
 20
87.1987199750721
 30
0.0
 11
135.7958893098333
 21
56.698719975072
 31
0.0
  0
LINE
  5
2C4
330
2C0
100
AcDbEntity
  8
1
 62
     2
100
AcDbLine
 10
135.7958893098333
 20
57.698719975072
 30
0.0
 11
138.9958893098333
 21
58.5561573908516
 31
0.0
  0
LINE
  5
2C5
330
2C0
100
AcDbEntity
  8
1
 62
     2
100
AcDbLine
 10
135.7958893098333
 20
57.698719975072
 30
0.0
 11
138.9958893098333
 21
56.84128255929241
 31
0.0
  0
LINE
  5
2C6
330
2C0
100
AcDbEntity
  8
1
 62
     2
100
AcDbLine
 10
185.7958893098337
 20
57.698719975072
 30
0.0
 11
182.5958893098337
 21
56.84128255929241
 31
0.0
  0
LINE
  5
2C7
330
2C0
100
AcDbEntity
  8
1
 62
     2
100
AcDbLine
 10
185.7958893098337
 20
57.698719975072
 30
0.0
 11
182.5958893098337
 21
58.5561573908516
 31
0.0
  0
MTEXT
  5
2C8
330
2C0
100
AcDbEntity
  8
1
 62
     2
100
AcDbMText
 10
157.2702768106761
 20
58.398719975072
 30
0.0
 40
3.2
 41
0.0
 71
     7
 72
     1
  1
50
  7
CONVERTER_1
 11
0.9999999999970621
 21
2.424068405545307E-6
 31
0.0
 73
     1
 44
0.60024009603842
  0
ENDBLK
  5
2CA
330
2C0
100
AcDbEntity
  8
0
100
AcDbBlockEnd
  0
BLOCK
  5
2D6
330
2CD
100
AcDbEntity
  8
0
100
AcDbBlockBegin
  2
*D36
 70
     1
 71
     0
 10
0.0
 20
0.0
 30
0.0
  3
*D36
  1

  0
LINE
  5
2CE
330
2CD
100
AcDbEntity
  8
1
  6
Continuous
 62
     2
100
AcDbLine
 10
217.1930962133777
 20
57.89871997507201
 30
0.0
 11
240.6930962133777
 21
57.89871997507201
 31
0.0
  0
LINE
  5
2CF
330
2CD
100
AcDbEntity
  8
1
  6
Continuous
 62
     2
100
AcDbLine
 10
240.6930962133777
 20
82.3987199750721
 30
0.0
 11
240.6930962133777
 21
56.89871997507201
 31
0.0
  0
LINE
  5
2D0
330
2CD
100
AcDbEntity
  8
1
  6
Continuous
 62
     2
100
AcDbLine
 10
217.1930962133777
 20
84.398719975072
 30
0.0
 11
217.1930962133777
 21
56.89871997507201
 31
0.0
  0
LINE
  5
2D1
330
2CD
100
AcDbEntity
  8
1
 62
     2
100
AcDbLine
 10
217.1930962133777
 20
57.89871997507201
 30
0.0
 11
220.3930962133777
 21
58.7561573908516
 31
0.0
  0
LINE
  5
2D2
330
2CD
100
AcDbEntity
  8
1
 62
     2
100
AcDbLine
 10
217.1930962133777
 20
57.89871997507201
 30
0.0
 11
220.3930962133777
 21
57.04128255929241
 31
0.0
  0
LINE
  5
2D3
330
2CD
100
AcDbEntity
  8
1
 62
     2
100
AcDbLine
 10
240.6930962133777
 20
57.89871997507201
 30
0.0
 11
237.4930962133777
 21
57.04128255929241
 31
0.0
  0
LINE
  5
2D4
330
2CD
100
AcDbEntity
  8
1
 62
     2
100
AcDbLine
 10
240.6930962133777
 20
57.89871997507201
 30
0.0
 11
237.4930962133777
 21
58.7561573908516
 31
0.0
  0
MTEXT
  5
2D5
330
2CD
100
AcDbEntity
  8
1
 62
     2
100
AcDbMText
 10
224.5274862250231
 20
58.598719975072
 30
0.0
 40
3.2
 41
0.0
 71
     7
 72
     1
  1
23.5
  7
CONVERTER_1
 11
0.9999999999970621
 21
2.424068405545307E-6
 31
0.0
 73
     1
 44
0.60024009603842
  0
ENDBLK
  5
2D7
330
2CD
100
AcDbEntity
  8
0
100
AcDbBlockEnd
  0
BLOCK
  5
2E5
330
2DA
100
AcDbEntity
  8
0
100
AcDbBlockBegin
  2
*D47
 70
     1
 71
     0
 10
0.0
 20
0.0
 30
0.0
  3
*D47
  1

  0
LINE
  5
2DB
330
2DA
100
AcDbEntity
  8
1
  6
Continuous
 62
     2
100
AcDbLine
 10
225.1201600441725
 20
67.89871997507198
 30
0.0
 11
237.7930962133777
 21
67.89871997507198
 31
0.0
  0
LINE
  5
2DC
330
2DA
100
AcDbEntity
  8
1
  6
Continuous
 62
     2
100
AcDbLine
 10
237.7930962133777
 20
67.89871997507198
 30
0.0
 11
240.6930962133777
 21
67.89871997507198
 31
0.0
  0
LINE
  5
2DD
330
2DA
100
AcDbEntity
  8
1
  6
Continuous
 62
     2
100
AcDbLine
 10
240.6930962133777
 20
67.89871997507198
 30
0.0
 11
247.0930962133777
 21
67.89871997507198
 31
0.0
  0
LINE
  5
2DE
330
2DA
100
AcDbEntity
  8
1
  6
Continuous
 62
     2
100
AcDbLine
 10
240.6930962133777
 20
82.3987199750721
 30
0.0
 11
240.6930962133777
 21
66.89871997507198
 31
0.0
  0
LINE
  5
2DF
330
2DA
100
AcDbEntity
  8
1
  6
Continuous
 62
     2
100
AcDbLine
 10
237.7930962133777
 20
82.3987199750721
 30
0.0
 11
237.7930962133777
 21
66.89871997507198
 31
0.0
  0
LINE
  5
2E0
330
2DA
100
AcDbEntity
  8
1
 62
     2
100
AcDbLine
 10
237.7930962133777
 20
67.89871997507198
 30
0.0
 11
234.5930962133777
 21
67.0412825592924
 31
0.0
  0
LINE
  5
2E1
330
2DA
100
AcDbEntity
  8
1
 62
     2
100
AcDbLine
 10
237.7930962133777
 20
67.89871997507198
 30
0.0
 11
234.5930962133777
 21
68.75615739085158
 31
0.0
  0
LINE
  5
2E2
330
2DA
100
AcDbEntity
  8
1
 62
     2
100
AcDbLine
 10
240.6930962133777
 20
67.89871997507198
 30
0.0
 11
243.8930962133777
 21
68.75615739085157
 31
0.0
  0
LINE
  5
2E3
330
2DA
100
AcDbEntity
  8
1
 62
     2
100
AcDbLine
 10
240.6930962133777
 20
67.89871997507198
 30
0.0
 11
243.8930962133777
 21
67.0412825592924
 31
0.0
  0
MTEXT
  5
2E4
330
2DA
100
AcDbEntity
  8
1
 62
     2
100
AcDbMText
 10
223.7832711552991
 20
69.7871424649866
 30
0.0
 40
3.2
 41
0.0
 71
     7
 72
     1
  1
\C2;ｔ\C2;2.9
  7
CONVERTER_3
 11
0.9999999999970621
 21
2.424068405545307E-6
 31
0.0
 73
     1
 44
0.60024009603842
  0
ENDBLK
  5
2E6
330
2DA
100
AcDbEntity
  8
0
100
AcDbBlockEnd
  0
BLOCK
  5
2F2
330
2E9
100
AcDbEntity
  8
0
100
AcDbBlockBegin
  2
*D58
 70
     1
 71
     0
 10
0.0
 20
0.0
 30
0.0
  3
*D58
  1

  0
LINE
  5
2EA
330
2E9
100
AcDbEntity
  8
1
  6
Continuous
 62
     2
100
AcDbLine
 10
197.7958893098337
 20
89.19871997507211
 30
0.0
 11
197.7958893098337
 21
134.1987199750722
 31
0.0
  0
LINE
  5
2EB
330
2E9
100
AcDbEntity
  8
1
  6
Continuous
 62
     2
100
AcDbLine
 10
169.5278121770031
 20
134.1987199750722
 30
0.0
 11
198.7958893098337
 21
134.1987199750722
 31
0.0
  0
LINE
  5
2EC
330
2E9
100
AcDbEntity
  8
1
  6
Continuous
 62
     2
100
AcDbLine
 10
182.7958893098333
 20
89.19871997507211
 30
0.0
 11
198.7958893098337
 21
89.19871997507211
 31
0.0
  0
LINE
  5
2ED
330
2E9
100
AcDbEntity
  8
1
 62
     2
100
AcDbLine
 10
197.7958893098337
 20
89.19871997507211
 30
0.0
 11
196.9384518940541
 21
92.39871997507211
 31
0.0
  0
LINE
  5
2EE
330
2E9
100
AcDbEntity
  8
1
 62
     2
100
AcDbLine
 10
197.7958893098337
 20
89.19871997507211
 30
0.0
 11
198.6533267256133
 21
92.39871997507211
 31
0.0
  0
LINE
  5
2EF
330
2E9
100
AcDbEntity
  8
1
 62
     2
100
AcDbLine
 10
197.7958893098337
 20
134.1987199750722
 30
0.0
 11
198.6533267256133
 21
130.9987199750722
 31
0.0
  0
LINE
  5
2F0
330
2E9
100
AcDbEntity
  8
1
 62
     2
100
AcDbLine
 10
197.7958893098337
 20
134.1987199750722
 30
0.0
 11
196.9384518940541
 21
130.9987199750722
 31
0.0
  0
MTEXT
  5
2F1
330
2E9
100
AcDbEntity
  8
1
 62
     2
100
AcDbMText
 10
196.7958893098337
 20
110.452155897662
 30
0.0
 40
3.2
 41
0.0
 71
     7
 72
     1
  1
45
  7
CONVERTER_1
 11
0.0
 21
1.0
 31
0.0
 73
     1
 44
0.60024009603842
  0
ENDBLK
  5
2F3
330
2E9
100
AcDbEntity
  8
0
100
AcDbBlockEnd
  0
BLOCK
  5
2FF
330
2F6
100
AcDbEntity
  8
0
100
AcDbBlockBegin
  2
*D69
 70
     1
 71
     0
 10
0.0
 20
0.0
 30
0.0
  3
*D69
  1

  0
LINE
  5
2F7
330
2F6
100
AcDbEntity
  8
1
  6
Continuous
 62
     2
100
AcDbLine
 10
387.0978890876567
 20
204.2878507000849
 30
0.0
 11
377.0978890876566
 21
204.2878507000849
 31
0.0
  0
LINE
  5
2F8
330
2F6
100
AcDbEntity
  8
1
  6
Continuous
 62
     2
100
AcDbLine
 10
377.0978890876566
 20
216.8157147000849
 30
0.0
 11
377.0978890876566
 21
203.2878507000849
 31
0.0
  0
LINE
  5
2F9
330
2F6
100
AcDbEntity
  8
1
  6
Continuous
 62
     2
100
AcDbLine
 10
387.0978890876567
 20
221.2878507000849
 30
0.0
 11
387.0978890876567
 21
203.2878507000849
 31
0.0
  0
LINE
  5
2FA
330
2F6
100
AcDbEntity
  8
1
 62
     2
100
AcDbLine
 10
387.0978890876567
 20
204.2878507000849
 30
0.0
 11
383.8978890876567
 21
203.4304132843053
 31
0.0
  0
LINE
  5
2FB
330
2F6
100
AcDbEntity
  8
1
 62
     2
100
AcDbLine
 10
387.0978890876567
 20
204.2878507000849
 30
0.0
 11
383.8978890876567
 21
205.1452881158645
 31
0.0
  0
LINE
  5
2FC
330
2F6
100
AcDbEntity
  8
1
 62
     2
100
AcDbLine
 10
377.0978890876566
 20
204.2878507000849
 30
0.0
 11
380.2978890876566
 21
205.1452881158645
 31
0.0
  0
LINE
  5
2FD
330
2F6
100
AcDbEntity
  8
1
 62
     2
100
AcDbLine
 10
377.0978890876566
 20
204.2878507000849
 30
0.0
 11
380.2978890876566
 21
203.4304132843053
 31
0.0
  0
MTEXT
  5
2FE
330
2F6
100
AcDbEntity
  8
1
 62
     2
100
AcDbMText
 10
380.3366726296962
 20
206.311261443279
 30
0.0
 40
3.2
 41
0.0
 71
     7
 72
     1
  1
10
  7
CONVERTER_1
 11
0.9999999999970621
 21
2.424068405545307E-6
 31
0.0
 73
     1
 44
0.60024009603842
  0
ENDBLK
  5
300
330
2F6
100
AcDbEntity
  8
0
100
AcDbBlockEnd
  0
BLOCK
  5
30C
330
303
100
AcDbEntity
  8
0
100
AcDbBlockBegin
  2
*D710
 70
     1
 71
     0
 10
0.0
 20
0.0
 30
0.0
  3
*D710
  1

  0
LINE
  5
304
330
303
100
AcDbEntity
  8
1
  6
Continuous
 62
     2
100
AcDbLine
 10
367.1399642218248
 20
228.2878507000849
 30
0.0
 11
367.1399642218248
 21
216.2878507000849
 31
0.0
  0
LINE
  5
305
330
303
100
AcDbEntity
  8
1
  6
Continuous
 62
     2
100
AcDbLine
 10
380.0978890876566
 20
216.2878507000849
 30
0.0
 11
366.1399642218248
 21
216.2878507000849
 31
0.0
  0
LINE
  5
306
330
303
100
AcDbEntity
  8
1
  6
Continuous
 62
     2
100
AcDbLine
 10
380.0978890876566
 20
228.2878507000849
 30
0.0
 11
366.1399642218248
 21
228.2878507000849
 31
0.0
  0
LINE
  5
307
330
303
100
AcDbEntity
  8
1
 62
     2
100
AcDbLine
 10
367.1399642218248
 20
228.2878507000849
 30
0.0
 11
367.9974016376044
 21
225.0878507000849
 31
0.0
  0
LINE
  5
308
330
303
100
AcDbEntity
  8
1
 62
     2
100
AcDbLine
 10
367.1399642218248
 20
228.2878507000849
 30
0.0
 11
366.2825268060452
 21
225.0878507000849
 31
0.0
  0
LINE
  5
309
330
303
100
AcDbEntity
  8
1
 62
     2
100
AcDbLine
 10
367.1399642218248
 20
216.2878507000849
 30
0.0
 11
366.2825268060452
 21
219.4878507000848
 31
0.0
  0
LINE
  5
30A
330
303
100
AcDbEntity
  8
1
 62
     2
100
AcDbLine
 10
367.1399642218248
 20
216.2878507000849
 30
0.0
 11
367.9974016376044
 21
219.4878507000848
 31
0.0
  0
MTEXT
  5
30B
330
303
100
AcDbEntity
  8
1
 62
     2
100
AcDbMText
 10
366.1399642218248
 20
215.7458056690792
 30
0.0
 40
3.2
 41
0.0
 71
     7
 72
     1
  1
\C2;φ\C2;12
  7
CONVERTER_3
 11
0.0
 21
1.0
 31
0.0
 73
     1
 44
0.60024009603842
  0
ENDBLK
  5
30D
330
303
100
AcDbEntity
  8
0
100
AcDbBlockEnd
  0
BLOCK
  5
31A
330
310
100
AcDbEntity
  8
0
100
AcDbBlockBegin
  2
*D811
 70
     1
 71
     0
 10
0.0
 20
0.0
 30
0.0
  3
*D811
  1

  0
LINE
  5
311
330
310
100
AcDbEntity
  8
1
  6
Continuous
 62
     2
100
AcDbLine
 10
326.8159111722858
 20
229.674119262171
 30
0.0
 11
326.8159111722858
 21
257.887850700085
 31
0.0
  0
LINE
  5
312
330
310
100
AcDbEntity
  8
1
  6
Continuous
 62
     2
100
AcDbLine
 10
326.8159111722858
 20
186.687850700085
 30
0.0
 11
326.8159111722858
 21
213.6802299092086
 31
0.0
  0
LINE
  5
313
330
310
100
AcDbEntity
  8
1
  6
Continuous
 62
     2
100
AcDbLine
 10
284.5978890876569
 20
186.687850700085
 30
0.0
 11
327.8159111722858
 21
186.687850700085
 31
0.0
  0
LINE
  5
314
330
310
100
AcDbEntity
  8
1
  6
Continuous
 62
     2
100
AcDbLine
 10
284.5978890876569
 20
257.887850700085
 30
0.0
 11
327.8159111722858
 21
257.887850700085
 31
0.0
  0
LINE
  5
315
330
310
100
AcDbEntity
  8
1
 62
     2
100
AcDbLine
 10
326.8159111722858
 20
186.687850700085
 30
0.0
 11
325.9584737565062
 21
189.887850700085
 31
0.0
  0
LINE
  5
316
330
310
100
AcDbEntity
  8
1
 62
     2
100
AcDbLine
 10
326.8159111722858
 20
186.687850700085
 30
0.0
 11
327.6733485880654
 21
189.887850700085
 31
0.0
  0
LINE
  5
317
330
310
100
AcDbEntity
  8
1
 62
     2
100
AcDbLine
 10
326.8159111722858
 20
257.887850700085
 30
0.0
 11
327.6733485880654
 21
254.687850700085
 31
0.0
  0
LINE
  5
318
330
310
100
AcDbEntity
  8
1
 62
     2
100
AcDbLine
 10
326.8159111722858
 20
257.887850700085
 30
0.0
 11
325.9584737565062
 21
254.687850700085
 31
0.0
  0
MTEXT
  5
319
330
310
100
AcDbEntity
  8
1
 62
     2
100
AcDbMText
 10
324.643503925038
 20
225.4418116182403
 30
0.0
 40
3.2
 41
0.0
 71
     7
 72
     1
  1
\C2;φ\C2;71.2\C2;　(D寸法）
  7
CONVERTER_3
 11
0.0
 21
1.0
 31
0.0
 73
     1
 44
0.60024009603842
  0
ENDBLK
  5
31B
330
310
100
AcDbEntity
  8
0
100
AcDbBlockEnd
  0
BLOCK
  5
327
330
31E
100
AcDbEntity
  8
0
100
AcDbBlockBegin
  2
*D912
 70
     1
 71
     0
 10
0.0
 20
0.0
 30
0.0
  3
*D912
  1

  0
LINE
  5
31F
330
31E
100
AcDbEntity
  8
1
  6
Continuous
 62
     2
100
AcDbLine
 10
96.81923157991398
 20
213.0294305096295
 30
0.0
 11
96.81923157991398
 21
255.7294305096295
 31
0.0
  0
LINE
  5
320
330
31E
100
AcDbEntity
  8
1
  6
Continuous
 62
     2
100
AcDbLine
 10
64.53758170844263
 20
243.9798708434105
 30
0.0
 11
97.75892420069988
 21
256.0714506529552
 31
0.0
  0
LINE
  5
321
330
31E
100
AcDbEntity
  8
1
  6
Continuous
 62
     2
100
AcDbLine
 10
64.53758170844263
 20
201.2798708434106
 30
0.0
 11
97.75892420069988
 21
213.3714506529552
 31
0.0
  0
LINE
  5
322
330
31E
100
AcDbEntity
  8
1
 62
     2
100
AcDbLine
 10
96.81923157991398
 20
213.0294305096295
 30
0.0
 11
95.96179416413439
 21
216.2294305096295
 31
0.0
  0
LINE
  5
323
330
31E
100
AcDbEntity
  8
1
 62
     2
100
AcDbLine
 10
96.81923157991398
 20
213.0294305096295
 30
0.0
 11
97.67666899569356
 21
216.2294305096295
 31
0.0
  0
LINE
  5
324
330
31E
100
AcDbEntity
  8
1
 62
     2
100
AcDbLine
 10
96.81923157991398
 20
255.7294305096295
 30
0.0
 11
97.67666899569356
 21
252.5294305096295
 31
0.0
  0
LINE
  5
325
330
31E
100
AcDbEntity
  8
1
 62
     2
100
AcDbLine
 10
96.81923157991398
 20
255.7294305096295
 30
0.0
 11
95.96179416413439
 21
252.5294305096295
 31
0.0
  0
MTEXT
  5
326
330
31E
100
AcDbEntity
  8
1
 62
     2
100
AcDbMText
 10
95.81923157991398
 20
221.8190394498462
 30
0.0
 40
3.2
 41
0.0
 71
     7
 72
     1
  1
\C2;φ\C2;42.7
  7
CONVERTER_3
 11
0.0
 21
1.0
 31
0.0
 73
     1
 44
0.60024009603842
  0
ENDBLK
  5
328
330
31E
100
AcDbEntity
  8
0
100
AcDbBlockEnd
  0
BLOCK
  5
334
330
32B
100
AcDbEntity
  8
0
100
AcDbBlockBegin
  2
*D1013
 70
     1
 71
     0
 10
0.0
 20
0.0
 30
0.0
  3
*D1013
  1

  0
LINE
  5
32C
330
32B
100
AcDbEntity
  8
1
  6
Continuous
 62
     2
100
AcDbLine
 10
23.03788908765671
 20
204.2878507000849
 30
0.0
 11
33.03788908765674
 21
204.2878507000849
 31
0.0
  0
LINE
  5
32D
330
32B
100
AcDbEntity
  8
1
  6
Continuous
 62
     2
100
AcDbLine
 10
33.03788908765674
 20
216.8157147000849
 30
0.0
 11
33.03788908765674
 21
203.2878507000849
 31
0.0
  0
LINE
  5
32E
330
32B
100
AcDbEntity
  8
1
  6
Continuous
 62
     2
100
AcDbLine
 10
23.03788908765671
 20
221.2878507000849
 30
0.0
 11
23.03788908765671
 21
203.2878507000849
 31
0.0
  0
LINE
  5
32F
330
32B
100
AcDbEntity
  8
1
 62
     2
100
AcDbLine
 10
23.03788908765671
 20
204.2878507000849
 30
0.0
 11
26.23788908765671
 21
205.1452881158645
 31
0.0
  0
LINE
  5
330
330
32B
100
AcDbEntity
  8
1
 62
     2
100
AcDbLine
 10
23.03788908765671
 20
204.2878507000849
 30
0.0
 11
26.23788908765671
 21
203.4304132843053
 31
0.0
  0
LINE
  5
331
330
32B
100
AcDbEntity
  8
1
 62
     2
100
AcDbLine
 10
33.03788908765674
 20
204.2878507000849
 30
0.0
 11
29.83788908765674
 21
203.4304132843053
 31
0.0
  0
LINE
  5
332
330
32B
100
AcDbEntity
  8
1
 62
     2
100
AcDbLine
 10
33.03788908765674
 20
204.2878507000849
 30
0.0
 11
29.83788908765674
 21
205.1452881158645
 31
0.0
  0
MTEXT
  5
333
330
32B
100
AcDbEntity
  8
1
 62
     2
100
AcDbMText
 10
25.95910554561714
 20
206.311261443279
 30
0.0
 40
3.2
 41
0.0
 71
     7
 72
     1
  1
10
  7
CONVERTER_1
 11
0.9999999999970621
 21
2.424068405545307E-6
 31
0.0
 73
     1
 44
0.60024009603842
  0
ENDBLK
  5
335
330
32B
100
AcDbEntity
  8
0
100
AcDbBlockEnd
  0
BLOCK
  5
341
330
338
100
AcDbEntity
  8
0
100
AcDbBlockBegin
  2
*D1114
 70
     1
 71
     0
 10
0.0
 20
0.0
 30
0.0
  3
*D1114
  1

  0
LINE
  5
339
330
338
100
AcDbEntity
  8
1
  6
Continuous
 62
     2
100
AcDbLine
 10
11.03788908765671
 20
228.2878507000849
 30
0.0
 11
11.03788908765671
 21
216.2878507000849
 31
0.0
  0
LINE
  5
33A
330
338
100
AcDbEntity
  8
1
  6
Continuous
 62
     2
100
AcDbLine
 10
28.03788908765674
 20
216.2878507000849
 30
0.0
 11
10.03788908765671
 21
216.2878507000849
 31
0.0
  0
LINE
  5
33B
330
338
100
AcDbEntity
  8
1
  6
Continuous
 62
     2
100
AcDbLine
 10
28.03788908765674
 20
228.2878507000849
 30
0.0
 11
10.03788908765671
 21
228.2878507000849
 31
0.0
  0
LINE
  5
33C
330
338
100
AcDbEntity
  8
1
 62
     2
100
AcDbLine
 10
11.03788908765671
 20
228.2878507000849
 30
0.0
 11
11.8953265034363
 21
225.0878507000849
 31
0.0
  0
LINE
  5
33D
330
338
100
AcDbEntity
  8
1
 62
     2
100
AcDbLine
 10
11.03788908765671
 20
228.2878507000849
 30
0.0
 11
10.18045167187712
 21
225.0878507000849
 31
0.0
  0
LINE
  5
33E
330
338
100
AcDbEntity
  8
1
 62
     2
100
AcDbLine
 10
11.03788908765671
 20
216.2878507000849
 30
0.0
 11
10.18045167187712
 21
219.4878507000849
 31
0.0
  0
LINE
  5
33F
330
338
100
AcDbEntity
  8
1
 62
     2
100
AcDbLine
 10
11.03788908765671
 20
216.2878507000849
 30
0.0
 11
11.8953265034363
 21
219.4878507000849
 31
0.0
  0
MTEXT
  5
340
330
338
100
AcDbEntity
  8
1
 62
     2
100
AcDbMText
 10
8.15799642218213
 20
216.9087752576303
 30
0.0
 40
3.2
 41
0.0
 71
     7
 72
     1
  1
\C2;φ\C2;12
  7
CONVERTER_3
 11
0.0
 21
1.0
 31
0.0
 73
     1
 44
0.60024009603842
  0
ENDBLK
  5
342
330
338
100
AcDbEntity
  8
0
100
AcDbBlockEnd
  0
BLOCK
  5
34E
330
345
100
AcDbEntity
  8
0
100
AcDbBlockBegin
  2
*D1215
 70
     1
 71
     0
 10
0.0
 20
0.0
 30
0.0
  3
*D1215
  1

  0
LINE
  5
346
330
345
100
AcDbEntity
  8
1
  6
Continuous
 62
     2
100
AcDbLine
 10
123.7958893098333
 20
79.698719975072
 30
0.0
 11
123.7958893098333
 21
134.1987199750722
 31
0.0
  0
LINE
  5
347
330
345
100
AcDbEntity
  8
1
  6
Continuous
 62
     2
100
AcDbLine
 10
152.1156331443041
 20
134.1987199750722
 30
0.0
 11
122.7958893098333
 21
134.1987199750722
 31
0.0
  0
LINE
  5
348
330
345
100
AcDbEntity
  8
1
  6
Continuous
 62
     2
100
AcDbLine
 10
146.5458893098332
 20
79.698719975072
 30
0.0
 11
122.7958893098333
 21
79.698719975072
 31
0.0
  0
LINE
  5
349
330
345
100
AcDbEntity
  8
1
 62
     2
100
AcDbLine
 10
123.7958893098333
 20
79.698719975072
 30
0.0
 11
122.9384518940537
 21
82.898719975072
 31
0.0
  0
LINE
  5
34A
330
345
100
AcDbEntity
  8
1
 62
     2
100
AcDbLine
 10
123.7958893098333
 20
79.698719975072
 30
0.0
 11
124.6533267256129
 21
82.898719975072
 31
0.0
  0
LINE
  5
34B
330
345
100
AcDbEntity
  8
1
 62
     2
100
AcDbLine
 10
123.7958893098333
 20
134.1987199750722
 30
0.0
 11
124.6533267256129
 21
130.9987199750722
 31
0.0
  0
LINE
  5
34C
330
345
100
AcDbEntity
  8
1
 62
     2
100
AcDbLine
 10
123.7958893098333
 20
134.1987199750722
 30
0.0
 11
122.9384518940537
 21
130.9987199750722
 31
0.0
  0
MTEXT
  5
34D
330
345
100
AcDbEntity
  8
1
 62
     2
100
AcDbMText
 10
123.0958893098333
 20
101.126681836839
 30
0.0
 40
3.2
 41
0.0
 71
     7
 72
     1
  1
54.5
  7
CONVERTER_1
 11
0.0
 21
1.0
 31
0.0
 73
     1
 44
0.60024009603842
  0
ENDBLK
  5
34F
330
345
100
AcDbEntity
  8
0
100
AcDbBlockEnd
  0
BLOCK
  5
35B
330
352
100
AcDbEntity
  8
0
100
AcDbBlockBegin
  2
*D1316
 70
     1
 71
     0
 10
0.0
 20
0.0
 30
0.0
  3
*D1316
  1

  0
LINE
  5
353
330
352
100
AcDbEntity
  8
1
  6
Continuous
 62
     2
100
AcDbLine
 10
123.7958893098333
 20
134.1987199750722
 30
0.0
 11
123.7958893098333
 21
144.1987199750722
 31
0.0
  0
LINE
  5
354
330
352
100
AcDbEntity
  8
1
  6
Continuous
 62
     2
100
AcDbLine
 10
144.7958893098333
 20
144.1987199750722
 30
0.0
 11
122.7958893098333
 21
144.1987199750722
 31
0.0
  0
LINE
  5
355
330
352
100
AcDbEntity
  8
1
  6
Continuous
 62
     2
100
AcDbLine
 10
152.1156331443041
 20
134.1987199750722
 30
0.0
 11
122.7958893098333
 21
134.1987199750722
 31
0.0
  0
LINE
  5
356
330
352
100
AcDbEntity
  8
1
 62
     2
100
AcDbLine
 10
123.7958893098333
 20
134.1987199750722
 30
0.0
 11
122.9384518940537
 21
137.3987199750722
 31
0.0
  0
LINE
  5
357
330
352
100
AcDbEntity
  8
1
 62
     2
100
AcDbLine
 10
123.7958893098333
 20
134.1987199750722
 30
0.0
 11
124.6533267256129
 21
137.3987199750722
 31
0.0
  0
LINE
  5
358
330
352
100
AcDbEntity
  8
1
 62
     2
100
AcDbLine
 10
123.7958893098333
 20
144.1987199750722
 30
0.0
 11
124.6533267256129
 21
140.9987199750722
 31
0.0
  0
LINE
  5
359
330
352
100
AcDbEntity
  8
1
 62
     2
100
AcDbLine
 10
123.7958893098333
 20
144.1987199750722
 30
0.0
 11
122.9384518940537
 21
140.9987199750722
 31
0.0
  0
MTEXT
  5
35A
330
352
100
AcDbEntity
  8
1
 62
     2
100
AcDbMText
 10
123.0958893098333
 20
136.517486845783
 30
0.0
 40
3.2
 41
0.0
 71
     7
 72
     1
  1
10
  7
CONVERTER_1
 11
0.0
 21
1.0
 31
0.0
 73
     1
 44
0.60024009603842
  0
ENDBLK
  5
35C
330
352
100
AcDbEntity
  8
0
100
AcDbBlockEnd
  0
BLOCK
  5
368
330
35F
100
AcDbEntity
  8
0
100
AcDbBlockBegin
  2
*D1417
 70
     1
 71
     0
 10
0.0
 20
0.0
 30
0.0
  3
*D1417
  1

  0
LINE
  5
360
330
35F
100
AcDbEntity
  8
1
  6
Continuous
 62
     2
100
AcDbLine
 10
43.59788908765674
 20
174.6878507000849
 30
0.0
 11
58.59788908765674
 21
174.6878507000849
 31
0.0
  0
LINE
  5
361
330
35F
100
AcDbEntity
  8
1
  6
Continuous
 62
     2
100
AcDbLine
 10
58.59788908765674
 20
216.8157147000849
 30
0.0
 11
58.59788908765674
 21
173.6878507000849
 31
0.0
  0
LINE
  5
362
330
35F
100
AcDbEntity
  8
1
  6
Continuous
 62
     2
100
AcDbLine
 10
43.59788908765674
 20
216.2878507000849
 30
0.0
 11
43.59788908765674
 21
173.6878507000849
 31
0.0
  0
LINE
  5
363
330
35F
100
AcDbEntity
  8
1
 62
     2
100
AcDbLine
 10
43.59788908765674
 20
174.6878507000849
 30
0.0
 11
46.79788908765674
 21
175.5452881158645
 31
0.0
  0
LINE
  5
364
330
35F
100
AcDbEntity
  8
1
 62
     2
100
AcDbLine
 10
43.59788908765674
 20
174.6878507000849
 30
0.0
 11
46.79788908765674
 21
173.8304132843053
 31
0.0
  0
LINE
  5
365
330
35F
100
AcDbEntity
  8
1
 62
     2
100
AcDbLine
 10
58.59788908765674
 20
174.6878507000849
 30
0.0
 11
55.39788908765674
 21
173.8304132843053
 31
0.0
  0
LINE
  5
366
330
35F
100
AcDbEntity
  8
1
 62
     2
100
AcDbLine
 10
58.59788908765674
 20
174.6878507000849
 30
0.0
 11
55.39788908765674
 21
175.5452881158645
 31
0.0
  0
MTEXT
  5
367
330
35F
100
AcDbEntity
  8
1
 62
     2
100
AcDbMText
 10
48.0472450805009
 20
175.6878507000849
 30
0.0
 40
3.2
 41
0.0
 71
     7
 72
     1
  1
15
  7
CONVERTER_1
 11
0.9999999999970621
 21
2.424068405545307E-6
 31
0.0
 73
     1
 44
0.60024009603842
  0
ENDBLK
  5
369
330
35F
100
AcDbEntity
  8
0
100
AcDbBlockEnd
  0
BLOCK
  5
375
330
36C
100
AcDbEntity
  8
0
100
AcDbBlockBegin
  2
*D1518
 70
     1
 71
     0
 10
0.0
 20
0.0
 30
0.0
  3
*D1518
  1

  0
LINE
  5
36D
330
36C
100
AcDbEntity
  8
1
  6
Continuous
 62
     2
100
AcDbLine
 10
305.5978890876565
 20
174.6878507000849
 30
0.0
 11
355.5978890876565
 21
174.6878507000849
 31
0.0
  0
LINE
  5
36E
330
36C
100
AcDbEntity
  8
1
  6
Continuous
 62
     2
100
AcDbLine
 10
355.5978890876565
 20
218.7878507000849
 30
0.0
 11
355.5978890876565
 21
173.6878507000849
 31
0.0
  0
LINE
  5
36F
330
36C
100
AcDbEntity
  8
1
  6
Continuous
 62
     2
100
AcDbLine
 10
305.5978890876565
 20
216.2878507000849
 30
0.0
 11
305.5978890876565
 21
173.6878507000849
 31
0.0
  0
LINE
  5
370
330
36C
100
AcDbEntity
  8
1
 62
     2
100
AcDbLine
 10
305.5978890876565
 20
174.6878507000849
 30
0.0
 11
308.7978890876565
 21
175.5452881158645
 31
0.0
  0
LINE
  5
371
330
36C
100
AcDbEntity
  8
1
 62
     2
100
AcDbLine
 10
305.5978890876565
 20
174.6878507000849
 30
0.0
 11
308.7978890876565
 21
173.8304132843053
 31
0.0
  0
LINE
  5
372
330
36C
100
AcDbEntity
  8
1
 62
     2
100
AcDbLine
 10
355.5978890876565
 20
174.6878507000849
 30
0.0
 11
352.3978890876565
 21
173.8304132843053
 31
0.0
  0
LINE
  5
373
330
36C
100
AcDbEntity
  8
1
 62
     2
100
AcDbLine
 10
355.5978890876565
 20
174.6878507000849
 30
0.0
 11
352.3978890876565
 21
175.5452881158645
 31
0.0
  0
MTEXT
  5
374
330
36C
100
AcDbEntity
  8
1
 62
     2
100
AcDbMText
 10
328.8452313223465
 20
175.6878507000849
 30
0.0
 40
3.2
 41
0.0
 71
     7
 72
     1
  1
50
  7
CONVERTER_1
 11
0.9999999999970621
 21
2.424068405545307E-6
 31
0.0
 73
     1
 44
0.60024009603842
  0
ENDBLK
  5
376
330
36C
100
AcDbEntity
  8
0
100
AcDbBlockEnd
  0
BLOCK
  5
382
330
379
100
AcDbEntity
  8
0
100
AcDbBlockBegin
  2
*D1619
 70
     1
 71
     0
 10
0.0
 20
0.0
 30
0.0
  3
*D1619
  1

  0
LINE
  5
37A
330
379
100
AcDbEntity
  8
1
  6
Continuous
 62
     2
100
AcDbLine
 10
288.5978890876565
 20
174.6878507000849
 30
0.0
 11
305.5978890876565
 21
174.6878507000849
 31
0.0
  0
LINE
  5
37B
330
379
100
AcDbEntity
  8
1
  6
Continuous
 62
     2
100
AcDbLine
 10
305.5978890876565
 20
216.2878507000849
 30
0.0
 11
305.5978890876565
 21
173.6878507000849
 31
0.0
  0
LINE
  5
37C
330
379
100
AcDbEntity
  8
1
  6
Continuous
 62
     2
100
AcDbLine
 10
288.5978890876565
 20
215.2878507000849
 30
0.0
 11
288.5978890876565
 21
173.6878507000849
 31
0.0
  0
LINE
  5
37D
330
379
100
AcDbEntity
  8
1
 62
     2
100
AcDbLine
 10
288.5978890876565
 20
174.6878507000849
 30
0.0
 11
291.7978890876565
 21
175.5452881158645
 31
0.0
  0
LINE
  5
37E
330
379
100
AcDbEntity
  8
1
 62
     2
100
AcDbLine
 10
288.5978890876565
 20
174.6878507000849
 30
0.0
 11
291.7978890876565
 21
173.8304132843053
 31
0.0
  0
LINE
  5
37F
330
379
100
AcDbEntity
  8
1
 62
     2
100
AcDbLine
 10
305.5978890876565
 20
174.6878507000849
 30
0.0
 11
302.3978890876565
 21
173.8304132843053
 31
0.0
  0
LINE
  5
380
330
379
100
AcDbEntity
  8
1
 62
     2
100
AcDbLine
 10
305.5978890876565
 20
174.6878507000849
 30
0.0
 11
302.3978890876565
 21
175.5452881158645
 31
0.0
  0
MTEXT
  5
381
330
379
100
AcDbEntity
  8
1
 62
     2
100
AcDbMText
 10
295.5181495927885
 20
176.240904895183
 30
0.0
 40
3.2
 41
0.0
 71
     7
 72
     1
  1
17
  7
CONVERTER_1
 11
0.9999999999970621
 21
2.424068405545307E-6
 31
0.0
 73
     1
 44
0.60024009603842
  0
ENDBLK
  5
383
330
379
100
AcDbEntity
  8
0
100
AcDbBlockEnd
  0
BLOCK
  5
391
330
386
100
AcDbEntity
  8
0
100
AcDbBlockBegin
  2
*D1720
 70
     1
 71
     0
 10
0.0
 20
0.0
 30
0.0
  3
*D1720
  1

  0
LINE
  5
387
330
386
100
AcDbEntity
  8
1
  6
Continuous
 62
     2
100
AcDbLine
 10
277.1978890876569
 20
174.6878507000849
 30
0.0
 11
283.5978890876568
 21
174.6878507000849
 31
0.0
  0
LINE
  5
388
330
386
100
AcDbEntity
  8
1
  6
Continuous
 62
     2
100
AcDbLine
 10
283.5978890876568
 20
174.6878507000849
 30
0.0
 11
288.5978890876565
 21
174.6878507000849
 31
0.0
  0
LINE
  5
389
330
386
100
AcDbEntity
  8
1
  6
Continuous
 62
     2
100
AcDbLine
 10
288.5978890876565
 20
174.6878507000849
 30
0.0
 11
294.9978890876565
 21
174.6878507000849
 31
0.0
  0
LINE
  5
38A
330
386
100
AcDbEntity
  8
1
  6
Continuous
 62
     2
100
AcDbLine
 10
288.5978890876565
 20
215.2878507000849
 30
0.0
 11
288.5978890876565
 21
173.6878507000849
 31
0.0
  0
LINE
  5
38B
330
386
100
AcDbEntity
  8
1
  6
Continuous
 62
     2
100
AcDbLine
 10
283.5978890876568
 20
185.6878507000849
 30
0.0
 11
283.5978890876568
 21
173.6878507000849
 31
0.0
  0
LINE
  5
38C
330
386
100
AcDbEntity
  8
1
 62
     2
100
AcDbLine
 10
283.5978890876568
 20
174.6878507000849
 30
0.0
 11
280.3978890876568
 21
173.8304132843053
 31
0.0
  0
LINE
  5
38D
330
386
100
AcDbEntity
  8
1
 62
     2
100
AcDbLine
 10
283.5978890876568
 20
174.6878507000849
 30
0.0
 11
280.3978890876568
 21
175.5452881158645
 31
0.0
  0
LINE
  5
38E
330
386
100
AcDbEntity
  8
1
 62
     2
100
AcDbLine
 10
288.5978890876565
 20
174.6878507000849
 30
0.0
 11
291.7978890876565
 21
175.5452881158645
 31
0.0
  0
LINE
  5
38F
330
386
100
AcDbEntity
  8
1
 62
     2
100
AcDbLine
 10
288.5978890876565
 20
174.6878507000849
 30
0.0
 11
291.7978890876565
 21
173.8304132843053
 31
0.0
  0
MTEXT
  5
390
330
386
100
AcDbEntity
  8
1
 62
     2
100
AcDbMText
 10
285.0784733582315
 20
176.240904895183
 30
0.0
 40
3.2
 41
0.0
 71
     7
 72
     1
  1
5
  7
CONVERTER_1
 11
0.9999999999970621
 21
2.424068405545307E-6
 31
0.0
 73
     1
 44
0.60024009603842
  0
ENDBLK
  5
392
330
386
100
AcDbEntity
  8
0
100
AcDbBlockEnd
  0
BLOCK
  5
39E
330
395
100
AcDbEntity
  8
0
100
AcDbBlockBegin
  2
*D1821
 70
     1
 71
     0
 10
0.0
 20
0.0
 30
0.0
  3
*D1821
  1

  0
LINE
  5
396
330
395
100
AcDbEntity
  8
1
  6
Continuous
 62
     2
100
AcDbLine
 10
63.59788908765668
 20
174.6878507000849
 30
0.0
 11
283.5978890876568
 21
174.6878507000849
 31
0.0
  0
LINE
  5
397
330
395
100
AcDbEntity
  8
1
  6
Continuous
 62
     2
100
AcDbLine
 10
283.5978890876568
 20
185.6878507000849
 30
0.0
 11
283.5978890876568
 21
173.6878507000849
 31
0.0
  0
LINE
  5
398
330
395
100
AcDbEntity
  8
1
  6
Continuous
 62
     2
100
AcDbLine
 10
63.59788908765668
 20
199.9378507000849
 30
0.0
 11
63.59788908765668
 21
173.6878507000849
 31
0.0
  0
LINE
  5
399
330
395
100
AcDbEntity
  8
1
 62
     2
100
AcDbLine
 10
63.59788908765668
 20
174.6878507000849
 30
0.0
 11
66.79788908765669
 21
175.5452881158645
 31
0.0
  0
LINE
  5
39A
330
395
100
AcDbEntity
  8
1
 62
     2
100
AcDbLine
 10
63.59788908765668
 20
174.6878507000849
 30
0.0
 11
66.79788908765669
 21
173.8304132843053
 31
0.0
  0
LINE
  5
39B
330
395
100
AcDbEntity
  8
1
 62
     2
100
AcDbLine
 10
283.5978890876568
 20
174.6878507000849
 30
0.0
 11
280.3978890876568
 21
173.8304132843053
 31
0.0
  0
LINE
  5
39C
330
395
100
AcDbEntity
  8
1
 62
     2
100
AcDbLine
 10
283.5978890876568
 20
174.6878507000849
 30
0.0
 11
280.3978890876568
 21
175.5452881158645
 31
0.0
  0
MTEXT
  5
39D
330
395
100
AcDbEntity
  8
1
 62
     2
100
AcDbMText
 10
169.2965064877386
 20
175.6878507000849
 30
0.0
 40
3.2
 41
0.0
 71
     7
 72
     1
  1
ローラ幅
  7
CONVERTER_3
 11
0.9999999999970621
 21
2.424068405545307E-6
 31
0.0
 73
     1
 44
0.60024009603842
  0
ENDBLK
  5
39F
330
395
100
AcDbEntity
  8
0
100
AcDbBlockEnd
  0
BLOCK
  5
3AD
330
3A2
100
AcDbEntity
  8
0
100
AcDbBlockBegin
  2
*D1922
 70
     1
 71
     0
 10
0.0
 20
0.0
 30
0.0
  3
*D1922
  1

  0
LINE
  5
3A3
330
3A2
100
AcDbEntity
  8
1
  6
Continuous
 62
     2
100
AcDbLine
 10
52.19788908765674
 20
174.6878507000849
 30
0.0
 11
58.59788908765674
 21
174.6878507000849
 31
0.0
  0
LINE
  5
3A4
330
3A2
100
AcDbEntity
  8
1
  6
Continuous
 62
     2
100
AcDbLine
 10
58.59788908765674
 20
174.6878507000849
 30
0.0
 11
63.59788908765675
 21
174.6878507000849
 31
0.0
  0
LINE
  5
3A5
330
3A2
100
AcDbEntity
  8
1
  6
Continuous
 62
     2
100
AcDbLine
 10
63.59788908765675
 20
174.6878507000849
 30
0.0
 11
69.99788908765675
 21
174.6878507000849
 31
0.0
  0
LINE
  5
3A6
330
3A2
100
AcDbEntity
  8
1
  6
Continuous
 62
     2
100
AcDbLine
 10
63.59788908765675
 20
199.9378507000849
 30
0.0
 11
63.59788908765675
 21
173.6878507000849
 31
0.0
  0
LINE
  5
3A7
330
3A2
100
AcDbEntity
  8
1
  6
Continuous
 62
     2
100
AcDbLine
 10
58.59788908765674
 20
216.8157147000849
 30
0.0
 11
58.59788908765674
 21
173.6878507000849
 31
0.0
  0
LINE
  5
3A8
330
3A2
100
AcDbEntity
  8
1
 62
     2
100
AcDbLine
 10
58.59788908765674
 20
174.6878507000849
 30
0.0
 11
55.39788908765674
 21
173.8304132843053
 31
0.0
  0
LINE
  5
3A9
330
3A2
100
AcDbEntity
  8
1
 62
     2
100
AcDbLine
 10
58.59788908765674
 20
174.6878507000849
 30
0.0
 11
55.39788908765674
 21
175.5452881158645
 31
0.0
  0
LINE
  5
3AA
330
3A2
100
AcDbEntity
  8
1
 62
     2
100
AcDbLine
 10
63.59788908765675
 20
174.6878507000849
 30
0.0
 11
66.79788908765674
 21
175.5452881158645
 31
0.0
  0
LINE
  5
3AB
330
3A2
100
AcDbEntity
  8
1
 62
     2
100
AcDbLine
 10
63.59788908765675
 20
174.6878507000849
 30
0.0
 11
66.79788908765674
 21
173.8304132843053
 31
0.0
  0
MTEXT
  5
3AC
330
3A2
100
AcDbEntity
  8
1
 62
     2
100
AcDbMText
 10
60.24928443649371
 20
175.6878507000849
 30
0.0
 40
3.2
 41
0.0
 71
     7
 72
     1
  1
5
  7
CONVERTER_1
 11
0.9999999999970621
 21
2.424068405545307E-6
 31
0.0
 73
     1
 44
0.60024009603842
  0
ENDBLK
  5
3AE
330
3A2
100
AcDbEntity
  8
0
100
AcDbBlockEnd
  0
BLOCK
  5
3B7
330
3B1
100
AcDbEntity
  8
0
100
AcDbBlockBegin
  2
*D2023
 70
     1
 71
     0
 10
0.0
 20
0.0
 30
0.0
  3
*D2023
  1

  0
LINE
  5
3B2
330
3B1
100
AcDbEntity
  8
1
  6
Continuous
 62
     2
100
AcDbLine
 10
142.0762056402213
 20
87.18248881856505
 30
0.0
 11
125.4581115320555
 21
67.698719975072
 31
0.0
  0
LINE
  5
3B3
330
3B1
100
AcDbEntity
  8
1
  6
Continuous
 62
     2
100
AcDbLine
 10
125.4581115320555
 20
67.698719975072
 30
0.0
 11
106.3336670876111
 21
67.698719975072
 31
0.0
  0
LINE
  5
3B4
330
3B1
100
AcDbEntity
  8
1
 62
     2
100
AcDbLine
 10
142.0762056402213
 20
87.18248881856505
 30
0.0
 11
140.6519808438784
 21
84.19137152707332
 31
0.0
  0
LINE
  5
3B5
330
3B1
100
AcDbEntity
  8
1
 62
     2
100
AcDbLine
 10
142.0762056402213
 20
87.18248881856505
 30
0.0
 11
139.3472321401428
 21
85.30421765660574
 31
0.0
  0
MTEXT
  5
3B6
330
3B1
100
AcDbEntity
  8
1
 62
     2
100
AcDbMText
 10
104.9221115320864
 20
68.39869453205002
 30
0.0
 40
3.2
 41
0.0
 71
     7
 72
     1
  1
\C2;2-φ\C2;5.3
  7
CONVERTER_3
 11
0.9999999999970621
 21
2.424068405545307E-6
 31
0.0
 73
     1
 44
0.60024009603842
  0
ENDBLK
  5
3B8
330
3B1
100
AcDbEntity
  8
0
100
AcDbBlockEnd
  0
ENDSEC
  0
SECTION
  2
ENTITIES
  0
INSERT
  5
3A
330
1F
100
AcDbEntity
  8
0
100
AcDbBlockReference
  2
Zuwaku-A3-web
 10
196.9999999999998
 20
134.0
 30
0.0
  0
POINT
  5
6B
330
1F
100
AcDbEntity
  8
1
 62
     3
 60
     1
100
AcDbPoint
 10
381.0978890876565
 20
216.2878507000849
 30
0.0
  0
POINT
  5
6C
330
1F
100
AcDbEntity
  8
1
 62
     3
 60
     1
100
AcDbPoint
 10
387.0978890876566
 20
222.2878507000849
 30
0.0
  0
POINT
  5
6D
330
1F
100
AcDbEntity
  8
1
 62
     3
 60
     1
100
AcDbPoint
 10
304.8611837074958
 20
218.2033201885566
 30
0.0
  0
POINT
  5
6E
330
1F
100
AcDbEntity
  8
1
 62
     3
 60
     1
100
AcDbPoint
 10
288.5978890876565
 20
226.7599867000849
 30
0.0
  0
POINT
  5
6F
330
1F
100
AcDbEntity
  8
1
 62
     3
 60
     1
100
AcDbPoint
 10
304.8611837074958
 20
226.3723812116131
 30
0.0
  0
POINT
  5
70
330
1F
100
AcDbEntity
  8
1
 62
     3
 60
     1
100
AcDbPoint
 10
305.5978890876565
 20
226.7599867000849
 30
0.0
  0
POINT
  5
71
330
1F
100
AcDbEntity
  8
1
 62
     3
 60
     1
100
AcDbPoint
 10
288.5978890876565
 20
217.8157147000849
 30
0.0
  0
POINT
  5
72
330
1F
100
AcDbEntity
  8
1
 62
     3
 60
     1
100
AcDbPoint
 10
43.59788908765674
 20
226.7599867000849
 30
0.0
  0
POINT
  5
73
330
1F
100
AcDbEntity
  8
1
 62
     3
 60
     1
100
AcDbPoint
 10
43.59788908765674
 20
217.8157147000849
 30
0.0
  0
POINT
  5
74
330
1F
100
AcDbEntity
  8
1
 62
     3
 60
     1
100
AcDbPoint
 10
29.03788908765674
 20
216.2878507000849
 30
0.0
  0
POINT
  5
75
330
1F
100
AcDbEntity
  8
1
 62
     3
 60
     1
100
AcDbPoint
 10
23.03788908765671
 20
222.2878507000849
 30
0.0
  0
LINE
  5
76
330
1F
100
AcDbEntity
  8
JISSEN
  6
Continuous
 62
     7
100
AcDbLine
 10
60.59788908765689
 20
241.9378507000849
 30
0.0
 11
60.59788908765689
 21
202.6378507000849
 31
0.0
  0
LINE
  5
77
330
1F
100
AcDbEntity
  8
JISSEN
  6
Continuous
 62
     7
100
AcDbLine
 10
58.59788908765688
 20
229.7878507000849
 30
0.0
 11
58.59788908765688
 21
214.7878507000849
 31
0.0
  0
LINE
  5
78
330
1F
100
AcDbEntity
  8
JISSEN
  6
Continuous
 62
     7
100
AcDbLine
 10
286.5978890876572
 20
248.9378507000849
 30
0.0
 11
286.5978890876572
 21
195.6378507000849
 31
0.0
  0
LINE
  5
79
330
1F
100
AcDbEntity
  8
JISSEN
  6
Continuous
 62
     7
100
AcDbLine
 10
288.5978890876572
 20
232.2878507000849
 30
0.0
 11
288.5978890876562
 21
212.2878507000849
 31
0.0
  0
LINE
  5
7A
330
1F
100
AcDbEntity
  8
JISSEN
  6
Continuous
 62
     7
100
AcDbLine
 10
62.09788908765675
 20
243.4378507000849
 30
0.0
 11
63.59788908765675
 21
243.4378507000849
 31
0.0
  0
LINE
  5
7B
330
1F
100
AcDbEntity
  8
JISSEN
  6
Continuous
 62
     7
100
AcDbLine
 10
62.09788908765689
 20
201.1378507000849
 30
0.0
 11
63.59788908765689
 21
201.1378507000849
 31
0.0
  0
LINE
  5
7C
330
1F
100
AcDbEntity
  8
JISSEN
  6
Continuous
 62
     7
100
AcDbLine
 10
59.59788908765689
 20
230.7878507000849
 30
0.0
 11
60.59788908765689
 21
230.7878507000849
 31
0.0
  0
LINE
  5
7D
330
1F
100
AcDbEntity
  8
JISSEN
  6
Continuous
 62
     7
100
AcDbLine
 10
59.59788908765689
 20
213.7878507000849
 30
0.0
 11
60.59788908765689
 21
213.7878507000849
 31
0.0
  0
LINE
  5
7E
330
1F
100
AcDbEntity
  8
JISSEN
  6
Continuous
 62
     7
100
AcDbLine
 10
286.5978890876562
 20
233.2878507000849
 30
0.0
 11
287.5978890876572
 21
233.2878507000849
 31
0.0
  0
LINE
  5
7F
330
1F
100
AcDbEntity
  8
JISSEN
  6
Continuous
 62
     7
100
AcDbLine
 10
286.5978890876572
 20
211.2878507000849
 30
0.0
 11
287.5978890876562
 21
211.2878507000849
 31
0.0
  0
LINE
  5
80
330
1F
100
AcDbEntity
  8
JISSEN
  6
Continuous
 62
     7
100
AcDbLine
 10
283.5978890876562
 20
250.4378507000849
 30
0.0
 11
285.0978890876562
 21
250.4378507000849
 31
0.0
  0
LINE
  5
81
330
1F
100
AcDbEntity
  8
JISSEN
  6
Continuous
 62
     7
100
AcDbLine
 10
283.5978890876562
 20
194.1378507000849
 30
0.0
 11
285.0978890876572
 21
194.1378507000849
 31
0.0
  0
LINE
  5
82
330
1F
100
AcDbEntity
  8
JISSEN
  6
Continuous
 62
     7
100
AcDbLine
 10
283.5978890876562
 20
250.4378507000849
 30
0.0
 11
285.0978890876562
 21
250.4378507000849
 31
0.0
  0
LINE
  5
83
330
1F
100
AcDbEntity
  8
JISSEN
  6
PHANTOM
 62
   140
100
AcDbLine
 10
185.7958893098327
 20
45.29764558326021
 30
0.0
 11
185.7958893098327
 21
25.29764558326022
 31
0.0
  0
LINE
  5
84
330
1F
100
AcDbEntity
  8
JISSEN
  6
PHANTOM
 62
   140
100
AcDbLine
 10
170.7958893098331
 20
37.29764558326021
 30
0.0
 11
170.7958893098331
 21
30.89764558326022
 31
0.0
  0
LINE
  5
85
330
1F
100
AcDbEntity
  8
JISSEN
  6
PHANTOM
 62
   140
100
AcDbLine
 10
173.7958893098332
 20
37.19764558326022
 30
0.0
 11
173.7958893098332
 21
29.39764558326022
 31
0.0
  0
LINE
  5
86
330
1F
100
AcDbEntity
  8
JISSEN
  6
PHANTOM
 62
   140
100
AcDbLine
 10
153.7958893098331
 20
40.29764558326021
 30
0.0
 11
167.7958893098331
 21
40.29764558326021
 31
0.0
  0
LINE
  5
87
330
1F
100
AcDbEntity
  8
JISSEN
  6
PHANTOM
 62
   140
100
AcDbLine
 10
153.7958893098329
 20
43.1976455832602
 30
0.0
 11
167.7958893098332
 21
43.1976455832602
 31
0.0
  0
LINE
  5
88
330
1F
100
AcDbEntity
  8
JISSEN
  6
PHANTOM
 62
   140
100
AcDbLine
 10
139.7958893098331
 20
49.29764558326021
 30
0.0
 11
181.7958893098331
 21
49.29764558326021
 31
0.0
  0
LINE
  5
89
330
1F
100
AcDbEntity
  8
JISSEN
  6
PHANTOM
 62
   140
100
AcDbLine
 10
135.7958893098331
 20
25.29764558326022
 30
0.0
 11
135.7958893098331
 21
45.29764558326021
 31
0.0
  0
LINE
  5
8A
330
1F
100
AcDbEntity
  8
JISSEN
  6
PHANTOM
 62
   140
100
AcDbLine
 10
185.7958893098327
 20
25.29764558326022
 30
0.0
 11
183.7958893098337
 21
25.29764558326022
 31
0.0
  0
LINE
  5
8B
330
1F
100
AcDbEntity
  8
NITEN
  6
PHANTOM
 62
   140
100
AcDbLine
 10
240.6930962133778
 20
144.3987199750722
 30
0.0
 11
222.3347697650537
 21
144.3987199750722
 31
0.0
  0
LINE
  5
8C
330
1F
100
AcDbEntity
  8
NITEN
  6
PHANTOM
 62
   140
100
AcDbLine
 10
222.5466496039707
 20
142.2773996315123
 30
0.0
 11
219.3395428227847
 21
139.0702928503262
 31
0.0
  0
LINE
  5
8D
330
1F
100
AcDbEntity
  8
NITEN
  6
PHANTOM
 62
   140
100
AcDbLine
 10
217.0430962133777
 20
131.4487199750722
 30
0.0
 11
217.1930962133778
 21
131.4487199750722
 31
0.0
  0
LINE
  5
8E
330
1F
100
AcDbEntity
  8
NITEN
  6
PHANTOM
 62
   140
100
AcDbLine
 10
217.0430962133777
 20
125.1421499583932
 30
0.0
 11
217.1946975789567
 21
125.1421499583932
 31
0.0
  0
LINE
  5
8F
330
1F
100
AcDbEntity
  8
NITEN
  6
PHANTOM
 62
   140
100
AcDbLine
 10
217.0430962133777
 20
131.4487199750722
 30
0.0
 11
217.0430962133777
 21
125.1421499583932
 31
0.0
  0
LINE
  5
90
330
1F
100
AcDbEntity
  8
NITEN
  6
PHANTOM
 62
   140
100
AcDbLine
 10
217.1930962133778
 20
139.2570464233962
 30
0.0
 11
217.1930962133778
 21
85.398719975072
 31
0.0
  0
LINE
  5
91
330
1F
100
AcDbEntity
  8
NITEN
  6
PHANTOM
 62
   140
100
AcDbLine
 10
217.0430962133777
 20
120.7987199750722
 30
0.0
 11
217.0430962133777
 21
119.5987199750722
 31
0.0
  0
LINE
  5
92
330
1F
100
AcDbEntity
  8
NITEN
  6
PHANTOM
 62
   140
100
AcDbLine
 10
217.0430962133777
 20
120.7987199750722
 30
0.0
 11
217.1930962806397
 21
120.7987199750722
 31
0.0
  0
LINE
  5
93
330
1F
100
AcDbEntity
  8
NITEN
  6
PHANTOM
 62
   140
100
AcDbLine
 10
217.0430962133777
 20
119.5987199750722
 30
0.0
 11
217.1930962989837
 21
119.5987199750722
 31
0.0
  0
LINE
  5
94
330
1F
100
AcDbEntity
  8
NITEN
  6
PHANTOM
 62
   140
100
AcDbLine
 10
216.8930965099407
 20
105.7987199750722
 30
0.0
 11
217.1930965099407
 21
105.7987199750722
 31
0.0
  0
LINE
  5
95
330
1F
100
AcDbEntity
  8
NITEN
  6
PHANTOM
 62
   140
100
AcDbLine
 10
222.9002029945647
 20
142.4238462409192
 30
0.0
 11
230.6930962133778
 21
142.4238462409192
 31
0.0
  0
LINE
  5
96
330
1F
100
AcDbEntity
  8
NITEN
  6
PHANTOM
 62
   140
100
AcDbLine
 10
236.5930962133778
 20
85.5987199750719
 30
0.0
 11
240.6930962133778
 21
85.5987199750719
 31
0.0
  0
LINE
  5
97
330
1F
100
AcDbEntity
  8
NITEN
  6
PHANTOM
 62
   140
100
AcDbLine
 10
236.5930962133778
 20
85.5987199750719
 30
0.0
 11
236.5930962133778
 21
79.898719975072
 31
0.0
  0
LINE
  5
98
330
1F
100
AcDbEntity
  8
NITEN
  6
PHANTOM
 62
   140
100
AcDbLine
 10
216.8930967606427
 20
89.398719975072
 30
0.0
 11
217.1930967606427
 21
89.398719975072
 31
0.0
  0
LINE
  5
99
330
1F
100
AcDbEntity
  8
TENSEN
  6
DASHED
 62
   140
100
AcDbLine
 10
225.8930962133777
 20
82.898719975072
 30
0.0
 11
225.8930962133777
 21
80.39871997507191
 31
0.0
  0
LINE
  5
9A
330
1F
100
AcDbEntity
  8
NITEN
  6
PHANTOM
 62
   140
100
AcDbLine
 10
222.3930962133777
 20
81.398719975072
 30
0.0
 11
222.3930962133777
 21
80.39871997507191
 31
0.0
  0
LINE
  5
9B
330
1F
100
AcDbEntity
  8
NITEN
  6
PHANTOM
 62
   140
100
AcDbLine
 10
221.1930962133778
 20
83.398719975072
 30
0.0
 11
236.5930962133779
 21
83.39871997507191
 31
0.0
  0
LINE
  5
9C
330
1F
100
AcDbEntity
  8
NITEN
  6
PHANTOM
 62
   140
100
AcDbLine
 10
221.1930962133778
 20
81.398719975072
 30
0.0
 11
236.5930962133778
 21
81.39871997507203
 31
0.0
  0
LINE
  5
9D
330
1F
100
AcDbEntity
  8
NITEN
  6
PHANTOM
 62
   140
100
AcDbLine
 10
222.8930962133777
 20
79.898719975072
 30
0.0
 11
236.5930962133778
 21
79.898719975072
 31
0.0
  0
LINE
  5
9E
330
1F
100
AcDbEntity
  8
NITEN
  6
PHANTOM
 62
   140
100
AcDbLine
 10
216.8930965099407
 20
105.7987199750722
 30
0.0
 11
216.8930967606427
 21
89.398719975072
 31
0.0
  0
LINE
  5
9F
330
1F
100
AcDbEntity
  8
NITEN
  6
PHANTOM
 62
   140
100
AcDbLine
 10
219.1930962133778
 20
138.7167394597322
 30
0.0
 11
219.1930962133778
 21
85.39871997507206
 31
0.0
  0
LINE
  5
A0
330
1F
100
AcDbEntity
  8
JISSEN
  6
Continuous
 62
     7
100
AcDbLine
 10
240.6930962133778
 20
83.39871997507211
 30
0.0
 11
240.6930962133778
 21
143.3987199750722
 31
0.0
  0
LINE
  5
A1
330
1F
100
AcDbEntity
  8
NITEN
  6
PHANTOM
 62
   140
100
AcDbLine
 10
230.6930962133778
 20
142.4238462409192
 30
0.0
 11
230.6930962133778
 21
143.3987199750722
 31
0.0
  0
LINE
  5
A2
330
1F
100
AcDbEntity
  8
JISSEN
  6
Continuous
 62
     7
100
AcDbLine
 10
237.1930962133768
 20
142.4987199750722
 30
0.0
 11
233.9930962133777
 21
142.4987199750722
 31
0.0
  0
LINE
  5
A3
330
1F
100
AcDbEntity
  8
JISSEN
  6
Continuous
 62
     7
100
AcDbLine
 10
233.9930962133777
 20
142.6987199750722
 30
0.0
 11
231.6930962133768
 21
142.6987199750722
 31
0.0
  0
LINE
  5
A4
330
1F
100
AcDbEntity
  8
JISSEN
  6
Continuous
 62
     7
100
AcDbLine
 10
231.6930962133768
 20
138.2987199750722
 30
0.0
 11
230.3930962133777
 21
138.2987199750722
 31
0.0
  0
LINE
  5
A5
330
1F
100
AcDbEntity
  8
JISSEN
  6
Continuous
 62
     7
100
AcDbLine
 10
230.3930962133777
 20
129.0987199750722
 30
0.0
 11
231.6930962133768
 21
129.0987199750722
 31
0.0
  0
LINE
  5
A6
330
1F
100
AcDbEntity
  8
JISSEN
  6
Continuous
 62
     7
100
AcDbLine
 10
230.3930962133777
 20
138.2987199750722
 30
0.0
 11
230.3930962133777
 21
129.0987199750722
 31
0.0
  0
LINE
  5
A7
330
1F
100
AcDbEntity
  8
JISSEN
  6
Continuous
 62
     7
100
AcDbLine
 10
233.9930962133777
 20
122.8987199750722
 30
0.0
 11
235.4270708095927
 21
122.8987199750722
 31
0.0
  0
LINE
  5
A8
330
1F
100
AcDbEntity
  8
JISSEN
  6
Continuous
 62
     7
100
AcDbLine
 10
231.6930962133768
 20
124.6987199750722
 30
0.0
 11
233.9930962133777
 21
124.6987199750722
 31
0.0
  0
LINE
  5
A9
330
1F
100
AcDbEntity
  8
JISSEN
  6
Continuous
 62
     7
100
AcDbLine
 10
231.2255396110097
 20
115.7727264305862
 30
0.0
 11
237.7930962133777
 21
116.6683023309082
 31
0.0
  0
LINE
  5
AA
330
1F
100
AcDbEntity
  8
JISSEN
  6
Continuous
 62
     3
100
AcDbLine
 10
228.7930962133777
 20
103.1487199750722
 30
0.0
 11
228.7930962133777
 21
101.6487199750722
 31
0.0
  0
LINE
  5
AB
330
1F
100
AcDbEntity
  8
JISSEN
  6
Continuous
 62
     7
100
AcDbLine
 10
230.7930962133768
 20
97.96375687636279
 30
0.0
 11
230.7930962133768
 21
98.21375687636251
 31
0.0
  0
LINE
  5
AC
330
1F
100
AcDbEntity
  8
JISSEN
  6
Continuous
 62
     7
100
AcDbLine
 10
231.2255396110097
 20
97.1547873221397
 30
0.0
 11
236.2930962133768
 21
96.4637568763624
 31
0.0
  0
LINE
  5
AD
330
1F
100
AcDbEntity
  8
JISSEN
  6
Continuous
 62
     7
100
AcDbLine
 10
230.7930962133768
 20
97.65020240616201
 30
0.0
 11
230.7930962133768
 21
115.2773113465632
 31
0.0
  0
LINE
  5
AE
330
1F
100
AcDbEntity
  8
JISSEN
  6
Continuous
 62
     7
100
AcDbLine
 10
237.7930962133777
 20
92.3987199750718
 30
0.0
 11
236.2930962133768
 21
92.3987199750718
 31
0.0
  0
LINE
  5
AF
330
1F
100
AcDbEntity
  8
JISSEN
  6
Continuous
 62
     7
100
AcDbLine
 10
236.2930962133768
 20
92.76375687636241
 30
0.0
 11
236.2930962133768
 21
96.4637568763624
 31
0.0
  0
LINE
  5
B0
330
1F
100
AcDbEntity
  8
JISSEN
  6
Continuous
 62
     7
100
AcDbLine
 10
236.2930962133768
 20
84.398719975072
 30
0.0
 11
237.7930962133777
 21
84.398719975072
 31
0.0
  0
LINE
  5
B1
330
1F
100
AcDbEntity
  8
JISSEN
  6
Continuous
 62
     7
100
AcDbLine
 10
236.2930962133768
 20
92.3987199750718
 30
0.0
 11
236.2930962133768
 21
84.398719975072
 31
0.0
  0
LINE
  5
B2
330
1F
100
AcDbEntity
  8
JISSEN
  6
Continuous
 62
     7
100
AcDbLine
 10
237.2930962133777
 20
116.6001205127262
 30
0.0
 11
237.2930962133777
 21
92.7304235430291
 31
0.0
  0
LINE
  5
B3
330
1F
100
AcDbEntity
  8
JISSEN
  6
Continuous
 62
     7
100
AcDbLine
 10
237.1930962133768
 20
142.4987199750722
 30
0.0
 11
237.1930962133778
 21
123.4822048360812
 31
0.0
  0
LINE
  5
B4
330
1F
100
AcDbEntity
  8
JISSEN
  6
Continuous
 62
     7
100
AcDbLine
 10
233.9930962133777
 20
142.6987199750722
 30
0.0
 11
233.9930962133777
 21
122.8987199750722
 31
0.0
  0
LINE
  5
B5
330
1F
100
AcDbEntity
  8
JISSEN
  6
Continuous
 62
     7
100
AcDbLine
 10
231.6930962133768
 20
142.6987199750722
 30
0.0
 11
231.6930962133768
 21
124.6987199750722
 31
0.0
  0
LINE
  5
B6
330
1F
100
AcDbEntity
  8
JISSEN
  6
Continuous
 62
     7
100
AcDbLine
 10
224.6930962133778
 20
136.1987199750722
 30
0.0
 11
226.3930962133777
 21
136.1987199750722
 31
0.0
  0
LINE
  5
B7
330
1F
100
AcDbEntity
  8
JISSEN
  6
Continuous
 62
     7
100
AcDbLine
 10
226.3930962133777
 20
131.1987199750722
 30
0.0
 11
224.6930962133778
 21
131.1987199750722
 31
0.0
  0
LINE
  5
B8
330
1F
100
AcDbEntity
  8
JISSEN
  6
Continuous
 62
     7
100
AcDbLine
 10
222.7930962133777
 20
94.18097894434939
 30
0.0
 11
222.7930962133777
 21
118.7465348083762
 31
0.0
  0
LINE
  5
B9
330
1F
100
AcDbEntity
  8
JISSEN
  6
Continuous
 62
     7
100
AcDbLine
 10
225.2930962133777
 20
96.17455655661851
 30
0.0
 11
225.2930962133777
 21
116.7529571961072
 31
0.0
  0
LINE
  5
BA
330
1F
100
AcDbEntity
  8
JISSEN
  6
Continuous
 62
     7
100
AcDbLine
 10
223.7597813831447
 20
119.7459797153552
 30
0.0
 11
235.2930962133777
 21
120.1304235430292
 31
0.0
  0
LINE
  5
BB
330
1F
100
AcDbEntity
  8
JISSEN
  6
Continuous
 62
     7
100
AcDbLine
 10
237.7930962133777
 20
92.7137568763624
 30
0.0
 11
223.7597813831447
 21
93.18153403737031
 31
0.0
  0
LINE
  5
BC
330
1F
100
AcDbEntity
  8
JISSEN
  6
Continuous
 62
     7
100
AcDbLine
 10
236.2930962133768
 20
94.77375687636291
 30
0.0
 11
226.2531281750277
 21
95.17535559789681
 31
0.0
  0
LINE
  5
BD
330
1F
100
AcDbEntity
  8
JISSEN
  6
Continuous
 62
     7
100
AcDbLine
 10
226.2531281750287
 20
117.7521581548282
 30
0.0
 11
235.3340719839877
 21
118.1153959071872
 31
0.0
  0
LINE
  5
BE
330
1F
100
AcDbEntity
  8
JISSEN
  6
Continuous
 62
     3
100
AcDbLine
 10
173.0000527664316
 20
110.6987199750722
 30
0.0
 11
173.7958893098335
 21
110.6987199750722
 31
0.0
  0
LINE
  5
BF
330
1F
100
AcDbEntity
  8
JISSEN
  6
Continuous
 62
     3
100
AcDbLine
 10
173.0000527664316
 20
111.6987199750722
 30
0.0
 11
173.7958893098335
 21
111.6987199750722
 31
0.0
  0
LINE
  5
C0
330
1F
100
AcDbEntity
  8
JISSEN
  6
Continuous
 62
     3
100
AcDbLine
 10
171.7958893098336
 20
111.5487199750722
 30
0.0
 11
171.795889309834
 21
110.8487199750722
 31
0.0
  0
LINE
  5
C1
330
1F
100
AcDbEntity
  8
JISSEN
  6
Continuous
 62
     3
100
AcDbLine
 10
170.2958893098332
 20
112.6987199750722
 30
0.0
 11
170.6458893098335
 21
112.6987199750722
 31
0.0
  0
LINE
  5
C2
330
1F
100
AcDbEntity
  8
JISSEN
  6
Continuous
 62
     3
100
AcDbLine
 10
168.795889309833
 20
111.5487199750722
 30
0.0
 11
168.795889309833
 21
110.8487199750722
 31
0.0
  0
LINE
  5
C3
330
1F
100
AcDbEntity
  8
JISSEN
  6
Continuous
 62
     3
100
AcDbLine
 10
170.2958893098332
 20
112.6987199750722
 30
0.0
 11
169.9458893098336
 21
112.6987199750722
 31
0.0
  0
LINE
  5
C4
330
1F
100
AcDbEntity
  8
JISSEN
  6
Continuous
 62
     3
100
AcDbLine
 10
170.7958893098333
 20
113.9028834316702
 30
0.0
 11
170.7958893098333
 21
114.6987199750722
 31
0.0
  0
LINE
  5
C5
330
1F
100
AcDbEntity
  8
JISSEN
  6
Continuous
 62
     3
100
AcDbLine
 10
169.7958893098336
 20
114.6987199750722
 30
0.0
 11
169.7958893098336
 21
113.9028834316702
 31
0.0
  0
LINE
  5
C6
330
1F
100
AcDbEntity
  8
JISSEN
  6
Continuous
 62
     3
100
AcDbLine
 10
163.5000527664312
 20
110.6987199750722
 30
0.0
 11
164.2958893098336
 21
110.6987199750722
 31
0.0
  0
LINE
  5
C7
330
1F
100
AcDbEntity
  8
JISSEN
  6
Continuous
 62
     3
100
AcDbLine
 10
163.5000527664312
 20
111.6987199750722
 30
0.0
 11
164.2958893098336
 21
111.6987199750722
 31
0.0
  0
LINE
  5
C8
330
1F
100
AcDbEntity
  8
JISSEN
  6
Continuous
 62
     3
100
AcDbLine
 10
162.2958893098336
 20
111.5487199750722
 30
0.0
 11
162.2958893098336
 21
110.8487199750722
 31
0.0
  0
LINE
  5
C9
330
1F
100
AcDbEntity
  8
JISSEN
  6
Continuous
 62
     3
100
AcDbLine
 10
160.7958893098333
 20
112.6987199750722
 30
0.0
 11
160.4458893098334
 21
112.6987199750722
 31
0.0
  0
LINE
  5
CA
330
1F
100
AcDbEntity
  8
JISSEN
  6
Continuous
 62
     3
100
AcDbLine
 10
160.7958893098333
 20
112.6987199750722
 30
0.0
 11
161.1458893098333
 21
112.6987199750722
 31
0.0
  0
LINE
  5
CB
330
1F
100
AcDbEntity
  8
JISSEN
  6
Continuous
 62
     3
100
AcDbLine
 10
158.0917258532355
 20
111.6987199750722
 30
0.0
 11
157.2958893098336
 21
111.6987199750722
 31
0.0
  0
LINE
  5
CC
330
1F
100
AcDbEntity
  8
JISSEN
  6
Continuous
 62
     3
100
AcDbLine
 10
158.0917258532355
 20
110.6987199750722
 30
0.0
 11
157.2958893098336
 21
110.6987199750722
 31
0.0
  0
LINE
  5
CD
330
1F
100
AcDbEntity
  8
JISSEN
  6
Continuous
 62
     3
100
AcDbLine
 10
159.2958893098331
 20
111.5487199750722
 30
0.0
 11
159.2958893098331
 21
110.8487199750722
 31
0.0
  0
LINE
  5
CE
330
1F
100
AcDbEntity
  8
JISSEN
  6
Continuous
 62
     3
100
AcDbLine
 10
161.2958893098335
 20
113.9028834316702
 30
0.0
 11
161.2958893098335
 21
114.6987199750722
 31
0.0
  0
LINE
  5
CF
330
1F
100
AcDbEntity
  8
JISSEN
  6
Continuous
 62
     3
100
AcDbLine
 10
160.2958893098332
 20
114.6987199750722
 30
0.0
 11
160.2958893098332
 21
113.9028834316702
 31
0.0
  0
LINE
  5
D0
330
1F
100
AcDbEntity
  8
JISSEN
  6
Continuous
 62
     3
100
AcDbLine
 10
157.2958893098336
 20
114.6987199750722
 30
0.0
 11
164.2958893098336
 21
114.6987199750722
 31
0.0
  0
LINE
  5
D1
330
1F
100
AcDbEntity
  8
JISSEN
  6
Continuous
 62
     3
100
AcDbLine
 10
154.0000527664312
 20
110.6987199750722
 30
0.0
 11
154.7958893098336
 21
110.6987199750722
 31
0.0
  0
LINE
  5
D2
330
1F
100
AcDbEntity
  8
JISSEN
  6
Continuous
 62
     3
100
AcDbLine
 10
154.0000527664312
 20
111.6987199750722
 30
0.0
 11
154.7958893098336
 21
111.6987199750722
 31
0.0
  0
LINE
  5
D3
330
1F
100
AcDbEntity
  8
JISSEN
  6
Continuous
 62
     3
100
AcDbLine
 10
152.7958893098337
 20
111.5487199750722
 30
0.0
 11
152.7958893098336
 21
110.8487199750722
 31
0.0
  0
LINE
  5
D4
330
1F
100
AcDbEntity
  8
JISSEN
  6
Continuous
 62
     3
100
AcDbLine
 10
151.2958893098335
 20
112.6987199750722
 30
0.0
 11
151.6458893098331
 21
112.6987199750722
 31
0.0
  0
LINE
  5
D5
330
1F
100
AcDbEntity
  8
JISSEN
  6
Continuous
 62
     3
100
AcDbLine
 10
151.7958893098336
 20
113.9028834316702
 30
0.0
 11
151.7958893098336
 21
114.6987199750722
 31
0.0
  0
LINE
  5
D6
330
1F
100
AcDbEntity
  8
JISSEN
  6
Continuous
 62
     3
100
AcDbLine
 10
149.7958893098331
 20
111.5487199750722
 30
0.0
 11
149.7958893098332
 21
110.8487199750722
 31
0.0
  0
LINE
  5
D7
330
1F
100
AcDbEntity
  8
JISSEN
  6
Continuous
 62
     3
100
AcDbLine
 10
148.5917258532356
 20
111.6987199750722
 30
0.0
 11
147.7958893098332
 21
111.6987199750722
 31
0.0
  0
LINE
  5
D8
330
1F
100
AcDbEntity
  8
JISSEN
  6
Continuous
 62
     3
100
AcDbLine
 10
148.5917258532356
 20
110.6987199750722
 30
0.0
 11
147.7958893098332
 21
110.6987199750722
 31
0.0
  0
LINE
  5
D9
330
1F
100
AcDbEntity
  8
JISSEN
  6
Continuous
 62
     3
100
AcDbLine
 10
150.7958893098333
 20
114.6987199750722
 30
0.0
 11
150.7958893098333
 21
113.9028834316702
 31
0.0
  0
LINE
  5
DA
330
1F
100
AcDbEntity
  8
JISSEN
  6
Continuous
 62
     3
100
AcDbLine
 10
147.7958893098332
 20
114.6987199750722
 30
0.0
 11
154.7958893098336
 21
114.6987199750722
 31
0.0
  0
LINE
  5
DB
330
1F
100
AcDbEntity
  8
JISSEN
  6
Continuous
 62
     3
100
AcDbLine
 10
151.2958893098335
 20
112.6987199750722
 30
0.0
 11
150.9458893098332
 21
112.6987199750722
 31
0.0
  0
LINE
  5
DC
330
1F
100
AcDbEntity
  8
JISSEN
  6
Continuous
 62
     3
100
AcDbLine
 10
167.5917258532353
 20
111.6987199750722
 30
0.0
 11
166.7958893098336
 21
111.6987199750722
 31
0.0
  0
LINE
  5
DD
330
1F
100
AcDbEntity
  8
JISSEN
  6
Continuous
 62
     3
100
AcDbLine
 10
167.5917258532353
 20
110.6987199750722
 30
0.0
 11
166.7958893098336
 21
110.6987199750722
 31
0.0
  0
LINE
  5
DE
330
1F
100
AcDbEntity
  8
JISSEN
  6
Continuous
 62
     3
100
AcDbLine
 10
166.7958893098336
 20
114.6987199750722
 30
0.0
 11
173.7958893098335
 21
114.6987199750722
 31
0.0
  0
LINE
  5
DF
330
1F
100
AcDbEntity
  8
JISSEN
  6
Continuous
 62
     3
100
AcDbLine
 10
179.7958893098336
 20
103.6987199750722
 30
0.0
 11
180.1458893098342
 21
103.6987199750722
 31
0.0
  0
LINE
  5
E0
330
1F
100
AcDbEntity
  8
JISSEN
  6
Continuous
 62
     3
100
AcDbLine
 10
179.7958893098336
 20
103.6987199750722
 30
0.0
 11
179.4458893098337
 21
103.6987199750722
 31
0.0
  0
LINE
  5
E1
330
1F
100
AcDbEntity
  8
JISSEN
  6
Continuous
 62
     3
100
AcDbLine
 10
181.2958893098345
 20
102.5487199750722
 30
0.0
 11
181.2958893098345
 21
101.8487199750722
 31
0.0
  0
LINE
  5
E2
330
1F
100
AcDbEntity
  8
JISSEN
  6
Continuous
 62
     3
100
AcDbLine
 10
179.7958893098336
 20
100.6987199750722
 30
0.0
 11
180.1458893098342
 21
100.6987199750722
 31
0.0
  0
LINE
  5
E3
330
1F
100
AcDbEntity
  8
JISSEN
  6
Continuous
 62
     3
100
AcDbLine
 10
179.7958893098336
 20
100.6987199750722
 30
0.0
 11
179.4458893098337
 21
100.6987199750722
 31
0.0
  0
LINE
  5
E4
330
1F
100
AcDbEntity
  8
JISSEN
  6
Continuous
 62
     3
100
AcDbLine
 10
178.2958893098335
 20
102.5487199750722
 30
0.0
 11
178.2958893098335
 21
101.8487199750722
 31
0.0
  0
LINE
  5
E5
330
1F
100
AcDbEntity
  8
JISSEN
  6
Continuous
 62
     3
100
AcDbLine
 10
170.7958893098333
 20
108.4945565184742
 30
0.0
 11
170.7958893098333
 21
107.6987199750722
 31
0.0
  0
LINE
  5
E6
330
1F
100
AcDbEntity
  8
JISSEN
  6
Continuous
 62
     3
100
AcDbLine
 10
170.2958893098332
 20
109.6987199750722
 30
0.0
 11
170.6458893098337
 21
109.6987199750722
 31
0.0
  0
LINE
  5
E7
330
1F
100
AcDbEntity
  8
JISSEN
  6
Continuous
 62
     3
100
AcDbLine
 10
169.7958893098336
 20
108.4945565184742
 30
0.0
 11
169.7958893098336
 21
107.6987199750722
 31
0.0
  0
LINE
  5
E8
330
1F
100
AcDbEntity
  8
JISSEN
  6
Continuous
 62
     3
100
AcDbLine
 10
170.2958893098332
 20
109.6987199750722
 30
0.0
 11
169.9458893098333
 21
109.6987199750722
 31
0.0
  0
LINE
  5
E9
330
1F
100
AcDbEntity
  8
JISSEN
  6
Continuous
 62
     3
100
AcDbLine
 10
170.7958893098333
 20
103.9028834316702
 30
0.0
 11
170.7958893098333
 21
104.6987199750722
 31
0.0
  0
LINE
  5
EA
330
1F
100
AcDbEntity
  8
JISSEN
  6
Continuous
 62
     3
100
AcDbLine
 10
169.7958893098336
 20
104.6987199750722
 30
0.0
 11
169.7958893098336
 21
103.9028834316702
 31
0.0
  0
LINE
  5
EB
330
1F
100
AcDbEntity
  8
JISSEN
  6
Continuous
 62
     3
100
AcDbLine
 10
173.0000527664316
 20
100.6987199750722
 30
0.0
 11
173.7958893098335
 21
100.6987199750722
 31
0.0
  0
LINE
  5
EC
330
1F
100
AcDbEntity
  8
JISSEN
  6
Continuous
 62
     3
100
AcDbLine
 10
173.0000527664316
 20
101.6987199750722
 30
0.0
 11
173.7958893098335
 21
101.6987199750722
 31
0.0
  0
LINE
  5
ED
330
1F
100
AcDbEntity
  8
JISSEN
  6
Continuous
 62
     3
100
AcDbLine
 10
170.2958893098332
 20
99.69871997507221
 30
0.0
 11
170.6458893098335
 21
99.69871997507221
 31
0.0
  0
LINE
  5
EE
330
1F
100
AcDbEntity
  8
JISSEN
  6
Continuous
 62
     3
100
AcDbLine
 10
171.7958893098336
 20
101.5487199750722
 30
0.0
 11
171.7958893098336
 21
100.8487199750722
 31
0.0
  0
LINE
  5
EF
330
1F
100
AcDbEntity
  8
JISSEN
  6
Continuous
 62
     3
100
AcDbLine
 10
170.2958893098332
 20
102.6987199750722
 30
0.0
 11
170.6458893098335
 21
102.6987199750722
 31
0.0
  0
LINE
  5
F0
330
1F
100
AcDbEntity
  8
JISSEN
  6
Continuous
 62
     3
100
AcDbLine
 10
168.795889309833
 20
101.5487199750722
 30
0.0
 11
168.795889309833
 21
100.8487199750722
 31
0.0
  0
LINE
  5
F1
330
1F
100
AcDbEntity
  8
JISSEN
  6
Continuous
 62
     3
100
AcDbLine
 10
170.2958893098332
 20
102.6987199750722
 30
0.0
 11
169.9458893098336
 21
102.6987199750722
 31
0.0
  0
LINE
  5
F2
330
1F
100
AcDbEntity
  8
JISSEN
  6
Continuous
 62
     3
100
AcDbLine
 10
170.2958893098332
 20
99.69871997507221
 30
0.0
 11
169.9458893098336
 21
99.69871997507221
 31
0.0
  0
LINE
  5
F3
330
1F
100
AcDbEntity
  8
JISSEN
  6
Continuous
 62
     3
100
AcDbLine
 10
170.7958893098333
 20
98.4945565184741
 30
0.0
 11
170.7958893098333
 21
97.69871997507221
 31
0.0
  0
LINE
  5
F4
330
1F
100
AcDbEntity
  8
JISSEN
  6
Continuous
 62
     3
100
AcDbLine
 10
169.7958893098336
 20
98.4945565184741
 30
0.0
 11
169.7958893098336
 21
97.69871997507221
 31
0.0
  0
LINE
  5
F5
330
1F
100
AcDbEntity
  8
JISSEN
  6
Continuous
 62
     3
100
AcDbLine
 10
173.7958893098335
 20
104.6987199750722
 30
0.0
 11
173.7958893098335
 21
97.69871997507221
 31
0.0
  0
LINE
  5
F6
330
1F
100
AcDbEntity
  8
JISSEN
  6
Continuous
 62
     3
100
AcDbLine
 10
161.2958893098335
 20
108.4945565184742
 30
0.0
 11
161.2958893098335
 21
107.6987199750722
 31
0.0
  0
LINE
  5
F7
330
1F
100
AcDbEntity
  8
JISSEN
  6
Continuous
 62
     3
100
AcDbLine
 10
160.2958893098332
 20
108.4945565184742
 30
0.0
 11
160.2958893098332
 21
107.6987199750722
 31
0.0
  0
LINE
  5
F8
330
1F
100
AcDbEntity
  8
JISSEN
  6
Continuous
 62
     3
100
AcDbLine
 10
160.7958893098333
 20
109.6987199750722
 30
0.0
 11
160.4458893098334
 21
109.6987199750722
 31
0.0
  0
LINE
  5
F9
330
1F
100
AcDbEntity
  8
JISSEN
  6
Continuous
 62
     3
100
AcDbLine
 10
160.7958893098333
 20
109.6987199750722
 30
0.0
 11
161.1458893098333
 21
109.6987199750722
 31
0.0
  0
LINE
  5
FA
330
1F
100
AcDbEntity
  8
JISSEN
  6
Continuous
 62
     3
100
AcDbLine
 10
161.2958893098335
 20
103.9028834316702
 30
0.0
 11
161.2958893098335
 21
104.6987199750722
 31
0.0
  0
LINE
  5
FB
330
1F
100
AcDbEntity
  8
JISSEN
  6
Continuous
 62
     3
100
AcDbLine
 10
160.2958893098332
 20
104.6987199750722
 30
0.0
 11
160.2958893098332
 21
103.9028834316702
 31
0.0
  0
LINE
  5
FC
330
1F
100
AcDbEntity
  8
JISSEN
  6
Continuous
 62
     3
100
AcDbLine
 10
157.2958893098336
 20
104.6987199750722
 30
0.0
 11
164.2958893098336
 21
104.6987199750722
 31
0.0
  0
LINE
  5
FD
330
1F
100
AcDbEntity
  8
JISSEN
  6
Continuous
 62
     3
100
AcDbLine
 10
164.2958893098336
 20
107.6987199750722
 30
0.0
 11
157.2958893098336
 21
107.6987199750722
 31
0.0
  0
LINE
  5
FE
330
1F
100
AcDbEntity
  8
JISSEN
  6
Continuous
 62
     3
100
AcDbLine
 10
163.5000527664312
 20
100.6987199750722
 30
0.0
 11
164.2958893098336
 21
100.6987199750722
 31
0.0
  0
LINE
  5
FF
330
1F
100
AcDbEntity
  8
JISSEN
  6
Continuous
 62
     3
100
AcDbLine
 10
163.5000527664312
 20
101.6987199750722
 30
0.0
 11
164.2958893098336
 21
101.6987199750722
 31
0.0
  0
LINE
  5
100
330
1F
100
AcDbEntity
  8
JISSEN
  6
Continuous
 62
     3
100
AcDbLine
 10
162.2958893098336
 20
101.5487199750722
 30
0.0
 11
162.2958893098336
 21
100.8487199750722
 31
0.0
  0
LINE
  5
101
330
1F
100
AcDbEntity
  8
JISSEN
  6
Continuous
 62
     3
100
AcDbLine
 10
160.7958893098333
 20
102.6987199750722
 30
0.0
 11
160.4458893098334
 21
102.6987199750722
 31
0.0
  0
LINE
  5
102
330
1F
100
AcDbEntity
  8
JISSEN
  6
Continuous
 62
     3
100
AcDbLine
 10
160.7958893098333
 20
99.69871997507221
 30
0.0
 11
160.4458893098334
 21
99.69871997507221
 31
0.0
  0
LINE
  5
103
330
1F
100
AcDbEntity
  8
JISSEN
  6
Continuous
 62
     3
100
AcDbLine
 10
160.7958893098333
 20
99.69871997507221
 30
0.0
 11
161.1458893098333
 21
99.69871997507221
 31
0.0
  0
LINE
  5
104
330
1F
100
AcDbEntity
  8
JISSEN
  6
Continuous
 62
     3
100
AcDbLine
 10
160.7958893098333
 20
102.6987199750722
 30
0.0
 11
161.1458893098333
 21
102.6987199750722
 31
0.0
  0
LINE
  5
105
330
1F
100
AcDbEntity
  8
JISSEN
  6
Continuous
 62
     3
100
AcDbLine
 10
158.0917258532355
 20
101.6987199750722
 30
0.0
 11
157.2958893098336
 21
101.6987199750722
 31
0.0
  0
LINE
  5
106
330
1F
100
AcDbEntity
  8
JISSEN
  6
Continuous
 62
     3
100
AcDbLine
 10
158.0917258532355
 20
100.6987199750722
 30
0.0
 11
157.2958893098336
 21
100.6987199750722
 31
0.0
  0
LINE
  5
107
330
1F
100
AcDbEntity
  8
JISSEN
  6
Continuous
 62
     3
100
AcDbLine
 10
159.2958893098331
 20
101.5487199750722
 30
0.0
 11
159.2958893098331
 21
100.8487199750722
 31
0.0
  0
LINE
  5
108
330
1F
100
AcDbEntity
  8
JISSEN
  6
Continuous
 62
     3
100
AcDbLine
 10
161.2958893098335
 20
98.4945565184741
 30
0.0
 11
161.2958893098335
 21
97.69871997507221
 31
0.0
  0
LINE
  5
109
330
1F
100
AcDbEntity
  8
JISSEN
  6
Continuous
 62
     3
100
AcDbLine
 10
160.2958893098332
 20
98.4945565184741
 30
0.0
 11
160.2958893098332
 21
97.69871997507221
 31
0.0
  0
LINE
  5
10A
330
1F
100
AcDbEntity
  8
JISSEN
  6
Continuous
 62
     3
100
AcDbLine
 10
164.2958893098336
 20
97.69871997507221
 30
0.0
 11
157.2958893098336
 21
97.69871997507221
 31
0.0
  0
LINE
  5
10B
330
1F
100
AcDbEntity
  8
JISSEN
  6
Continuous
 62
     3
100
AcDbLine
 10
157.2958893098336
 20
97.69871997507221
 30
0.0
 11
157.2958893098336
 21
104.6987199750722
 31
0.0
  0
LINE
  5
10C
330
1F
100
AcDbEntity
  8
JISSEN
  6
Continuous
 62
     3
100
AcDbLine
 10
164.2958893098336
 20
104.6987199750722
 30
0.0
 11
164.2958893098336
 21
97.69871997507221
 31
0.0
  0
LINE
  5
10D
330
1F
100
AcDbEntity
  8
JISSEN
  6
Continuous
 62
     3
100
AcDbLine
 10
166.7958893098336
 20
97.69871997507221
 30
0.0
 11
166.7958893098336
 21
104.6987199750722
 31
0.0
  0
LINE
  5
10E
330
1F
100
AcDbEntity
  8
JISSEN
  6
Continuous
 62
     3
100
AcDbLine
 10
151.7958893098336
 20
108.4945565184742
 30
0.0
 11
151.7958893098336
 21
107.6987199750722
 31
0.0
  0
LINE
  5
10F
330
1F
100
AcDbEntity
  8
JISSEN
  6
Continuous
 62
     3
100
AcDbLine
 10
151.2958893098335
 20
109.6987199750722
 30
0.0
 11
151.6458893098333
 21
109.6987199750722
 31
0.0
  0
LINE
  5
110
330
1F
100
AcDbEntity
  8
JISSEN
  6
Continuous
 62
     3
100
AcDbLine
 10
151.7958893098336
 20
103.9028834316702
 30
0.0
 11
151.7958893098336
 21
104.6987199750722
 31
0.0
  0
LINE
  5
111
330
1F
100
AcDbEntity
  8
JISSEN
  6
Continuous
 62
     3
100
AcDbLine
 10
150.7958893098333
 20
108.4945565184742
 30
0.0
 11
150.7958893098333
 21
107.6987199750722
 31
0.0
  0
LINE
  5
112
330
1F
100
AcDbEntity
  8
JISSEN
  6
Continuous
 62
     3
100
AcDbLine
 10
150.7958893098333
 20
104.6987199750722
 30
0.0
 11
150.7958893098333
 21
103.9028834316702
 31
0.0
  0
LINE
  5
113
330
1F
100
AcDbEntity
  8
JISSEN
  6
Continuous
 62
     3
100
AcDbLine
 10
147.7958893098332
 20
104.6987199750722
 30
0.0
 11
154.7958893098336
 21
104.6987199750722
 31
0.0
  0
LINE
  5
114
330
1F
100
AcDbEntity
  8
JISSEN
  6
Continuous
 62
     3
100
AcDbLine
 10
154.7958893098336
 20
107.6987199750722
 30
0.0
 11
147.7958893098332
 21
107.6987199750722
 31
0.0
  0
LINE
  5
115
330
1F
100
AcDbEntity
  8
JISSEN
  6
Continuous
 62
     3
100
AcDbLine
 10
151.2958893098335
 20
109.6987199750722
 30
0.0
 11
150.9458893098336
 21
109.6987199750722
 31
0.0
  0
LINE
  5
116
330
1F
100
AcDbEntity
  8
JISSEN
  6
Continuous
 62
     3
100
AcDbLine
 10
154.0000527664312
 20
100.6987199750722
 30
0.0
 11
154.7958893098336
 21
100.6987199750722
 31
0.0
  0
LINE
  5
117
330
1F
100
AcDbEntity
  8
JISSEN
  6
Continuous
 62
     3
100
AcDbLine
 10
154.0000527664312
 20
101.6987199750722
 30
0.0
 11
154.7958893098336
 21
101.6987199750722
 31
0.0
  0
LINE
  5
118
330
1F
100
AcDbEntity
  8
JISSEN
  6
Continuous
 62
     3
100
AcDbLine
 10
151.2958893098335
 20
99.69871997507221
 30
0.0
 11
151.6458893098331
 21
99.69871997507221
 31
0.0
  0
LINE
  5
119
330
1F
100
AcDbEntity
  8
JISSEN
  6
Continuous
 62
     3
100
AcDbLine
 10
152.7958893098337
 20
101.5487199750722
 30
0.0
 11
152.7958893098332
 21
100.8487199750722
 31
0.0
  0
LINE
  5
11A
330
1F
100
AcDbEntity
  8
JISSEN
  6
Continuous
 62
     3
100
AcDbLine
 10
151.2958893098335
 20
102.6987199750722
 30
0.0
 11
151.6458893098331
 21
102.6987199750722
 31
0.0
  0
LINE
  5
11B
330
1F
100
AcDbEntity
  8
JISSEN
  6
Continuous
 62
     3
100
AcDbLine
 10
151.7958893098336
 20
98.4945565184741
 30
0.0
 11
151.7958893098336
 21
97.69871997507221
 31
0.0
  0
LINE
  5
11C
330
1F
100
AcDbEntity
  8
JISSEN
  6
Continuous
 62
     3
100
AcDbLine
 10
149.7958893098331
 20
101.5487199750722
 30
0.0
 11
149.7958893098336
 21
100.8487199750722
 31
0.0
  0
LINE
  5
11D
330
1F
100
AcDbEntity
  8
JISSEN
  6
Continuous
 62
     3
100
AcDbLine
 10
148.5917258532356
 20
101.6987199750722
 30
0.0
 11
147.7958893098332
 21
101.6987199750722
 31
0.0
  0
LINE
  5
11E
330
1F
100
AcDbEntity
  8
JISSEN
  6
Continuous
 62
     3
100
AcDbLine
 10
148.5917258532356
 20
100.6987199750722
 30
0.0
 11
147.7958893098332
 21
100.6987199750722
 31
0.0
  0
LINE
  5
11F
330
1F
100
AcDbEntity
  8
JISSEN
  6
Continuous
 62
     3
100
AcDbLine
 10
150.7958893098333
 20
98.4945565184741
 30
0.0
 11
150.7958893098333
 21
97.69871997507221
 31
0.0
  0
LINE
  5
120
330
1F
100
AcDbEntity
  8
JISSEN
  6
Continuous
 62
     3
100
AcDbLine
 10
154.7958893098336
 20
97.69871997507221
 30
0.0
 11
147.7958893098332
 21
97.69871997507221
 31
0.0
  0
LINE
  5
121
330
1F
100
AcDbEntity
  8
JISSEN
  6
Continuous
 62
     3
100
AcDbLine
 10
151.2958893098335
 20
102.6987199750722
 30
0.0
 11
150.9458893098332
 21
102.6987199750722
 31
0.0
  0
LINE
  5
122
330
1F
100
AcDbEntity
  8
JISSEN
  6
Continuous
 62
     3
100
AcDbLine
 10
151.2958893098335
 20
99.69871997507221
 30
0.0
 11
150.9458893098332
 21
99.69871997507221
 31
0.0
  0
LINE
  5
123
330
1F
100
AcDbEntity
  8
JISSEN
  6
Continuous
 62
     3
100
AcDbLine
 10
147.7958893098332
 20
97.69871997507221
 30
0.0
 11
147.7958893098332
 21
104.6987199750722
 31
0.0
  0
LINE
  5
124
330
1F
100
AcDbEntity
  8
JISSEN
  6
Continuous
 62
     3
100
AcDbLine
 10
154.7958893098336
 20
104.6987199750722
 30
0.0
 11
154.7958893098336
 21
97.69871997507221
 31
0.0
  0
LINE
  5
125
330
1F
100
AcDbEntity
  8
JISSEN
  6
Continuous
 62
     3
100
AcDbLine
 10
167.5917258532353
 20
101.6987199750722
 30
0.0
 11
166.7958893098336
 21
101.6987199750722
 31
0.0
  0
LINE
  5
126
330
1F
100
AcDbEntity
  8
JISSEN
  6
Continuous
 62
     3
100
AcDbLine
 10
167.5917258532353
 20
100.6987199750722
 30
0.0
 11
166.7958893098336
 21
100.6987199750722
 31
0.0
  0
LINE
  5
127
330
1F
100
AcDbEntity
  8
JISSEN
  6
Continuous
 62
     3
100
AcDbLine
 10
173.7958893098335
 20
97.69871997507221
 30
0.0
 11
166.7958893098336
 21
97.69871997507221
 31
0.0
  0
LINE
  5
128
330
1F
100
AcDbEntity
  8
JISSEN
  6
Continuous
 62
     3
100
AcDbLine
 10
166.7958893098336
 20
104.6987199750722
 30
0.0
 11
173.7958893098335
 21
104.6987199750722
 31
0.0
  0
LINE
  5
129
330
1F
100
AcDbEntity
  8
JISSEN
  6
Continuous
 62
     3
100
AcDbLine
 10
173.7958893098335
 20
107.6987199750722
 30
0.0
 11
166.7958893098336
 21
107.6987199750722
 31
0.0
  0
LINE
  5
12A
330
1F
100
AcDbEntity
  8
JISSEN
  6
Continuous
 62
     3
100
AcDbLine
 10
166.7958893098336
 20
107.6987199750722
 30
0.0
 11
166.7958893098336
 21
114.6987199750722
 31
0.0
  0
LINE
  5
12B
330
1F
100
AcDbEntity
  8
JISSEN
  6
Continuous
 62
     3
100
AcDbLine
 10
173.7958893098335
 20
114.6987199750722
 30
0.0
 11
173.7958893098335
 21
107.6987199750722
 31
0.0
  0
LINE
  5
12C
330
1F
100
AcDbEntity
  8
JISSEN
  6
Continuous
 62
     3
100
AcDbLine
 10
157.2958893098336
 20
107.6987199750722
 30
0.0
 11
157.2958893098336
 21
114.6987199750722
 31
0.0
  0
LINE
  5
12D
330
1F
100
AcDbEntity
  8
JISSEN
  6
Continuous
 62
     3
100
AcDbLine
 10
164.2958893098336
 20
114.6987199750722
 30
0.0
 11
164.2958893098336
 21
107.6987199750722
 31
0.0
  0
LINE
  5
12E
330
1F
100
AcDbEntity
  8
JISSEN
  6
Continuous
 62
     3
100
AcDbLine
 10
147.7958893098332
 20
107.6987199750722
 30
0.0
 11
147.7958893098332
 21
114.6987199750722
 31
0.0
  0
LINE
  5
12F
330
1F
100
AcDbEntity
  8
JISSEN
  6
Continuous
 62
     3
100
AcDbLine
 10
154.7958893098336
 20
114.6987199750722
 30
0.0
 11
154.7958893098336
 21
107.6987199750722
 31
0.0
  0
LINE
  5
130
330
1F
100
AcDbEntity
  8
NITEN
  6
PHANTOM
 62
   140
100
AcDbLine
 10
185.7958893098337
 20
88.1987199750721
 30
0.0
 11
185.7958893098337
 21
134.1987199750722
 31
0.0
  0
LINE
  5
131
330
1F
100
AcDbEntity
  8
JISSEN
  6
Continuous
 62
     3
100
AcDbLine
 10
141.7958893098336
 20
111.6987199750722
 30
0.0
 11
142.1458893098335
 21
111.6987199750722
 31
0.0
  0
LINE
  5
132
330
1F
100
AcDbEntity
  8
JISSEN
  6
Continuous
 62
     3
100
AcDbLine
 10
141.7958893098336
 20
111.6987199750722
 30
0.0
 11
141.4458893098337
 21
111.6987199750722
 31
0.0
  0
LINE
  5
133
330
1F
100
AcDbEntity
  8
JISSEN
  6
Continuous
 62
     3
100
AcDbLine
 10
143.2958893098337
 20
110.5487199750722
 30
0.0
 11
143.2958893098337
 21
109.8487199750722
 31
0.0
  0
LINE
  5
134
330
1F
100
AcDbEntity
  8
JISSEN
  6
Continuous
 62
     3
100
AcDbLine
 10
141.7958893098336
 20
108.6987199750722
 30
0.0
 11
142.1458893098335
 21
108.6987199750722
 31
0.0
  0
LINE
  5
135
330
1F
100
AcDbEntity
  8
JISSEN
  6
Continuous
 62
     3
100
AcDbLine
 10
141.7958893098336
 20
108.6987199750722
 30
0.0
 11
141.4458893098337
 21
108.6987199750722
 31
0.0
  0
LINE
  5
136
330
1F
100
AcDbEntity
  8
JISSEN
  6
Continuous
 62
     3
100
AcDbLine
 10
140.2958893098333
 20
110.5487199750722
 30
0.0
 11
140.2958893098333
 21
109.8487199750722
 31
0.0
  0
LINE
  5
137
330
1F
100
AcDbEntity
  8
NITEN
  6
PHANTOM
 62
   140
100
AcDbLine
 10
135.7958893098333
 20
134.1987199750722
 30
0.0
 11
135.7958893098333
 21
88.1987199750721
 31
0.0
  0
LINE
  5
138
330
1F
100
AcDbEntity
  8
NITEN
  6
PHANTOM
 62
   140
100
AcDbLine
 10
142.6958893098333
 20
81.1987199750721
 30
0.0
 11
178.7958893098333
 21
81.1987199750721
 31
0.0
  0
LINE
  5
139
330
1F
100
AcDbEntity
  8
NITEN
  6
PHANTOM
 62
   140
100
AcDbLine
 10
175.7958893098332
 20
144.1987199750722
 30
0.0
 11
145.7958893098333
 21
144.1987199750722
 31
0.0
  0
LINE
  5
13A
330
1F
100
AcDbEntity
  8
NITEN
  6
PHANTOM
 62
   140
100
AcDbLine
 10
147.5458893098332
 20
79.69871997507201
 30
0.0
 11
174.0458893098332
 21
79.69871997507201
 31
0.0
  0
LINE
  5
13B
330
1F
100
AcDbEntity
  8
NITEN
  6
PHANTOM
 62
   140
100
AcDbLine
 10
147.0458893098332
 20
81.1987199750721
 30
0.0
 11
147.0458893098332
 21
80.19871997507201
 31
0.0
  0
LINE
  5
13C
330
1F
100
AcDbEntity
  8
NITEN
  6
PHANTOM
 62
   140
100
AcDbLine
 10
174.5458893098332
 20
81.1987199750721
 30
0.0
 11
174.5458893098332
 21
80.19871997507201
 31
0.0
  0
LINE
  5
13D
330
1F
100
AcDbEntity
  8
JISSEN
  6
Continuous
 62
     7
100
AcDbLine
 10
176.0458893098333
 20
96.1987199750721
 30
0.0
 11
182.9139232985837
 21
96.1987199750721
 31
0.0
  0
LINE
  5
13E
330
1F
100
AcDbEntity
  8
JISSEN
  6
Continuous
 62
     7
100
AcDbLine
 10
176.0458893098333
 20
96.9487199750721
 30
0.0
 11
182.2958893098337
 21
96.9487199750721
 31
0.0
  0
LINE
  5
13F
330
1F
100
AcDbEntity
  8
JISSEN
  6
Continuous
 62
     7
100
AcDbLine
 10
166.5458893098332
 20
96.1987199750721
 30
0.0
 11
174.0458893098332
 21
96.1987199750721
 31
0.0
  0
LINE
  5
140
330
1F
100
AcDbEntity
  8
JISSEN
  6
Continuous
 62
     7
100
AcDbLine
 10
166.5458893098332
 20
96.9487199750721
 30
0.0
 11
174.0458893098332
 21
96.9487199750721
 31
0.0
  0
LINE
  5
141
330
1F
100
AcDbEntity
  8
JISSEN
  6
Continuous
 62
     7
100
AcDbLine
 10
157.0458893098333
 20
96.1987199750721
 30
0.0
 11
164.5458893098333
 21
96.1987199750721
 31
0.0
  0
LINE
  5
142
330
1F
100
AcDbEntity
  8
JISSEN
  6
Continuous
 62
     7
100
AcDbLine
 10
157.0458893098333
 20
96.9487199750721
 30
0.0
 11
164.5458893098333
 21
96.9487199750721
 31
0.0
  0
LINE
  5
143
330
1F
100
AcDbEntity
  8
JISSEN
  6
Continuous
 62
     7
100
AcDbLine
 10
147.5458893098333
 20
96.1987199750721
 30
0.0
 11
155.0458893098335
 21
96.1987199750721
 31
0.0
  0
LINE
  5
144
330
1F
100
AcDbEntity
  8
JISSEN
  6
Continuous
 62
     7
100
AcDbLine
 10
147.5458893098333
 20
96.9487199750721
 30
0.0
 11
155.0458893098335
 21
96.9487199750721
 31
0.0
  0
LINE
  5
145
330
1F
100
AcDbEntity
  8
JISSEN
  6
Continuous
 62
     7
100
AcDbLine
 10
147.5458893098333
 20
115.4487199750722
 30
0.0
 11
155.0458893098333
 21
115.4487199750722
 31
0.0
  0
LINE
  5
146
330
1F
100
AcDbEntity
  8
JISSEN
  6
Continuous
 62
     7
100
AcDbLine
 10
147.5458893098333
 20
116.1987199750722
 30
0.0
 11
155.0458893098333
 21
116.1987199750722
 31
0.0
  0
LINE
  5
147
330
1F
100
AcDbEntity
  8
JISSEN
  6
Continuous
 62
     7
100
AcDbLine
 10
157.0458893098333
 20
116.1987199750722
 30
0.0
 11
164.5458893098333
 21
116.1987199750722
 31
0.0
  0
LINE
  5
148
330
1F
100
AcDbEntity
  8
JISSEN
  6
Continuous
 62
     7
100
AcDbLine
 10
157.0458893098333
 20
115.4487199750722
 30
0.0
 11
164.5458893098333
 21
115.4487199750722
 31
0.0
  0
LINE
  5
149
330
1F
100
AcDbEntity
  8
JISSEN
  6
Continuous
 62
     7
100
AcDbLine
 10
166.5458893098332
 20
115.4487199750722
 30
0.0
 11
174.0458893098332
 21
115.4487199750722
 31
0.0
  0
LINE
  5
14A
330
1F
100
AcDbEntity
  8
JISSEN
  6
Continuous
 62
     7
100
AcDbLine
 10
166.5458893098332
 20
116.1987199750722
 30
0.0
 11
174.0458893098332
 21
116.1987199750722
 31
0.0
  0
LINE
  5
14B
330
1F
100
AcDbEntity
  8
JISSEN
  6
Continuous
 62
     7
100
AcDbLine
 10
176.0458893098333
 20
115.4487199750722
 30
0.0
 11
182.2958893098337
 21
115.4487199750722
 31
0.0
  0
LINE
  5
14C
330
1F
100
AcDbEntity
  8
JISSEN
  6
Continuous
 62
     7
100
AcDbLine
 10
176.0458893098333
 20
116.1987199750722
 30
0.0
 11
182.9139232985837
 21
116.1987199750722
 31
0.0
  0
LINE
  5
14D
330
1F
100
AcDbEntity
  8
JISSEN
  6
Continuous
 62
     7
100
AcDbLine
 10
176.0458893098333
 20
95.6987199750721
 30
0.0
 11
181.7958893098333
 21
95.6987199750721
 31
0.0
  0
LINE
  5
14E
330
1F
100
AcDbEntity
  8
JISSEN
  6
Continuous
 62
     7
100
AcDbLine
 10
176.0458893098333
 20
116.6987199750722
 30
0.0
 11
181.7958893098333
 21
116.6987199750722
 31
0.0
  0
LINE
  5
14F
330
1F
100
AcDbEntity
  8
JISSEN
  6
Continuous
 62
     7
100
AcDbLine
 10
146.5458893098333
 20
94.4487199750721
 30
0.0
 11
156.0458893098333
 21
92.4487199750721
 31
0.0
  0
LINE
  5
150
330
1F
100
AcDbEntity
  8
JISSEN
  6
Continuous
 62
     7
100
AcDbLine
 10
165.5458893098332
 20
92.4487199750721
 30
0.0
 11
156.0458893098333
 21
92.4487199750721
 31
0.0
  0
LINE
  5
151
330
1F
100
AcDbEntity
  8
JISSEN
  6
Continuous
 62
     7
100
AcDbLine
 10
175.0458893098333
 20
94.4487199750721
 30
0.0
 11
165.5458893098332
 21
92.4487199750721
 31
0.0
  0
LINE
  5
152
330
1F
100
AcDbEntity
  8
JISSEN
  6
Continuous
 62
     7
100
AcDbLine
 10
165.5458893098332
 20
119.9487199750722
 30
0.0
 11
175.0458893098333
 21
117.9487199750722
 31
0.0
  0
LINE
  5
153
330
1F
100
AcDbEntity
  8
JISSEN
  6
Continuous
 62
     7
100
AcDbLine
 10
156.0458893098333
 20
119.9487199750722
 30
0.0
 11
165.5458893098332
 21
119.9487199750722
 31
0.0
  0
LINE
  5
154
330
1F
100
AcDbEntity
  8
JISSEN
  6
Continuous
 62
     7
100
AcDbLine
 10
146.5458893098333
 20
117.9487199750722
 30
0.0
 11
156.0458893098333
 21
119.9487199750722
 31
0.0
  0
LINE
  5
155
330
1F
100
AcDbEntity
  8
JISSEN
  6
Continuous
 62
     7
100
AcDbLine
 10
182.7958893098337
 20
114.9487199750722
 30
0.0
 11
182.7958893098337
 21
97.4487199750721
 31
0.0
  0
LINE
  5
156
330
1F
100
AcDbEntity
  8
JISSEN
  6
Continuous
 62
     7
100
AcDbLine
 10
138.7958893098333
 20
114.9487199750722
 30
0.0
 11
138.7958893098335
 21
97.4487199750721
 31
0.0
  0
LINE
  5
157
330
1F
100
AcDbEntity
  8
JISSEN
  6
Continuous
 62
     7
100
AcDbLine
 10
138.2958893098333
 20
115.1987199750722
 30
0.0
 11
138.2958893098333
 21
97.1987199750721
 31
0.0
  0
LINE
  5
158
330
1F
100
AcDbEntity
  8
JISSEN
  6
Continuous
 62
     7
100
AcDbLine
 10
183.2958893098337
 20
115.1987199750722
 30
0.0
 11
183.2958893098337
 21
97.1987199750721
 31
0.0
  0
LINE
  5
159
330
1F
100
AcDbEntity
  8
JISSEN
  6
Continuous
 62
     7
100
AcDbLine
 10
145.5458893098333
 20
116.9487199750722
 30
0.0
 11
145.5458893098333
 21
95.4487199750721
 31
0.0
  0
LINE
  5
15A
330
1F
100
AcDbEntity
  8
JISSEN
  6
Continuous
 62
     7
100
AcDbLine
 10
147.5458893098333
 20
116.9487199750722
 30
0.0
 11
147.5458893098333
 21
95.4487199750721
 31
0.0
  0
LINE
  5
15B
330
1F
100
AcDbEntity
  8
JISSEN
  6
Continuous
 62
     7
100
AcDbLine
 10
176.0458893098333
 20
116.9487199750722
 30
0.0
 11
176.0458893098333
 21
95.4487199750721
 31
0.0
  0
LINE
  5
15C
330
1F
100
AcDbEntity
  8
JISSEN
  6
Continuous
 62
     7
100
AcDbLine
 10
174.0458893098333
 20
116.9487199750722
 30
0.0
 11
174.0458893098332
 21
95.4487199750721
 31
0.0
  0
LINE
  5
15D
330
1F
100
AcDbEntity
  8
JISSEN
  6
Continuous
 62
     7
100
AcDbLine
 10
166.5458893098333
 20
118.9487199750722
 30
0.0
 11
166.5458893098332
 21
93.4487199750721
 31
0.0
  0
LINE
  5
15E
330
1F
100
AcDbEntity
  8
JISSEN
  6
Continuous
 62
     7
100
AcDbLine
 10
164.5458893098333
 20
118.9487199750722
 30
0.0
 11
164.5458893098333
 21
93.4487199750721
 31
0.0
  0
LINE
  5
15F
330
1F
100
AcDbEntity
  8
JISSEN
  6
Continuous
 62
     7
100
AcDbLine
 10
155.0458893098333
 20
118.9487199750722
 30
0.0
 11
155.0458893098333
 21
93.4487199750721
 31
0.0
  0
LINE
  5
160
330
1F
100
AcDbEntity
  8
JISSEN
  6
Continuous
 62
     7
100
AcDbLine
 10
157.0458893098333
 20
118.9487199750722
 30
0.0
 11
157.0458893098333
 21
93.4487199750721
 31
0.0
  0
LINE
  5
161
330
1F
100
AcDbEntity
  8
JISSEN
  6
Continuous
 62
     7
100
AcDbLine
 10
139.2958893098333
 20
96.9487199750721
 30
0.0
 11
145.5458893098333
 21
96.9487199750721
 31
0.0
  0
LINE
  5
162
330
1F
100
AcDbEntity
  8
JISSEN
  6
Continuous
 62
     7
100
AcDbLine
 10
139.2958893098333
 20
115.4487199750722
 30
0.0
 11
145.5458893098333
 21
115.4487199750722
 31
0.0
  0
LINE
  5
163
330
1F
100
AcDbEntity
  8
JISSEN
  6
Continuous
 62
     7
100
AcDbLine
 10
138.6778553210835
 20
96.1987199750721
 30
0.0
 11
145.5458893098333
 21
96.1987199750721
 31
0.0
  0
LINE
  5
164
330
1F
100
AcDbEntity
  8
JISSEN
  6
Continuous
 62
     7
100
AcDbLine
 10
138.6778553210835
 20
116.1987199750722
 30
0.0
 11
145.5458893098333
 21
116.1987199750722
 31
0.0
  0
LINE
  5
165
330
1F
100
AcDbEntity
  8
JISSEN
  6
Continuous
 62
     7
100
AcDbLine
 10
139.7958893098333
 20
95.6987199750721
 30
0.0
 11
145.5458893098333
 21
95.6987199750721
 31
0.0
  0
LINE
  5
166
330
1F
100
AcDbEntity
  8
JISSEN
  6
Continuous
 62
     7
100
AcDbLine
 10
139.7958893098333
 20
116.6987199750722
 30
0.0
 11
145.5458893098333
 21
116.6987199750722
 31
0.0
  0
LINE
  5
167
330
1F
100
AcDbEntity
  8
ITTEN
  6
DASH_CENTER
 62
     3
100
AcDbLine
 10
160.7958893098333
 20
145.2487199750722
 30
0.0
 11
160.7958893098333
 21
123.1487199750722
 31
0.0
  0
LINE
  5
168
330
1F
100
AcDbEntity
  8
JISSEN
  6
Continuous
 62
     7
100
AcDbLine
 10
237.7930962133777
 20
143.3987199750722
 30
0.0
 11
237.7930962133777
 21
83.39871997507211
 31
0.0
  0
LINE
  5
169
330
1F
100
AcDbEntity
  8
JISSEN
  6
Continuous
 62
     7
100
AcDbLine
 10
236.7930962133777
 20
123.3987199750722
 30
0.0
 11
236.2930962133777
 21
123.3987199750722
 31
0.0
  0
LINE
  5
16A
330
1F
100
AcDbEntity
  8
JISSEN
  6
Continuous
 62
     7
100
AcDbLine
 10
236.2930962133777
 20
117.3987199750722
 30
0.0
 11
237.4930962133777
 21
117.3987199750722
 31
0.0
  0
LINE
  5
16B
330
1F
100
AcDbEntity
  8
JISSEN
  6
Continuous
 62
     7
100
AcDbLine
 10
235.2930962133777
 20
122.3987199750722
 30
0.0
 11
235.2930962133777
 21
118.3987199750722
 31
0.0
  0
LINE
  5
16C
330
1F
100
AcDbEntity
  8
JISSEN
  6
Continuous
 62
     7
100
AcDbLine
 10
237.7930962133777
 20
83.39871997507211
 30
0.0
 11
240.6930962133778
 21
83.39871997507211
 31
0.0
  0
LINE
  5
16D
330
1F
100
AcDbEntity
  8
JISSEN
  6
Continuous
 62
     7
100
AcDbLine
 10
179.3958893098333
 20
133.4987199750722
 30
0.0
 11
177.1052903098333
 21
137.4987199750722
 31
0.0
  0
LINE
  5
16E
330
1F
100
AcDbEntity
  8
JISSEN
  6
Continuous
 62
     7
100
AcDbLine
 10
177.1052903098333
 20
129.4987199750722
 30
0.0
 11
179.3958893098333
 21
133.4987199750722
 31
0.0
  0
LINE
  5
16F
330
1F
100
AcDbEntity
  8
JISSEN
  6
Continuous
 62
     7
100
AcDbLine
 10
177.1052903098333
 20
129.4987199750722
 30
0.0
 11
172.4864883098334
 21
129.4987199750722
 31
0.0
  0
LINE
  5
170
330
1F
100
AcDbEntity
  8
JISSEN
  6
Continuous
 62
     7
100
AcDbLine
 10
170.1958893098333
 20
133.4987199750722
 30
0.0
 11
172.4864883098334
 21
129.4987199750722
 31
0.0
  0
LINE
  5
171
330
1F
100
AcDbEntity
  8
JISSEN
  6
Continuous
 62
     7
100
AcDbLine
 10
172.4864883098334
 20
137.4987199750722
 30
0.0
 11
170.1958893098333
 21
133.4987199750722
 31
0.0
  0
LINE
  5
172
330
1F
100
AcDbEntity
  8
JISSEN
  6
Continuous
 62
     7
100
AcDbLine
 10
172.4864883098334
 20
137.4987199750722
 30
0.0
 11
177.1052903098333
 21
137.4987199750722
 31
0.0
  0
LINE
  5
173
330
1F
100
AcDbEntity
  8
JISSEN
  6
Continuous
 62
     7
100
AcDbLine
 10
151.3958893098333
 20
133.4987199750722
 30
0.0
 11
149.1052903098333
 21
129.4987199750722
 31
0.0
  0
LINE
  5
174
330
1F
100
AcDbEntity
  8
JISSEN
  6
Continuous
 62
     7
100
AcDbLine
 10
144.4864883098334
 20
129.4987199750722
 30
0.0
 11
149.1052903098333
 21
129.4987199750722
 31
0.0
  0
LINE
  5
175
330
1F
100
AcDbEntity
  8
JISSEN
  6
Continuous
 62
     7
100
AcDbLine
 10
144.4864883098334
 20
129.4987199750722
 30
0.0
 11
142.1958893098333
 21
133.4987199750722
 31
0.0
  0
LINE
  5
176
330
1F
100
AcDbEntity
  8
JISSEN
  6
Continuous
 62
     7
100
AcDbLine
 10
142.1958893098333
 20
133.4987199750722
 30
0.0
 11
144.4864883098334
 21
137.4987199750722
 31
0.0
  0
LINE
  5
177
330
1F
100
AcDbEntity
  8
JISSEN
  6
Continuous
 62
     7
100
AcDbLine
 10
149.1052903098333
 20
137.4987199750722
 30
0.0
 11
151.3958893098333
 21
133.4987199750722
 31
0.0
  0
LINE
  5
178
330
1F
100
AcDbEntity
  8
JISSEN
  6
Continuous
 62
     7
100
AcDbLine
 10
149.1052903098333
 20
137.4987199750722
 30
0.0
 11
144.4864883098334
 21
137.4987199750722
 31
0.0
  0
LINE
  5
179
330
1F
100
AcDbEntity
  8
JISSEN
  6
Continuous
 62
     7
100
AcDbLine
 10
172.7958893098333
 20
124.4987199750722
 30
0.0
 11
148.7958893098333
 21
124.4987199750722
 31
0.0
  0
LINE
  5
17A
330
1F
100
AcDbEntity
  8
JISSEN
  6
Continuous
 62
     7
100
AcDbLine
 10
148.7958893098333
 20
122.6987199750722
 30
0.0
 11
172.7958893098333
 21
122.6987199750722
 31
0.0
  0
LINE
  5
17B
330
1F
100
AcDbEntity
  8
JISSEN
  6
Continuous
 62
     7
100
AcDbLine
 10
142.5348993098334
 20
142.2987199750722
 30
0.0
 11
146.9090933098333
 21
142.2987199750722
 31
0.0
  0
LINE
  5
17C
330
1F
100
AcDbEntity
  8
JISSEN
  6
Continuous
 62
     7
100
AcDbLine
 10
148.7958893098333
 20
142.4987199750722
 30
0.0
 11
172.7958893098333
 21
142.4987199750722
 31
0.0
  0
LINE
  5
17D
330
1F
100
AcDbEntity
  8
JISSEN
  6
Continuous
 62
     7
100
AcDbLine
 10
174.6826853098334
 20
142.2987199750722
 30
0.0
 11
179.0568793098333
 21
142.2987199750722
 31
0.0
  0
LINE
  5
17E
330
1F
100
AcDbEntity
  8
JISSEN
  6
Continuous
 62
     7
100
AcDbLine
 10
137.7958893098333
 20
117.1987199750722
 30
0.0
 11
140.7958893098333
 21
117.1987199750722
 31
0.0
  0
LINE
  5
17F
330
1F
100
AcDbEntity
  8
JISSEN
  6
Continuous
 62
     7
100
AcDbLine
 10
140.7958893098333
 20
117.1987199750722
 30
0.0
 11
140.7958893098333
 21
123.1987199750722
 31
0.0
  0
LINE
  5
180
330
1F
100
AcDbEntity
  8
JISSEN
  6
Continuous
 62
     7
100
AcDbLine
 10
139.2958893098333
 20
123.1987199750722
 30
0.0
 11
139.2958893098333
 21
117.1987199750722
 31
0.0
  0
LINE
  5
181
330
1F
100
AcDbEntity
  8
JISSEN
  6
Continuous
 62
     7
100
AcDbLine
 10
137.7958893098333
 20
123.1987199750722
 30
0.0
 11
140.7958893098333
 21
123.1987199750722
 31
0.0
  0
LINE
  5
182
330
1F
100
AcDbEntity
  8
JISSEN
  6
Continuous
 62
     7
100
AcDbLine
 10
140.7958893098333
 20
122.6987199750722
 30
0.0
 11
146.7958893098333
 21
122.6987199750722
 31
0.0
  0
LINE
  5
183
330
1F
100
AcDbEntity
  8
ITTEN
  6
DASH_CENTER
 62
     3
100
AcDbLine
 10
136.8380573098333
 20
120.1987199750722
 30
0.0
 11
147.7958893098333
 21
120.1987199750722
 31
0.0
  0
LINE
  5
184
330
1F
100
AcDbEntity
  8
JISSEN
  6
Continuous
 62
     7
100
AcDbLine
 10
146.7958893098333
 20
122.6987199750722
 30
0.0
 11
146.7958893098333
 21
118.0013515540192
 31
0.0
  0
LINE
  5
185
330
1F
100
AcDbEntity
  8
JISSEN
  6
Continuous
 62
     7
100
AcDbLine
 10
145.8844514820671
 20
117.6987199750722
 30
0.0
 11
140.7958893098333
 21
117.6987199750722
 31
0.0
  0
LINE
  5
186
330
1F
100
AcDbEntity
  8
JISSEN
  6
Continuous
 62
     7
100
AcDbLine
 10
183.7958893098337
 20
117.1987199750722
 30
0.0
 11
180.7958893098333
 21
117.1987199750722
 31
0.0
  0
LINE
  5
187
330
1F
100
AcDbEntity
  8
JISSEN
  6
Continuous
 62
     7
100
AcDbLine
 10
175.7073271375995
 20
117.6987199750722
 30
0.0
 11
180.7958893098333
 21
117.6987199750722
 31
0.0
  0
LINE
  5
188
330
1F
100
AcDbEntity
  8
ITTEN
  6
DASH_CENTER
 62
     3
100
AcDbLine
 10
173.7958893098333
 20
120.1987199750722
 30
0.0
 11
184.9512643098337
 21
120.1987199750722
 31
0.0
  0
LINE
  5
189
330
1F
100
AcDbEntity
  8
JISSEN
  6
Continuous
 62
     7
100
AcDbLine
 10
174.7958893098333
 20
122.6987199750722
 30
0.0
 11
174.7958893098333
 21
118.0013515540192
 31
0.0
  0
LINE
  5
18A
330
1F
100
AcDbEntity
  8
JISSEN
  6
Continuous
 62
     7
100
AcDbLine
 10
180.7958893098333
 20
122.6987199750722
 30
0.0
 11
174.7958893098333
 21
122.6987199750722
 31
0.0
  0
LINE
  5
18B
330
1F
100
AcDbEntity
  8
JISSEN
  6
Continuous
 62
     7
100
AcDbLine
 10
180.7958893098333
 20
117.1987199750722
 30
0.0
 11
180.7958893098333
 21
123.1987199750722
 31
0.0
  0
LINE
  5
18C
330
1F
100
AcDbEntity
  8
JISSEN
  6
Continuous
 62
     7
100
AcDbLine
 10
180.7958893098333
 20
123.1987199750722
 30
0.0
 11
183.7958893098337
 21
123.1987199750722
 31
0.0
  0
LINE
  5
18D
330
1F
100
AcDbEntity
  8
JISSEN
  6
Continuous
 62
     7
100
AcDbLine
 10
182.2958893098337
 20
123.1987199750722
 30
0.0
 11
182.2958893098337
 21
117.1987199750722
 31
0.0
  0
LINE
  5
18E
330
1F
100
AcDbEntity
  8
JISSEN
  6
Continuous
 62
     7
100
AcDbLine
 10
156.3014482989844
 20
138.2487199750722
 30
0.0
 11
165.2903303206821
 21
138.2487199750722
 31
0.0
  0
LINE
  5
18F
330
1F
100
AcDbEntity
  8
JISSEN
  6
Continuous
 62
     7
100
AcDbLine
 10
142.8151486114253
 20
143.1987199750722
 30
0.0
 11
178.7766300082412
 21
143.1987199750722
 31
0.0
  0
LINE
  5
190
330
1F
100
AcDbEntity
  8
JISSEN
  6
Continuous
 62
     7
100
AcDbLine
 10
137.7958893098333
 20
88.1987199750721
 30
0.0
 11
137.7958893098333
 21
133.6987199750722
 31
0.0
  0
LINE
  5
191
330
1F
100
AcDbEntity
  8
JISSEN
  6
Continuous
 62
     7
100
AcDbLine
 10
183.7958893098337
 20
88.1987199750721
 30
0.0
 11
183.7958893098337
 21
133.6987199750722
 31
0.0
  0
LINE
  5
192
330
1F
100
AcDbEntity
  8
JISSEN
  6
Continuous
 62
     7
100
AcDbLine
 10
142.7958893098333
 20
83.1987199750721
 30
0.0
 11
178.7958893098333
 21
83.1987199750721
 31
0.0
  0
LINE
  5
193
330
1F
100
AcDbEntity
  8
1
  6
Continuous
 62
     7
100
AcDbLine
 10
226.7503618032858
 20
129.6987199750722
 30
0.0
 11
230.3930962133777
 21
129.6987199750722
 31
0.0
  0
LINE
  5
194
330
1F
100
AcDbEntity
  8
1
  6
Continuous
 62
     7
100
AcDbLine
 10
226.7503618032858
 20
133.6987199750722
 30
0.0
 11
230.3930962133777
 21
133.6987199750722
 31
0.0
  0
LINE
  5
195
330
1F
100
AcDbEntity
  8
1
  6
Continuous
 62
     7
100
AcDbLine
 10
226.3930962133777
 20
135.6987199750722
 30
0.0
 11
226.3930962133777
 21
131.6987199750722
 31
0.0
  0
LINE
  5
196
330
1F
100
AcDbEntity
  8
1
  6
Continuous
 62
     7
100
AcDbLine
 10
230.3930962133777
 20
137.6987199750722
 30
0.0
 11
226.7503618032858
 21
137.6987199750722
 31
0.0
  0
LINE
  5
197
330
1F
100
AcDbEntity
  8
1
  6
Continuous
 62
     7
100
AcDbLine
 10
224.6930962133778
 20
136.1987199750722
 30
0.0
 11
224.6930962133778
 21
131.1987199750722
 31
0.0
  0
LINE
  5
198
330
1F
100
AcDbEntity
  8
SAISEN
  6
Continuous
 62
     3
100
AcDbLine
 10
224.6930962133778
 20
135.7987199750722
 30
0.0
 11
226.3930962133777
 21
135.7987199750722
 31
0.0
  0
LINE
  5
199
330
1F
100
AcDbEntity
  8
SAISEN
  6
Continuous
 62
     3
100
AcDbLine
 10
224.6930962133778
 20
131.5987199750722
 30
0.0
 11
226.3930962133777
 21
131.5987199750722
 31
0.0
  0
LINE
  5
19A
330
1F
100
AcDbEntity
  8
ITTEN
  6
DASH_CENTER
 62
     3
100
AcDbLine
 10
223.0974442268272
 20
133.6987199750722
 30
0.0
 11
243.0399796073151
 21
133.6987199750722
 31
0.0
  0
LINE
  5
19B
330
1F
100
AcDbEntity
  8
JISSEN
  6
PHANTOM
 62
   140
100
AcDbLine
 10
240.6930962133778
 20
143.3987199750722
 30
0.0
 11
240.6930962133778
 21
144.3987199750722
 31
0.0
  0
LINE
  5
19C
330
1F
100
AcDbEntity
  8
NITEN
  6
PHANTOM
 62
   140
100
AcDbLine
 10
237.7930962133777
 20
143.3987199750722
 30
0.0
 11
230.6930962133778
 21
143.3987199750722
 31
0.0
  0
LINE
  5
19D
330
1F
100
AcDbEntity
  8
JISSEN
  6
Continuous
 62
     7
100
AcDbLine
 10
240.6930962133778
 20
143.3987199750722
 30
0.0
 11
237.7930962133777
 21
143.3987199750722
 31
0.0
  0
LINE
  5
19E
330
1F
100
AcDbEntity
  8
1
  6
PHANTOM
 62
   140
100
AcDbLine
 10
135.7958893098331
 20
29.39764558326022
 30
0.0
 11
149.2958893098331
 21
29.39764558326022
 31
0.0
  0
LINE
  5
19F
330
1F
100
AcDbEntity
  8
1
  6
PHANTOM
 62
   140
100
AcDbLine
 10
172.2958893098331
 20
29.39764558326022
 30
0.0
 11
185.7958893098327
 21
29.39764558326022
 31
0.0
  0
LINE
  5
1A0
330
1F
100
AcDbEntity
  8
JISSEN
  6
PHANTOM
 62
   140
100
AcDbLine
 10
150.7958893098331
 20
30.89764558326022
 30
0.0
 11
150.7958893098331
 21
37.29764558326021
 31
0.0
  0
LINE
  5
1A1
330
1F
100
AcDbEntity
  8
JISSEN
  6
PHANTOM
 62
   140
100
AcDbLine
 10
147.7958893098329
 20
29.39764558326022
 30
0.0
 11
147.7958893098329
 21
37.19764558326022
 31
0.0
  0
LINE
  5
1A2
330
1F
100
AcDbEntity
  8
1
  6
PHANTOM
 62
   140
100
AcDbLine
 10
183.7958893098337
 20
29.39764558326022
 30
0.0
 11
183.7958893098337
 21
28.19764558326022
 31
0.0
  0
LINE
  5
1A3
330
1F
100
AcDbEntity
  8
1
  6
PHANTOM
 62
   140
100
AcDbLine
 10
137.7958893098333
 20
29.39764558326021
 30
0.0
 11
137.7958893098333
 21
28.19764558326022
 31
0.0
  0
LINE
  5
1A4
330
1F
100
AcDbEntity
  8
NITEN
  6
Continuous
 62
     7
100
AcDbLine
 10
137.7958893098333
 20
28.19764558326022
 30
0.0
 11
183.7958893098337
 21
28.19764558326022
 31
0.0
  0
LINE
  5
1A5
330
1F
100
AcDbEntity
  8
JISSEN
  6
Continuous
 62
     7
100
AcDbLine
 10
183.7958893098337
 20
25.29764558326022
 30
0.0
 11
137.7958893098333
 21
25.29764558326022
 31
0.0
  0
LINE
  5
1A6
330
1F
100
AcDbEntity
  8
JISSEN
  6
PHANTOM
 62
   140
100
AcDbLine
 10
137.7958893098333
 20
25.29764558326022
 30
0.0
 11
135.7958893098331
 21
25.29764558326022
 31
0.0
  0
LINE
  5
1A7
330
1F
100
AcDbEntity
  8
1
  6
Continuous
 62
     7
100
AcDbLine
 10
137.7958893098333
 20
28.19764558326022
 30
0.0
 11
137.7958893098333
 21
25.29764558326022
 31
0.0
  0
LINE
  5
1A8
330
1F
100
AcDbEntity
  8
1
  6
Continuous
 62
     7
100
AcDbLine
 10
183.7958893098337
 20
28.19764558326022
 30
0.0
 11
183.7958893098337
 21
25.29764558326022
 31
0.0
  0
LINE
  5
1A9
330
1F
100
AcDbEntity
  8
ITTEN
  6
DASH_CENTER
 62
     3
100
AcDbLine
 10
177.7958893098333
 20
93.1987199750721
 30
0.0
 11
177.7958893098333
 21
85.1987199750721
 31
0.0
  0
LINE
  5
1AA
330
1F
100
AcDbEntity
  8
ITTEN
  6
DASH_CENTER
 62
     3
100
AcDbLine
 10
147.7958893098333
 20
89.1987199750721
 30
0.0
 11
139.7958893098333
 21
89.1987199750721
 31
0.0
  0
LINE
  5
1AB
330
1F
100
AcDbEntity
  8
ITTEN
  6
DASH_CENTER
 62
     3
100
AcDbLine
 10
143.7958893098333
 20
93.1987199750721
 30
0.0
 11
143.7958893098333
 21
85.1987199750721
 31
0.0
  0
LINE
  5
1AC
330
1F
100
AcDbEntity
  8
ITTEN
  6
DASH_CENTER
 62
     3
100
AcDbLine
 10
168.5278121770031
 20
134.1987199750722
 30
0.0
 11
153.1156331443041
 21
134.1987199750722
 31
0.0
  0
LINE
  5
1AD
330
1F
100
AcDbEntity
  8
ITTEN
  6
DASH_CENTER
 62
     3
100
AcDbLine
 10
146.7958893098333
 20
138.962107804655
 30
0.0
 11
146.7958893098333
 21
128.259205698614
 31
0.0
  0
LINE
  5
1AE
330
1F
100
AcDbEntity
  8
ITTEN
  6
DASH_CENTER
 62
     3
100
AcDbLine
 10
174.7958893098333
 20
139.069136825715
 30
0.0
 11
174.7958893098333
 21
128.366234719674
 31
0.0
  0
LINE
  5
1AF
330
1F
100
AcDbEntity
  8
ITTEN
  6
DASH_CENTER
 62
     3
100
AcDbLine
 10
169.3840443454861
 20
133.4987199750722
 30
0.0
 11
180.4080335147081
 21
133.4987199750722
 31
0.0
  0
LINE
  5
1B0
330
1F
100
AcDbEntity
  8
ITTEN
  6
DASH_CENTER
 62
     3
100
AcDbLine
 10
181.7958893098333
 20
89.1987199750721
 30
0.0
 11
173.7958893098333
 21
89.1987199750721
 31
0.0
  0
LINE
  5
1B1
330
1F
100
AcDbEntity
  8
ITTEN
  6
DASH_CENTER
 62
     3
100
AcDbLine
 10
141.1837451049586
 20
133.4987199750722
 30
0.0
 11
152.2077342741806
 21
133.4987199750722
 31
0.0
  0
LINE
  5
1B2
330
1F
100
AcDbEntity
  8
ITTEN
  6
DASH_CENTER
 62
     3
100
AcDbLine
 10
381.0978890876565
 20
214.2878507000849
 30
0.0
 11
381.0978890876565
 21
216.2878507000849
 31
0.0
  0
LINE
  5
1B3
330
1F
100
AcDbEntity
  8
ITTEN
  6
DASH_CENTER
 62
     3
100
AcDbLine
 10
381.0978890876565
 20
216.2878507000849
 30
0.0
 11
381.0978890876565
 21
228.2878507000849
 31
0.0
  0
LINE
  5
1B4
330
1F
100
AcDbEntity
  8
ITTEN
  6
DASH_CENTER
 62
     3
100
AcDbLine
 10
389.0978890876565
 20
222.2878507000849
 30
0.0
 11
373.0978890876565
 21
222.2878507000849
 31
0.0
  0
LINE
  5
1B5
330
1F
100
AcDbEntity
  8
ITTEN
  6
DASH_CENTER
 62
     3
100
AcDbLine
 10
381.0978890876565
 20
228.2878507000849
 30
0.0
 11
381.0978890876565
 21
230.2878507000849
 31
0.0
  0
LINE
  5
1B6
330
1F
100
AcDbEntity
  8
JISSEN
  6
Continuous
 62
     7
100
AcDbLine
 10
377.0978890876566
 20
217.8157147000849
 30
0.0
 11
377.0978890876566
 21
226.7599867000849
 31
0.0
  0
LINE
  5
1B7
330
1F
100
AcDbEntity
  8
1
  6
Continuous
 62
     3
100
AcDbLine
 10
304.8611837074958
 20
218.2033201885566
 30
0.0
 11
288.5978890876565
 21
226.7599867000849
 31
0.0
  0
LINE
  5
1B8
330
1F
100
AcDbEntity
  8
1
  6
Continuous
 62
     3
100
AcDbLine
 10
288.5978890876565
 20
217.8157147000849
 30
0.0
 11
304.8611837074958
 21
226.3723812116131
 31
0.0
  0
LINE
  5
1B9
330
1F
100
AcDbEntity
  8
JISSEN
  6
Continuous
 62
     3
100
AcDbLine
 10
304.4514799950021
 20
135.3570287288136
 30
0.0
 11
304.4514799950021
 21
121.3570287288136
 31
0.0
  0
LINE
  5
1BA
330
1F
100
AcDbEntity
  8
JISSEN
  6
Continuous
 62
     7
100
AcDbLine
 10
158.5978890876567
 20
198.6768507000848
 30
0.0
 11
63.59788908765675
 21
200.9378507000849
 31
0.0
  0
LINE
  5
1BB
330
1F
100
AcDbEntity
  8
JISSEN
  6
Continuous
 62
     7
100
AcDbLine
 10
158.5978890876567
 20
245.8988507000849
 30
0.0
 11
63.59788908765678
 21
243.6378507000849
 31
0.0
  0
LINE
  5
1BC
330
1F
100
AcDbEntity
  8
1
  6
Continuous
 62
     3
100
AcDbLine
 10
44.30960886924083
 20
226.335599012467
 30
0.0
 11
58.59788908765674
 21
217.8157147000849
 31
0.0
  0
LINE
  5
1BD
330
1F
100
AcDbEntity
  8
1
  6
Continuous
 62
     3
100
AcDbLine
 10
58.59788908765674
 20
226.7599867000849
 30
0.0
 11
44.30960886924083
 21
218.2401023877028
 31
0.0
  0
LINE
  5
1BE
330
1F
100
AcDbEntity
  8
JISSEN
  6
Continuous
 62
     7
100
AcDbLine
 10
63.59788908765678
 20
243.6378507000849
 30
0.0
 11
63.59788908765675
 21
200.9378507000849
 31
0.0
  0
LINE
  5
1BF
330
1F
100
AcDbEntity
  8
JISSEN
  6
Continuous
 62
     7
100
AcDbLine
 10
283.5978890876568
 20
257.8878507000849
 30
0.0
 11
283.5978890876568
 21
186.6878507000849
 31
0.0
  0
LINE
  5
1C0
330
1F
100
AcDbEntity
  8
JISSEN
  6
Continuous
 62
     7
100
AcDbLine
 10
283.5978890876568
 20
257.8878507000849
 30
0.0
 11
188.5978890876565
 21
255.6316007000849
 31
0.0
  0
LINE
  5
1C1
330
1F
100
AcDbEntity
  8
JISSEN
  6
Continuous
 62
     7
100
AcDbLine
 10
283.5978890876568
 20
186.6878507000849
 30
0.0
 11
188.5978890876565
 21
188.9441007000849
 31
0.0
  0
LINE
  5
1C2
330
1F
100
AcDbEntity
  8
JISSEN
  6
Continuous
 62
     3
100
AcDbLine
 10
269.4514799950019
 20
121.3570287288136
 30
0.0
 11
364.4514799950021
 21
121.3570287288136
 31
0.0
  0
LINE
  5
1C3
330
1F
100
AcDbEntity
  8
JISSEN
  6
Continuous
 62
     3
100
AcDbLine
 10
269.4514799950019
 20
128.3570287288136
 30
0.0
 11
364.4514799950021
 21
128.3570287288136
 31
0.0
  0
LINE
  5
1C4
330
1F
100
AcDbEntity
  8
JISSEN
  6
Continuous
 62
     3
100
AcDbLine
 10
269.4514799950019
 20
135.3570287288136
 30
0.0
 11
364.4514799950021
 21
135.3570287288136
 31
0.0
  0
LINE
  5
1C5
330
1F
100
AcDbEntity
  8
JISSEN
  6
Continuous
 62
     3
100
AcDbLine
 10
319.4514799950021
 20
135.3570287288136
 30
0.0
 11
319.4514799950021
 21
121.3570287288136
 31
0.0
  0
LINE
  5
1C6
330
1F
100
AcDbEntity
  8
JISSEN
  6
Continuous
 62
     3
100
AcDbLine
 10
289.4514799950021
 20
135.3570287288136
 30
0.0
 11
289.4514799950021
 21
121.3570287288136
 31
0.0
  0
LINE
  5
1C7
330
1F
100
AcDbEntity
  8
JISSEN
  6
Continuous
 62
     3
100
AcDbLine
 10
269.4514799950019
 20
135.3570287288136
 30
0.0
 11
269.4514799950019
 21
121.3570287288136
 31
0.0
  0
LINE
  5
1C8
330
1F
100
AcDbEntity
  8
JISSEN
  6
Continuous
 62
     3
100
AcDbLine
 10
269.4514799950019
 20
135.3570287288136
 30
0.0
 11
269.4514799950019
 21
121.3570287288136
 31
0.0
  0
LINE
  5
1C9
330
1F
100
AcDbEntity
  8
JISSEN
  6
Continuous
 62
     3
100
AcDbLine
 10
269.4514799950019
 20
135.3570287288136
 30
0.0
 11
269.4514799950019
 21
121.3570287288136
 31
0.0
  0
LINE
  5
1CA
330
1F
100
AcDbEntity
  8
JISSEN
  6
Continuous
 62
     3
100
AcDbLine
 10
364.4514799950021
 20
135.3570287288136
 30
0.0
 11
364.4514799950021
 21
121.3570287288136
 31
0.0
  0
LINE
  5
1CB
330
1F
100
AcDbEntity
  8
JISSEN
  6
Continuous
 62
     3
100
AcDbLine
 10
349.4514799950021
 20
135.3570287288136
 30
0.0
 11
349.4514799950021
 21
121.3570287288136
 31
0.0
  0
LINE
  5
1CC
330
1F
100
AcDbEntity
  8
JISSEN
  6
Continuous
 62
     3
100
AcDbLine
 10
334.4514799950021
 20
135.3570287288136
 30
0.0
 11
334.4514799950021
 21
121.3570287288136
 31
0.0
  0
LINE
  5
1CD
330
1F
100
AcDbEntity
  8
JISSEN
  6
Continuous
 62
     7
100
AcDbLine
 10
348.5978890876565
 20
219.2878507000849
 30
0.0
 11
308.5978890876565
 21
219.2878507000849
 31
0.0
  0
LINE
  5
1CE
330
1F
100
AcDbEntity
  8
JISSEN
  6
Continuous
 62
     7
100
AcDbLine
 10
348.5978890876565
 20
221.2878507000849
 30
0.0
 11
308.5978890876565
 21
221.2878507000849
 31
0.0
  0
LINE
  5
1CF
330
1F
100
AcDbEntity
  8
JISSEN
  6
Continuous
 62
     7
100
AcDbLine
 10
308.5978890876565
 20
225.2878507000849
 30
0.0
 11
348.5978890876565
 21
225.2878507000849
 31
0.0
  0
LINE
  5
1D0
330
1F
100
AcDbEntity
  8
ITTEN
  6
DASH_CENTER
 62
     3
100
AcDbLine
 10
104.9357130876568
 20
222.2878507000849
 30
0.0
 11
358.6043613235885
 21
222.2878507000849
 31
0.0
  0
LINE
  5
1D1
330
1F
100
AcDbEntity
  8
JISSEN
  6
Continuous
 62
     7
100
AcDbLine
 10
33.03788908765674
 20
226.7599867000849
 30
0.0
 11
33.03788908765674
 21
217.8157147000849
 31
0.0
  0
LINE
  5
1D2
330
1F
100
AcDbEntity
  8
JISSEN
  6
Continuous
 62
     7
100
AcDbLine
 10
43.59788908765674
 20
227.2878507000849
 30
0.0
 11
44.59788908765674
 21
228.2878507000849
 31
0.0
  0
LINE
  5
1D3
330
1F
100
AcDbEntity
  8
JISSEN
  6
Continuous
 62
     7
100
AcDbLine
 10
44.59788908765674
 20
228.2878507000849
 30
0.0
 11
44.59788908765674
 21
226.7599867000849
 31
0.0
  0
LINE
  5
1D4
330
1F
100
AcDbEntity
  8
JISSEN
  6
Continuous
 62
     7
100
AcDbLine
 10
44.59788908765674
 20
226.7599867000849
 30
0.0
 11
43.59788908765674
 21
225.2878507000849
 31
0.0
  0
LINE
  5
1D5
330
1F
100
AcDbEntity
  8
JISSEN
  6
Continuous
 62
     7
100
AcDbLine
 10
43.59788908765674
 20
217.2878507000849
 30
0.0
 11
44.59788908765674
 21
216.2878507000849
 31
0.0
  0
LINE
  5
1D6
330
1F
100
AcDbEntity
  8
JISSEN
  6
Continuous
 62
     7
100
AcDbLine
 10
44.59788908765674
 20
217.8157147000849
 30
0.0
 11
44.59788908765674
 21
216.2878507000849
 31
0.0
  0
LINE
  5
1D7
330
1F
100
AcDbEntity
  8
JISSEN
  6
Continuous
 62
     7
100
AcDbLine
 10
43.59788908765674
 20
219.2878507000849
 30
0.0
 11
44.59788908765674
 21
217.8157147000849
 31
0.0
  0
LINE
  5
1D8
330
1F
100
AcDbEntity
  8
JISSEN
  6
Continuous
 62
     7
100
AcDbLine
 10
43.59788908765674
 20
217.2878507000849
 30
0.0
 11
43.59788908765674
 21
227.2878507000849
 31
0.0
  0
LINE
  5
1D9
330
1F
100
AcDbEntity
  8
JISSEN
  6
Continuous
 62
     7
100
AcDbLine
 10
44.59788908765674
 20
228.2878507000849
 30
0.0
 11
58.59788908765674
 21
228.2878507000849
 31
0.0
  0
LINE
  5
1DA
330
1F
100
AcDbEntity
  8
JISSEN
  6
Continuous
 62
     7
100
AcDbLine
 10
44.59788908765674
 20
216.2878507000849
 30
0.0
 11
58.59788908765674
 21
216.2878507000849
 31
0.0
  0
LINE
  5
1DB
330
1F
100
AcDbEntity
  8
JISSEN
  6
Continuous
 62
     7
100
AcDbLine
 10
44.59788908765674
 20
226.7599867000849
 30
0.0
 11
58.59788908765674
 21
226.7599867000849
 31
0.0
  0
LINE
  5
1DC
330
1F
100
AcDbEntity
  8
JISSEN
  6
Continuous
 62
     7
100
AcDbLine
 10
44.59788908765674
 20
217.8157147000849
 30
0.0
 11
58.59788908765674
 21
217.8157147000849
 31
0.0
  0
LINE
  5
1DD
330
1F
100
AcDbEntity
  8
JISSEN
  6
Continuous
 62
     7
100
AcDbLine
 10
355.5978890876565
 20
223.7878507000849
 30
0.0
 11
355.5978890876565
 21
224.7878507000849
 31
0.0
  0
LINE
  5
1DE
330
1F
100
AcDbEntity
  8
JISSEN
  6
Continuous
 62
     7
100
AcDbLine
 10
355.5978890876565
 20
221.7878507000849
 30
0.0
 11
355.5978890876565
 21
222.7878507000849
 31
0.0
  0
LINE
  5
1DF
330
1F
100
AcDbEntity
  8
JISSEN
  6
Continuous
 62
     7
100
AcDbLine
 10
355.5978890876565
 20
219.7878507000849
 30
0.0
 11
355.5978890876565
 21
220.7878507000849
 31
0.0
  0
LINE
  5
1E0
330
1F
100
AcDbEntity
  8
JISSEN
  6
Continuous
 62
     7
100
AcDbLine
 10
348.5978890876565
 20
219.2878507000849
 30
0.0
 11
348.5978890876565
 21
225.2878507000849
 31
0.0
  0
LINE
  5
1E1
330
1F
100
AcDbEntity
  8
JISSEN
  6
Continuous
 62
     7
100
AcDbLine
 10
355.5978890876565
 20
224.7878507000849
 30
0.0
 11
348.5978890876565
 21
224.7878507000849
 31
0.0
  0
LINE
  5
1E2
330
1F
100
AcDbEntity
  8
JISSEN
  6
Continuous
 62
     7
100
AcDbLine
 10
355.5978890876565
 20
223.7878507000849
 30
0.0
 11
348.5978890876565
 21
223.7878507000849
 31
0.0
  0
LINE
  5
1E3
330
1F
100
AcDbEntity
  8
JISSEN
  6
Continuous
 62
     7
100
AcDbLine
 10
355.5978890876565
 20
220.7878507000849
 30
0.0
 11
348.5978890876565
 21
220.7878507000849
 31
0.0
  0
LINE
  5
1E4
330
1F
100
AcDbEntity
  8
JISSEN
  6
Continuous
 62
     7
100
AcDbLine
 10
355.5978890876565
 20
219.7878507000849
 30
0.0
 11
348.5978890876565
 21
219.7878507000849
 31
0.0
  0
LINE
  5
1E5
330
1F
100
AcDbEntity
  8
JISSEN
  6
Continuous
 62
     7
100
AcDbLine
 10
355.5978890876565
 20
221.7878507000849
 30
0.0
 11
348.5978890876565
 21
221.7878507000849
 31
0.0
  0
LINE
  5
1E6
330
1F
100
AcDbEntity
  8
JISSEN
  6
Continuous
 62
     7
100
AcDbLine
 10
355.5978890876565
 20
222.7878507000849
 30
0.0
 11
348.5978890876565
 21
222.7878507000849
 31
0.0
  0
LINE
  5
1E7
330
1F
100
AcDbEntity
  8
JISSEN
  6
Continuous
 62
     7
100
AcDbLine
 10
305.5978890876565
 20
227.2878507000849
 30
0.0
 11
306.5978890876565
 21
227.2878507000849
 31
0.0
  0
LINE
  5
1E8
330
1F
100
AcDbEntity
  8
JISSEN
  6
Continuous
 62
     7
100
AcDbLine
 10
304.5978890876565
 20
228.2878507000849
 30
0.0
 11
304.5978890876565
 21
226.7599867000849
 31
0.0
  0
LINE
  5
1E9
330
1F
100
AcDbEntity
  8
JISSEN
  6
Continuous
 62
     7
100
AcDbLine
 10
305.5978890876565
 20
227.2878507000849
 30
0.0
 11
304.5978890876565
 21
228.2878507000849
 31
0.0
  0
LINE
  5
1EA
330
1F
100
AcDbEntity
  8
JISSEN
  6
Continuous
 62
     7
100
AcDbLine
 10
304.5978890876565
 20
226.7599867000849
 30
0.0
 11
305.5978890876565
 21
225.2878507000849
 31
0.0
  0
LINE
  5
1EB
330
1F
100
AcDbEntity
  8
JISSEN
  6
Continuous
 62
     7
100
AcDbLine
 10
305.5978890876565
 20
217.2878507000849
 30
0.0
 11
306.5978890876565
 21
217.2878507000849
 31
0.0
  0
LINE
  5
1EC
330
1F
100
AcDbEntity
  8
JISSEN
  6
Continuous
 62
     7
100
AcDbLine
 10
304.5978890876565
 20
217.8157147000849
 30
0.0
 11
304.5978890876565
 21
216.2878507000849
 31
0.0
  0
LINE
  5
1ED
330
1F
100
AcDbEntity
  8
JISSEN
  6
Continuous
 62
     7
100
AcDbLine
 10
305.5978890876565
 20
217.2878507000849
 30
0.0
 11
304.5978890876565
 21
216.2878507000849
 31
0.0
  0
LINE
  5
1EE
330
1F
100
AcDbEntity
  8
JISSEN
  6
Continuous
 62
     7
100
AcDbLine
 10
304.5978890876565
 20
217.8157147000849
 30
0.0
 11
305.5978890876565
 21
219.2878507000849
 31
0.0
  0
LINE
  5
1EF
330
1F
100
AcDbEntity
  8
JISSEN
  6
Continuous
 62
     7
100
AcDbLine
 10
308.5978890876565
 20
225.2878507000849
 30
0.0
 11
308.5978890876565
 21
219.2878507000849
 31
0.0
  0
LINE
  5
1F0
330
1F
100
AcDbEntity
  8
JISSEN
  6
Continuous
 62
     7
100
AcDbLine
 10
305.5978890876565
 20
217.2878507000849
 30
0.0
 11
305.5978890876565
 21
227.2878507000849
 31
0.0
  0
LINE
  5
1F1
330
1F
100
AcDbEntity
  8
JISSEN
  6
Continuous
 62
     7
100
AcDbLine
 10
304.5978890876565
 20
228.2878507000849
 30
0.0
 11
288.5978890876565
 21
228.2878507000849
 31
0.0
  0
LINE
  5
1F2
330
1F
100
AcDbEntity
  8
JISSEN
  6
Continuous
 62
     7
100
AcDbLine
 10
304.5978890876565
 20
216.2878507000849
 30
0.0
 11
288.5978890876565
 21
216.2878507000849
 31
0.0
  0
LINE
  5
1F3
330
1F
100
AcDbEntity
  8
JISSEN
  6
Continuous
 62
     7
100
AcDbLine
 10
304.5978890876565
 20
226.7599867000849
 30
0.0
 11
288.5978890876565
 21
226.7599867000849
 31
0.0
  0
LINE
  5
1F4
330
1F
100
AcDbEntity
  8
JISSEN
  6
Continuous
 62
     7
100
AcDbLine
 10
304.5978890876565
 20
217.8157147000849
 30
0.0
 11
288.5978890876565
 21
217.8157147000849
 31
0.0
  0
LINE
  5
1F5
330
1F
100
AcDbEntity
  8
JISSEN
  6
Continuous
 62
     7
100
AcDbLine
 10
308.5978890876565
 20
223.2878507000849
 30
0.0
 11
348.5978890876565
 21
223.2878507000849
 31
0.0
  0
LINE
  5
1F6
330
1F
100
AcDbEntity
  8
ITTEN
  6
DASH_CENTER
 62
     3
100
AcDbLine
 10
29.03788908765674
 20
230.2878507000849
 30
0.0
 11
29.03788908765674
 21
228.2878507000849
 31
0.0
  0
LINE
  5
1F7
330
1F
100
AcDbEntity
  8
ITTEN
  6
DASH_CENTER
 62
     3
100
AcDbLine
 10
37.03788908765674
 20
222.2878507000849
 30
0.0
 11
21.03788908765674
 21
222.2878507000849
 31
0.0
  0
LINE
  5
1F8
330
1F
100
AcDbEntity
  8
ITTEN
  6
DASH_CENTER
 62
     3
100
AcDbLine
 10
41.16446969735815
 20
222.2878507000849
 30
0.0
 11
89.58383508765678
 21
222.2878507000849
 31
0.0
  0
LINE
  5
1F9
330
1F
100
AcDbEntity
  8
ITTEN
  6
DASH_CENTER
 62
     3
100
AcDbLine
 10
29.03788908765674
 20
228.2878507000849
 30
0.0
 11
29.03788908765674
 21
216.2878507000849
 31
0.0
  0
LINE
  5
1FA
330
1F
100
AcDbEntity
  8
ITTEN
  6
DASH_CENTER
 62
     3
100
AcDbLine
 10
29.03788908765674
 20
216.2878507000849
 30
0.0
 11
29.03788908765674
 21
214.2878507000849
 31
0.0
  0
ARC
  5
1FB
330
1F
100
AcDbEntity
  8
JISSEN
  6
Continuous
 62
     7
100
AcDbCircle
 10
62.09788908765689
 20
241.9378507000849
 30
0.0
 40
1.5
100
AcDbArc
 50
90.00000000000516
 51
180.0
  0
ARC
  5
1FC
330
1F
100
AcDbEntity
  8
JISSEN
  6
Continuous
 62
     7
100
AcDbCircle
 10
62.09788908765689
 20
202.6378507000849
 30
0.0
 40
1.5
100
AcDbArc
 50
180.0
 51
-90.0
  0
ARC
  5
1FD
330
1F
100
AcDbEntity
  8
JISSEN
  6
Continuous
 62
     7
100
AcDbCircle
 10
285.0978890876562
 20
248.9378507000849
 30
0.0
 40
1.500000000001023
100
AcDbArc
 50
0.0
 51
90.0
  0
ARC
  5
1FE
330
1F
100
AcDbEntity
  8
JISSEN
  6
Continuous
 62
     7
100
AcDbCircle
 10
285.0978890876572
 20
195.6378507000849
 30
0.0
 40
1.5
100
AcDbArc
 50
-90.0
 51
0.0
  0
ARC
  5
1FF
330
1F
100
AcDbEntity
  8
JISSEN
  6
Continuous
 62
     7
100
AcDbCircle
 10
287.5978890876572
 20
232.2878507000849
 30
0.0
 40
1.0
100
AcDbArc
 50
0.0
 51
90.0
  0
ARC
  5
200
330
1F
100
AcDbEntity
  8
JISSEN
  6
Continuous
 62
     7
100
AcDbCircle
 10
287.5978890876562
 20
212.2878507000849
 30
0.0
 40
1.0
100
AcDbArc
 50
-90.0
 51
0.0
  0
ARC
  5
201
330
1F
100
AcDbEntity
  8
JISSEN
  6
Continuous
 62
     7
100
AcDbCircle
 10
59.59788908765675
 20
229.7878507000849
 30
0.0
 40
1.0
100
AcDbArc
 50
89.99999999999227
 51
180.0
  0
ARC
  5
202
330
1F
100
AcDbEntity
  8
JISSEN
  6
Continuous
 62
     7
100
AcDbCircle
 10
59.59788908765689
 20
214.7878507000849
 30
0.0
 40
1.000000000000007
100
AcDbArc
 50
180.0
 51
-90.0
  0
ARC
  5
203
330
1F
100
AcDbEntity
  8
JISSEN
  6
PHANTOM
 62
   140
100
AcDbCircle
 10
181.7958893098331
 20
45.29764558326021
 30
0.0
 40
3.999999999999602
100
AcDbArc
 50
0.0
 51
90.0
  0
ARC
  5
204
330
1F
100
AcDbEntity
  8
JISSEN
  6
PHANTOM
 62
   140
100
AcDbCircle
 10
167.7958893098332
 20
37.19764558326022
 30
0.0
 40
6.0
100
AcDbArc
 50
0.0
 51
90.0
  0
ARC
  5
205
330
1F
100
AcDbEntity
  8
JISSEN
  6
PHANTOM
 62
   140
100
AcDbCircle
 10
167.7958893098331
 20
37.29764558326021
 30
0.0
 40
3.0
100
AcDbArc
 50
0.0
 51
90.0
  0
ARC
  5
206
330
1F
100
AcDbEntity
  8
JISSEN
  6
PHANTOM
 62
   140
100
AcDbCircle
 10
153.7958893098331
 20
37.29764558326021
 30
0.0
 40
3.0
100
AcDbArc
 50
90.0
 51
180.0
  0
ARC
  5
207
330
1F
100
AcDbEntity
  8
JISSEN
  6
PHANTOM
 62
   140
100
AcDbCircle
 10
153.7958893098329
 20
37.19764558326022
 30
0.0
 40
5.999999999999979
100
AcDbArc
 50
90.0
 51
180.0
  0
ARC
  5
208
330
1F
100
AcDbEntity
  8
JISSEN
  6
PHANTOM
 62
   140
100
AcDbCircle
 10
139.7958893098331
 20
45.29764558326021
 30
0.0
 40
4.0
100
AcDbArc
 50
90.0
 51
180.0
  0
ARC
  5
209
330
1F
100
AcDbEntity
  8
NITEN
  6
PHANTOM
 62
   140
100
AcDbCircle
 10
221.1930962133778
 20
85.398719975072
 30
0.0
 40
2.0
100
AcDbArc
 50
179.9999999999984
 51
-90.0
  0
ARC
  5
20A
330
1F
100
AcDbEntity
  8
NITEN
  6
PHANTOM
 62
   140
100
AcDbCircle
 10
219.6930962133778
 20
138.7167394597322
 30
0.0
 40
0.500000000000406
100
AcDbArc
 50
134.9999999999263
 51
180.0
  0
ARC
  5
20B
330
1F
100
AcDbEntity
  8
NITEN
  6
PHANTOM
 62
   140
100
AcDbCircle
 10
222.9002029945647
 20
141.9238462409192
 30
0.0
 40
0.5
100
AcDbArc
 50
90.0
 51
135.0000000000714
  0
ARC
  5
20C
330
1F
100
AcDbEntity
  8
NITEN
  6
PHANTOM
 62
   140
100
AcDbCircle
 10
217.6930962133778
 20
139.2570464233962
 30
0.0
 40
0.500000000000045
100
AcDbArc
 50
148.0826158531647
 51
180.0
  0
ARC
  5
20D
330
1F
100
AcDbEntity
  8
NITEN
  6
PHANTOM
 62
   140
100
AcDbCircle
 10
222.3347697650537
 20
143.8987199750722
 30
0.0
 40
0.5
100
AcDbArc
 50
90.0
 51
121.9173841469372
  0
ARC
  5
20E
330
1F
100
AcDbEntity
  8
NITEN
  6
PHANTOM
 62
   140
100
AcDbCircle
 10
230.0008602774217
 20
131.5909559110282
 30
0.0
 40
15.00000000000021
100
AcDbArc
 50
121.9173841468862
 51
148.0826158531171
  0
ARC
  5
20F
330
1F
100
AcDbEntity
  8
TENSEN
  6
DASHED
 62
   140
100
AcDbCircle
 10
225.3930962133777
 20
80.39871997507191
 30
0.0
 40
0.5
100
AcDbArc
 50
-90.0
 51
0.0
  0
ARC
  5
210
330
1F
100
AcDbEntity
  8
NITEN
  6
PHANTOM
 62
   140
100
AcDbCircle
 10
222.8930962133777
 20
80.39871997507191
 30
0.0
 40
0.5
100
AcDbArc
 50
180.0
 51
-90.0
  0
ARC
  5
211
330
1F
100
AcDbEntity
  8
TENSEN
  6
DASHED
 62
   140
100
AcDbCircle
 10
225.3930962133777
 20
82.898719975072
 30
0.0
 40
0.5
100
AcDbArc
 50
0.0
 51
90.0
  0
ARC
  5
212
330
1F
100
AcDbEntity
  8
NITEN
  6
PHANTOM
 62
   140
100
AcDbCircle
 10
221.1930962133778
 20
85.398719975072
 30
0.0
 40
4.0
100
AcDbArc
 50
180.0
 51
-90.0
  0
ARC
  5
213
330
1F
100
AcDbEntity
  8
JISSEN
  6
Continuous
 62
     7
100
AcDbCircle
 10
231.2930962133768
 20
115.2773113465632
 30
0.0
 40
0.5000000000009098
100
AcDbArc
 50
97.76516601846134
 51
180.0
  0
ARC
  5
214
330
1F
100
AcDbEntity
  8
JISSEN
  6
Continuous
 62
     7
100
AcDbCircle
 10
231.2930962133768
 20
97.65020240616201
 30
0.0
 40
0.5
100
AcDbArc
 50
180.0
 51
-97.76516601847212
  0
ARC
  5
215
330
1F
100
AcDbEntity
  8
JISSEN
  6
Continuous
 62
     3
100
AcDbCircle
 10
230.7930962133777
 20
101.6487199750722
 30
0.0
 40
2.0
100
AcDbArc
 50
180.0
 51
-90.0
  0
ARC
  5
216
330
1F
100
AcDbEntity
  8
JISSEN
  6
Continuous
 62
     3
100
AcDbCircle
 10
230.7930962133777
 20
103.1487199750722
 30
0.0
 40
2.0
100
AcDbArc
 50
90.0
 51
180.0
  0
ARC
  5
217
330
1F
100
AcDbEntity
  8
JISSEN
  6
Continuous
 62
     7
100
AcDbCircle
 10
223.7930962133768
 20
118.7465348083762
 30
0.0
 40
0.9999999999998352
100
AcDbArc
 50
91.90915243296506
 51
180.0
  0
ARC
  5
218
330
1F
100
AcDbEntity
  8
JISSEN
  6
Continuous
 62
     7
100
AcDbCircle
 10
226.2930962133768
 20
116.7529571961072
 30
0.0
 40
0.9999999999991708
100
AcDbArc
 50
92.29061004259577
 51
180.0
  0
ARC
  5
219
330
1F
100
AcDbEntity
  8
JISSEN
  6
Continuous
 62
     7
100
AcDbCircle
 10
223.7930962133768
 20
94.18097894434939
 30
0.0
 40
0.9999999999990905
100
AcDbArc
 50
180.0
 51
-91.90915243296492
  0
ARC
  5
21A
330
1F
100
AcDbEntity
  8
JISSEN
  6
Continuous
 62
     7
100
AcDbCircle
 10
226.2930962133768
 20
96.17455655661851
 30
0.0
 40
0.9999999999990905
100
AcDbArc
 50
180.0
 51
-92.2906100426511
  0
ARC
  5
21B
330
1F
100
AcDbEntity
  8
JISSEN
  6
Continuous
 62
     3
100
AcDbCircle
 10
171.5798049813338
 20
112.4826356465722
 30
0.0
 40
0.9585879816152244
100
AcDbArc
 50
166.9724583394362
 51
-76.97245833944378
  0
ARC
  5
21C
330
1F
100
AcDbEntity
  8
JISSEN
  6
Continuous
 62
     3
100
AcDbCircle
 10
169.0119736383331
 20
112.4826356465722
 30
0.0
 40
0.9585879816149593
100
AcDbArc
 50
-103.0275416605744
 51
13.02754166056111
  0
ARC
  5
21D
330
1F
100
AcDbEntity
  8
JISSEN
  6
Continuous
 62
     3
100
AcDbCircle
 10
159.5119736383332
 20
112.4826356465722
 30
0.0
 40
0.9585879816149593
100
AcDbArc
 50
-103.0275416605744
 51
13.02754166056494
  0
ARC
  5
21E
330
1F
100
AcDbEntity
  8
JISSEN
  6
Continuous
 62
     3
100
AcDbCircle
 10
162.0798049813333
 20
112.4826356465722
 30
0.0
 40
0.9585879816149199
100
AcDbArc
 50
166.972458339432
 51
-76.97245833941398
  0
ARC
  5
21F
330
1F
100
AcDbEntity
  8
JISSEN
  6
Continuous
 62
     3
100
AcDbCircle
 10
152.5798049813334
 20
112.4826356465722
 30
0.0
 40
0.9585879816152244
100
AcDbArc
 50
166.9724583394362
 51
-76.97245833941398
  0
ARC
  5
220
330
1F
100
AcDbEntity
  8
JISSEN
  6
Continuous
 62
     3
100
AcDbCircle
 10
150.0119736383334
 20
112.4826356465722
 30
0.0
 40
0.9585879816150041
100
AcDbArc
 50
-103.027541660586
 51
13.0275416605703
  0
ARC
  5
221
330
1F
100
AcDbEntity
  8
JISSEN
  6
Continuous
 62
     3
100
AcDbCircle
 10
178.5119736383336
 20
100.9148043035722
 30
0.0
 40
0.9585879816150338
100
AcDbArc
 50
-13.0275416605673
 51
103.0275416605728
  0
ARC
  5
222
330
1F
100
AcDbEntity
  8
JISSEN
  6
Continuous
 62
     3
100
AcDbCircle
 10
181.0798049813342
 20
100.9148043035722
 30
0.0
 40
0.9585879816150041
100
AcDbArc
 50
76.97245833941398
 51
-166.9724583394316
  0
ARC
  5
223
330
1F
100
AcDbEntity
  8
JISSEN
  6
Continuous
 62
     3
100
AcDbCircle
 10
178.5119736383336
 20
103.4826356465722
 30
0.0
 40
0.958587981614953
100
AcDbArc
 50
-103.0275416605728
 51
13.02754166056647
  0
ARC
  5
224
330
1F
100
AcDbEntity
  8
JISSEN
  6
Continuous
 62
     3
100
AcDbCircle
 10
181.0798049813342
 20
103.4826356465722
 30
0.0
 40
0.9585879816149475
100
AcDbArc
 50
166.9724583394324
 51
-76.97245833941398
  0
ARC
  5
225
330
1F
100
AcDbEntity
  8
JISSEN
  6
Continuous
 62
     3
100
AcDbCircle
 10
171.5798049813338
 20
99.9148043035722
 30
0.0
 40
0.9585879816148888
100
AcDbArc
 50
76.97245833944378
 51
-166.9724583394362
  0
ARC
  5
226
330
1F
100
AcDbEntity
  8
JISSEN
  6
Continuous
 62
     3
100
AcDbCircle
 10
171.5798049813338
 20
102.4826356465722
 30
0.0
 40
0.9585879816152244
100
AcDbArc
 50
166.9724583394362
 51
-76.97245833944378
  0
ARC
  5
227
330
1F
100
AcDbEntity
  8
JISSEN
  6
Continuous
 62
     3
100
AcDbCircle
 10
169.0119736383331
 20
99.9148043035722
 30
0.0
 40
0.9585879816154183
100
AcDbArc
 50
-13.02754166056111
 51
103.0275416605744
  0
ARC
  5
228
330
1F
100
AcDbEntity
  8
JISSEN
  6
Continuous
 62
     3
100
AcDbCircle
 10
169.0119736383331
 20
102.4826356465722
 30
0.0
 40
0.9585879816149593
100
AcDbArc
 50
-103.0275416605744
 51
13.02754166056111
  0
ARC
  5
229
330
1F
100
AcDbEntity
  8
JISSEN
  6
Continuous
 62
     3
100
AcDbCircle
 10
159.5119736383332
 20
99.9148043035722
 30
0.0
 40
0.9585879816151414
100
AcDbArc
 50
-13.02754166056494
 51
103.0275416605744
  0
ARC
  5
22A
330
1F
100
AcDbEntity
  8
JISSEN
  6
Continuous
 62
     3
100
AcDbCircle
 10
159.5119736383332
 20
102.4826356465722
 30
0.0
 40
0.9585879816149593
100
AcDbArc
 50
-103.0275416605744
 51
13.02754166056494
  0
ARC
  5
22B
330
1F
100
AcDbEntity
  8
JISSEN
  6
Continuous
 62
     3
100
AcDbCircle
 10
162.0798049813333
 20
99.9148043035722
 30
0.0
 40
0.9585879816150041
100
AcDbArc
 50
76.97245833941398
 51
-166.972458339432
  0
ARC
  5
22C
330
1F
100
AcDbEntity
  8
JISSEN
  6
Continuous
 62
     3
100
AcDbCircle
 10
162.0798049813333
 20
102.4826356465722
 30
0.0
 40
0.9585879816149199
100
AcDbArc
 50
166.972458339432
 51
-76.97245833941398
  0
ARC
  5
22D
330
1F
100
AcDbEntity
  8
JISSEN
  6
Continuous
 62
     3
100
AcDbCircle
 10
152.5798049813334
 20
99.9148043035722
 30
0.0
 40
0.9585879816148888
100
AcDbArc
 50
76.97245833944378
 51
-166.9724583394362
  0
ARC
  5
22E
330
1F
100
AcDbEntity
  8
JISSEN
  6
Continuous
 62
     3
100
AcDbCircle
 10
152.5798049813334
 20
102.4826356465722
 30
0.0
 40
0.9585879816152244
100
AcDbArc
 50
166.9724583394362
 51
-76.97245833941398
  0
ARC
  5
22F
330
1F
100
AcDbEntity
  8
JISSEN
  6
Continuous
 62
     3
100
AcDbCircle
 10
150.0119736383334
 20
99.9148043035722
 30
0.0
 40
0.9585879816147537
100
AcDbArc
 50
-13.0275416605703
 51
103.0275416605562
  0
ARC
  5
230
330
1F
100
AcDbEntity
  8
JISSEN
  6
Continuous
 62
     3
100
AcDbCircle
 10
150.0119736383334
 20
102.4826356465722
 30
0.0
 40
0.9585879816150041
100
AcDbArc
 50
-103.027541660586
 51
13.0275416605703
  0
ARC
  5
231
330
1F
100
AcDbEntity
  8
JISSEN
  6
Continuous
 62
     3
100
AcDbCircle
 10
162.0798049813333
 20
109.9148043035722
 30
0.0
 40
0.9585879816150041
100
AcDbArc
 50
76.97245833941398
 51
-166.9724583394312
  0
ARC
  5
232
330
1F
100
AcDbEntity
  8
JISSEN
  6
Continuous
 62
     3
100
AcDbCircle
 10
159.5119736383332
 20
109.9148043035722
 30
0.0
 40
0.9585879816151446
100
AcDbArc
 50
-13.02754166056577
 51
103.0275416605744
  0
ARC
  5
233
330
1F
100
AcDbEntity
  8
JISSEN
  6
Continuous
 62
     3
100
AcDbCircle
 10
171.5798049813338
 20
109.9148043035722
 30
0.0
 40
0.9585879816149785
100
AcDbArc
 50
76.97245833942061
 51
-166.9724583394327
  0
ARC
  5
234
330
1F
100
AcDbEntity
  8
JISSEN
  6
Continuous
 62
     3
100
AcDbCircle
 10
169.0119736383331
 20
109.9148043035722
 30
0.0
 40
0.9585879816151168
100
AcDbArc
 50
-13.02754166056615
 51
103.0275416605744
  0
ARC
  5
235
330
1F
100
AcDbEntity
  8
JISSEN
  6
Continuous
 62
     3
100
AcDbCircle
 10
152.5798049813334
 20
109.9148043035722
 30
0.0
 40
0.9585879816149785
100
AcDbArc
 50
76.97245833942061
 51
-166.9724583394327
  0
ARC
  5
236
330
1F
100
AcDbEntity
  8
JISSEN
  6
Continuous
 62
     3
100
AcDbCircle
 10
150.0119736383334
 20
109.9148043035722
 30
0.0
 40
0.9585879816151446
100
AcDbArc
 50
-13.02754166056577
 51
103.0275416605794
  0
ARC
  5
237
330
1F
100
AcDbEntity
  8
NITEN
  6
PHANTOM
 62
   140
100
AcDbCircle
 10
175.7958893098332
 20
134.1987199750722
 30
0.0
 40
10.00000000000051
100
AcDbArc
 50
0.0
 51
90.0
  0
ARC
  5
238
330
1F
100
AcDbEntity
  8
JISSEN
  6
Continuous
 62
     3
100
AcDbCircle
 10
143.0798049813335
 20
108.9148043035722
 30
0.0
 40
0.9585879816149849
100
AcDbArc
 50
76.97245833941895
 51
-166.9724583394312
  0
ARC
  5
239
330
1F
100
AcDbEntity
  8
JISSEN
  6
Continuous
 62
     3
100
AcDbCircle
 10
140.5119736383335
 20
108.9148043035722
 30
0.0
 40
0.9585879816151168
100
AcDbArc
 50
-13.02754166056615
 51
103.0275416605794
  0
ARC
  5
23A
330
1F
100
AcDbEntity
  8
JISSEN
  6
Continuous
 62
     3
100
AcDbCircle
 10
140.5119736383335
 20
111.4826356465722
 30
0.0
 40
0.9585879816149785
100
AcDbArc
 50
-103.0275416605794
 51
13.02754166056532
  0
ARC
  5
23B
330
1F
100
AcDbEntity
  8
JISSEN
  6
Continuous
 62
     3
100
AcDbCircle
 10
143.0798049813335
 20
111.4826356465722
 30
0.0
 40
0.9585879816149199
100
AcDbArc
 50
166.972458339432
 51
-76.97245833941895
  0
ARC
  5
23C
330
1F
100
AcDbEntity
  8
NITEN
  6
PHANTOM
 62
   140
100
AcDbCircle
 10
145.7958893098333
 20
134.1987199750722
 30
0.0
 40
10.0
100
AcDbArc
 50
90.0
 51
180.0
  0
ARC
  5
23D
330
1F
100
AcDbEntity
  8
NITEN
  6
PHANTOM
 62
   140
100
AcDbCircle
 10
174.0458893098332
 20
80.19871997507201
 30
0.0
 40
0.5
100
AcDbArc
 50
-90.0
 51
0.0
  0
ARC
  5
23E
330
1F
100
AcDbEntity
  8
NITEN
  6
PHANTOM
 62
   140
100
AcDbCircle
 10
147.5458893098332
 20
80.19871997507201
 30
0.0
 40
0.5
100
AcDbArc
 50
180.0
 51
-90.0
  0
ARC
  5
23F
330
1F
100
AcDbEntity
  8
NITEN
  6
PHANTOM
 62
   140
100
AcDbCircle
 10
142.7958893098333
 20
88.1987199750721
 30
0.0
 40
7.0
100
AcDbArc
 50
180.0
 51
-90.0
  0
ARC
  5
240
330
1F
100
AcDbEntity
  8
NITEN
  6
PHANTOM
 62
   140
100
AcDbCircle
 10
178.7958893098333
 20
88.1987199750721
 30
0.0
 40
7.0
100
AcDbArc
 50
-90.0
 51
0.0
  0
ARC
  5
241
330
1F
100
AcDbEntity
  8
JISSEN
  6
Continuous
 62
     7
100
AcDbCircle
 10
182.2958893098337
 20
114.9487199750722
 30
0.0
 40
0.5
100
AcDbArc
 50
0.0
 51
90.0
  0
ARC
  5
242
330
1F
100
AcDbEntity
  8
JISSEN
  6
Continuous
 62
     7
100
AcDbCircle
 10
182.2958893098337
 20
97.4487199750721
 30
0.0
 40
0.5
100
AcDbArc
 50
-90.0
 51
0.0
  0
ARC
  5
243
330
1F
100
AcDbEntity
  8
JISSEN
  6
Continuous
 62
     7
100
AcDbCircle
 10
139.2958893098333
 20
97.4487199750721
 30
0.0
 40
0.4999999999998011
100
AcDbArc
 50
180.0
 51
-90.0
  0
ARC
  5
244
330
1F
100
AcDbEntity
  8
JISSEN
  6
Continuous
 62
     7
100
AcDbCircle
 10
139.2958893098333
 20
114.9487199750722
 30
0.0
 40
0.5
100
AcDbArc
 50
90.0
 51
180.0
  0
ARC
  5
245
330
1F
100
AcDbEntity
  8
JISSEN
  6
Continuous
 62
     7
100
AcDbCircle
 10
181.7958893098333
 20
97.1987199750721
 30
0.0
 40
1.5
100
AcDbArc
 50
-90.0
 51
0.0
  0
ARC
  5
246
330
1F
100
AcDbEntity
  8
JISSEN
  6
Continuous
 62
     7
100
AcDbCircle
 10
181.7958893098333
 20
115.1987199750722
 30
0.0
 40
1.500000000000398
100
AcDbArc
 50
0.0
 51
90.0
  0
ARC
  5
247
330
1F
100
AcDbEntity
  8
JISSEN
  6
Continuous
 62
     7
100
AcDbCircle
 10
139.7958893098333
 20
97.1987199750721
 30
0.0
 40
1.5
100
AcDbArc
 50
180.0
 51
-90.0
  0
ARC
  5
248
330
1F
100
AcDbEntity
  8
JISSEN
  6
Continuous
 62
     7
100
AcDbCircle
 10
139.7958893098333
 20
115.1987199750722
 30
0.0
 40
1.5
100
AcDbArc
 50
90.0
 51
180.0
  0
ARC
  5
249
330
1F
100
AcDbEntity
  8
JISSEN
  6
Continuous
 62
     7
100
AcDbCircle
 10
174.0458893098333
 20
106.1987199750722
 30
0.0
 40
1.0
100
AcDbArc
 50
90.0
 51
-90.00000000000651
  0
ARC
  5
24A
330
1F
100
AcDbEntity
  8
JISSEN
  6
Continuous
 62
     7
100
AcDbCircle
 10
166.5458893098333
 20
106.1987199750722
 30
0.0
 40
1.0
100
AcDbArc
 50
-90.0
 51
90.0
  0
ARC
  5
24B
330
1F
100
AcDbEntity
  8
JISSEN
  6
Continuous
 62
     7
100
AcDbCircle
 10
164.5458893098333
 20
106.1987199750722
 30
0.0
 40
1.0
100
AcDbArc
 50
90.0
 51
-90.0
  0
ARC
  5
24C
330
1F
100
AcDbEntity
  8
JISSEN
  6
Continuous
 62
     7
100
AcDbCircle
 10
157.0458893098333
 20
106.1987199750722
 30
0.0
 40
1.0
100
AcDbArc
 50
-90.0
 51
90.0
  0
ARC
  5
24D
330
1F
100
AcDbEntity
  8
JISSEN
  6
Continuous
 62
     7
100
AcDbCircle
 10
155.0458893098333
 20
106.1987199750722
 30
0.0
 40
1.0
100
AcDbArc
 50
90.0
 51
-90.0
  0
ARC
  5
24E
330
1F
100
AcDbEntity
  8
JISSEN
  6
Continuous
 62
     7
100
AcDbCircle
 10
147.5458893098333
 20
106.1987199750722
 30
0.0
 40
1.0
100
AcDbArc
 50
-90.0
 51
90.0
  0
ARC
  5
24F
330
1F
100
AcDbEntity
  8
JISSEN
  6
Continuous
 62
     7
100
AcDbCircle
 10
146.5458893098333
 20
116.9487199750722
 30
0.0
 40
1.0
100
AcDbArc
 50
0.0
 51
90.0
  0
ARC
  5
250
330
1F
100
AcDbEntity
  8
JISSEN
  6
Continuous
 62
     7
100
AcDbCircle
 10
146.5458893098333
 20
116.9487199750722
 30
0.0
 40
1.0
100
AcDbArc
 50
90.0
 51
180.0
  0
ARC
  5
251
330
1F
100
AcDbEntity
  8
JISSEN
  6
Continuous
 62
     7
100
AcDbCircle
 10
146.5458893098333
 20
95.4487199750721
 30
0.0
 40
1.0
100
AcDbArc
 50
180.0
 51
-90.0
  0
ARC
  5
252
330
1F
100
AcDbEntity
  8
JISSEN
  6
Continuous
 62
     7
100
AcDbCircle
 10
146.5458893098333
 20
95.4487199750721
 30
0.0
 40
1.0
100
AcDbArc
 50
-90.0
 51
0.0
  0
ARC
  5
253
330
1F
100
AcDbEntity
  8
JISSEN
  6
Continuous
 62
     7
100
AcDbCircle
 10
156.0458893098333
 20
93.4487199750721
 30
0.0
 40
1.0
100
AcDbArc
 50
180.0
 51
-90.0
  0
ARC
  5
254
330
1F
100
AcDbEntity
  8
JISSEN
  6
Continuous
 62
     7
100
AcDbCircle
 10
156.0458893098333
 20
93.4487199750721
 30
0.0
 40
1.0
100
AcDbArc
 50
-90.0
 51
0.0
  0
ARC
  5
255
330
1F
100
AcDbEntity
  8
JISSEN
  6
Continuous
 62
     7
100
AcDbCircle
 10
165.5458893098332
 20
93.4487199750721
 30
0.0
 40
0.9999999999998863
100
AcDbArc
 50
180.0
 51
-90.0
  0
ARC
  5
256
330
1F
100
AcDbEntity
  8
JISSEN
  6
Continuous
 62
     7
100
AcDbCircle
 10
165.5458893098332
 20
93.4487199750721
 30
0.0
 40
1.0
100
AcDbArc
 50
-90.0
 51
0.0
  0
ARC
  5
257
330
1F
100
AcDbEntity
  8
JISSEN
  6
Continuous
 62
     7
100
AcDbCircle
 10
175.0458893098333
 20
95.4487199750721
 30
0.0
 40
1.0
100
AcDbArc
 50
-90.0
 51
0.0
  0
ARC
  5
258
330
1F
100
AcDbEntity
  8
JISSEN
  6
Continuous
 62
     7
100
AcDbCircle
 10
175.0458893098333
 20
95.4487199750721
 30
0.0
 40
1.000000000000114
100
AcDbArc
 50
180.0
 51
-90.0
  0
ARC
  5
259
330
1F
100
AcDbEntity
  8
JISSEN
  6
Continuous
 62
     7
100
AcDbCircle
 10
175.0458893098333
 20
116.9487199750722
 30
0.0
 40
1.0
100
AcDbArc
 50
0.0
 51
90.0
  0
ARC
  5
25A
330
1F
100
AcDbEntity
  8
JISSEN
  6
Continuous
 62
     7
100
AcDbCircle
 10
175.0458893098333
 20
116.9487199750722
 30
0.0
 40
1.0
100
AcDbArc
 50
90.0
 51
180.0
  0
ARC
  5
25B
330
1F
100
AcDbEntity
  8
JISSEN
  6
Continuous
 62
     7
100
AcDbCircle
 10
165.5458893098332
 20
118.9487199750722
 30
0.0
 40
1.000000000000114
100
AcDbArc
 50
0.0
 51
90.0
  0
ARC
  5
25C
330
1F
100
AcDbEntity
  8
JISSEN
  6
Continuous
 62
     7
100
AcDbCircle
 10
165.5458893098332
 20
118.9487199750722
 30
0.0
 40
1.0
100
AcDbArc
 50
90.0
 51
180.0
  0
ARC
  5
25D
330
1F
100
AcDbEntity
  8
JISSEN
  6
Continuous
 62
     7
100
AcDbCircle
 10
156.0458893098333
 20
118.9487199750722
 30
0.0
 40
1.0
100
AcDbArc
 50
0.0
 51
90.0
  0
ARC
  5
25E
330
1F
100
AcDbEntity
  8
JISSEN
  6
Continuous
 62
     7
100
AcDbCircle
 10
156.0458893098333
 20
118.9487199750722
 30
0.0
 40
1.0
100
AcDbArc
 50
90.0
 51
180.0
  0
ARC
  5
25F
330
1F
100
AcDbEntity
  8
JISSEN
  6
Continuous
 62
     7
100
AcDbCircle
 10
236.7930962133777
 20
124.3987199750722
 30
0.0
 40
1.0
100
AcDbArc
 50
-90.0
 51
0.0
  0
ARC
  5
260
330
1F
100
AcDbEntity
  8
JISSEN
  6
Continuous
 62
     7
100
AcDbCircle
 10
237.4930962133777
 20
117.0987199750722
 30
0.0
 40
0.3000000000000114
100
AcDbArc
 50
0.0
 51
90.0
  0
ARC
  5
261
330
1F
100
AcDbEntity
  8
JISSEN
  6
Continuous
 62
     7
100
AcDbCircle
 10
236.2930962133777
 20
118.3987199750722
 30
0.0
 40
1.0
100
AcDbArc
 50
180.0
 51
-90.0
  0
ARC
  5
262
330
1F
100
AcDbEntity
  8
JISSEN
  6
Continuous
 62
     7
100
AcDbCircle
 10
236.2930962133777
 20
122.3987199750722
 30
0.0
 40
1.0
100
AcDbArc
 50
90.0
 51
180.0
  0
ARC
  5
263
330
1F
100
AcDbEntity
  8
JISSEN
  6
Continuous
 62
     7
100
AcDbCircle
 10
149.2958893098333
 20
133.6987199750722
 30
0.0
 40
11.50000000000034
100
AcDbArc
 50
124.3011529999992
 51
180.0
  0
ARC
  5
264
330
1F
100
AcDbEntity
  8
JISSEN
  6
Continuous
 62
     7
100
AcDbCircle
 10
148.7958893098333
 20
133.4987199750722
 30
0.0
 40
10.80000000000025
100
AcDbArc
 50
125.4309449999985
 51
-90.0
  0
ARC
  5
265
330
1F
100
AcDbEntity
  8
JISSEN
  6
Continuous
 62
     7
100
AcDbCircle
 10
148.7958893098333
 20
133.4987199750722
 30
0.0
 40
9.0
100
AcDbArc
 50
90.0
 51
-90.0
  0
ARC
  5
266
330
1F
100
AcDbEntity
  8
JISSEN
  6
Continuous
 62
     7
100
AcDbCircle
 10
172.7958893098333
 20
133.4987199750722
 30
0.0
 40
8.999999999999986
100
AcDbArc
 50
-90.0
 51
90.0
  0
ARC
  5
267
330
1F
100
AcDbEntity
  8
JISSEN
  6
Continuous
 62
     7
100
AcDbCircle
 10
172.7958893098333
 20
133.4987199750722
 30
0.0
 40
10.8
100
AcDbArc
 50
-90.0
 51
54.56905500000112
  0
ARC
  5
268
330
1F
100
AcDbEntity
  8
JISSEN
  6
Continuous
 62
     7
100
AcDbCircle
 10
172.2958893098333
 20
133.6987199750722
 30
0.0
 40
11.5000000000004
100
AcDbArc
 50
0.0
 51
55.69884700000127
  0
ARC
  5
269
330
1F
100
AcDbEntity
  8
JISSEN
  6
Continuous
 62
     7
100
AcDbCircle
 10
142.7958893098333
 20
88.1987199750721
 30
0.0
 40
5.0
100
AcDbArc
 50
180.0
 51
-90.0
  0
ARC
  5
26A
330
1F
100
AcDbEntity
  8
JISSEN
  6
Continuous
 62
     7
100
AcDbCircle
 10
178.7958893098333
 20
88.1987199750721
 30
0.0
 40
5.0
100
AcDbArc
 50
-90.0
 51
0.0
  0
ARC
  5
26B
330
1F
100
AcDbEntity
  8
JISSEN
  6
Continuous
 62
     7
100
AcDbCircle
 10
160.7958893098333
 20
134.1987199750722
 30
0.0
 40
6.05000000000003
100
AcDbArc
 50
137.9775693708299
 51
42.02243062917083
  0
ARC
  5
26C
330
1F
100
AcDbEntity
  8
1
  6
Continuous
 62
     7
100
AcDbCircle
 10
232.1698052196855
 20
131.6987199750722
 30
0.0
 40
5.77670900630781
100
AcDbArc
 50
159.7438419995852
 51
-159.7438419995852
  0
ARC
  5
26D
330
1F
100
AcDbEntity
  8
1
  6
Continuous
 62
     7
100
AcDbCircle
 10
232.1698052196855
 20
135.6987199750722
 30
0.0
 40
5.77670900630781
100
AcDbArc
 50
159.7438419995852
 51
-159.7438419995852
  0
ARC
  5
26E
330
1F
100
AcDbEntity
  8
JISSEN
  6
Continuous
 62
     7
100
AcDbCircle
 10
381.0978890876565
 20
222.2878507000849
 30
0.0
 40
6.000000000000114
100
AcDbArc
 50
0.0
 51
131.8103149999992
  0
ARC
  5
26F
330
1F
100
AcDbEntity
  8
JISSEN
  6
Continuous
 62
     7
100
AcDbCircle
 10
381.0978890876565
 20
222.2878507000849
 30
0.0
 40
5.999999999999944
100
AcDbArc
 50
-131.8103149999985
 51
0.0
  0
ARC
  5
270
330
1F
100
AcDbEntity
  8
JISSEN
  6
Continuous
 62
     7
100
AcDbCircle
 10
29.03788908765674
 20
222.2878507000849
 30
0.0
 40
6.000000000000032
100
AcDbArc
 50
180.0
 51
-48.1896850000005
  0
ARC
  5
271
330
1F
100
AcDbEntity
  8
JISSEN
  6
Continuous
 62
     7
100
AcDbCircle
 10
306.5978890876565
 20
225.2878507000849
 30
0.0
 40
2.0
100
AcDbArc
 50
0.0
 51
90.0
  0
ARC
  5
272
330
1F
100
AcDbEntity
  8
JISSEN
  6
Continuous
 62
     7
100
AcDbCircle
 10
306.5978890876565
 20
219.2878507000849
 30
0.0
 40
2.0
100
AcDbArc
 50
-90.0
 51
0.0
  0
ARC
  5
273
330
1F
100
AcDbEntity
  8
JISSEN
  6
Continuous
 62
     7
100
AcDbCircle
 10
29.03788908765674
 20
222.2878507000849
 30
0.0
 40
5.999999999999951
100
AcDbArc
 50
48.18968499999978
 51
180.0
  0
CIRCLE
  5
274
330
1F
100
AcDbEntity
  8
JISSEN
  6
Continuous
 62
     3
100
AcDbCircle
 10
170.2958893098332
 20
101.1987199750722
 30
0.0
 40
2.75
  0
CIRCLE
  5
275
330
1F
100
AcDbEntity
  8
JISSEN
  6
Continuous
 62
     3
100
AcDbCircle
 10
179.7958893098336
 20
102.1987199750722
 30
0.0
 40
2.750000000000114
  0
CIRCLE
  5
276
330
1F
100
AcDbEntity
  8
JISSEN
  6
Continuous
 62
     3
100
AcDbCircle
 10
160.7958893098333
 20
101.1987199750722
 30
0.0
 40
2.75
  0
CIRCLE
  5
277
330
1F
100
AcDbEntity
  8
JISSEN
  6
Continuous
 62
     3
100
AcDbCircle
 10
151.2958893098335
 20
101.1987199750722
 30
0.0
 40
2.75
  0
CIRCLE
  5
278
330
1F
100
AcDbEntity
  8
JISSEN
  6
Continuous
 62
     3
100
AcDbCircle
 10
160.7958893098333
 20
111.1987199750722
 30
0.0
 40
2.75
  0
CIRCLE
  5
279
330
1F
100
AcDbEntity
  8
JISSEN
  6
Continuous
 62
     3
100
AcDbCircle
 10
170.2958893098332
 20
111.1987199750722
 30
0.0
 40
2.75
  0
CIRCLE
  5
27A
330
1F
100
AcDbEntity
  8
JISSEN
  6
Continuous
 62
     3
100
AcDbCircle
 10
151.2958893098335
 20
111.1987199750722
 30
0.0
 40
2.75
  0
CIRCLE
  5
27B
330
1F
100
AcDbEntity
  8
JISSEN
  6
Continuous
 62
     7
100
AcDbCircle
 10
179.7958893098331
 20
110.1987199750722
 30
0.0
 40
1.650000000000006
  0
CIRCLE
  5
27C
330
1F
100
AcDbEntity
  8
JISSEN
  6
Continuous
 62
     7
100
AcDbCircle
 10
141.7958893098336
 20
102.1987199750722
 30
0.0
 40
1.650000000000006
  0
CIRCLE
  5
27D
330
1F
100
AcDbEntity
  8
JISSEN
  6
Continuous
 62
     3
100
AcDbCircle
 10
141.7958893098336
 20
110.1987199750722
 30
0.0
 40
2.75
  0
CIRCLE
  5
27E
330
1F
100
AcDbEntity
  8
SAISEN
  6
Continuous
 62
     7
100
AcDbCircle
 10
174.7958893098333
 20
133.4987199750722
 30
0.0
 40
2.5
  0
CIRCLE
  5
27F
330
1F
100
AcDbEntity
  8
JISSEN
  6
Continuous
 62
     3
100
AcDbCircle
 10
174.7958893098333
 20
133.4987199750722
 30
0.0
 40
2.099999999999994
  0
CIRCLE
  5
280
330
1F
100
AcDbEntity
  8
JISSEN
  6
Continuous
 62
     7
100
AcDbCircle
 10
174.7958893098333
 20
133.4987199750722
 30
0.0
 40
4.0
  0
CIRCLE
  5
281
330
1F
100
AcDbEntity
  8
JISSEN
  6
Continuous
 62
     3
100
AcDbCircle
 10
146.7958893098333
 20
133.4987199750722
 30
0.0
 40
2.099999999999994
  0
CIRCLE
  5
282
330
1F
100
AcDbEntity
  8
SAISEN
  6
Continuous
 62
     7
100
AcDbCircle
 10
146.7958893098333
 20
133.4987199750722
 30
0.0
 40
2.5
  0
CIRCLE
  5
283
330
1F
100
AcDbEntity
  8
JISSEN
  6
Continuous
 62
     7
100
AcDbCircle
 10
146.7958893098333
 20
133.4987199750722
 30
0.0
 40
4.0
  0
CIRCLE
  5
284
330
1F
100
AcDbEntity
  8
JISSEN
  6
Continuous
 62
     7
100
AcDbCircle
 10
143.7958893098333
 20
89.1987199750721
 30
0.0
 40
2.649999999999977
  0
CIRCLE
  5
285
330
1F
100
AcDbEntity
  8
JISSEN
  6
Continuous
 62
     7
100
AcDbCircle
 10
177.7958893098333
 20
89.1987199750721
 30
0.0
 40
2.649999999999977
  0
SPLINE
  5
286
330
1F
100
AcDbEntity
  8
1
  6
Continuous
 62
     3
100
AcDbSpline
210
0.0
220
0.0
230
1.0
 70
     8
 71
     3
 72
    11
 73
     7
 74
     5
 42
0.0000000001
 43
0.0000000001
 44
0.00000001
 40
0.0
 40
0.0
 40
0.0
 40
0.0
 40
10.05626253364998
 40
22.27140588456219
 40
37.07674480873105
 40
51.26579445766171
 40
51.26579445766171
 40
51.26579445766171
 40
51.26579445766171
 10
158.5978890876567
 20
245.8988507000849
 30
0.0
 10
158.2436361422306
 20
242.3723528953004
 30
0.0
 10
157.4590791453357
 20
234.5622879036035
 30
0.0
 10
171.8074156685656
 20
226.1296254522997
 30
0.0
 10
158.7336610906386
 20
212.9558107379879
 30
0.0
 10
158.6425005352524
 20
203.3685770019878
 30
0.0
 10
158.5978890876567
 20
198.6768507000848
 30
0.0
 11
158.5978890876567
 21
245.8988507000849
 31
0.0
 11
159.4523044897905
 21
235.87895097672
 31
0.0
 11
166.916148575366
 21
226.209371950229
 31
0.0
 11
160.912794489881
 21
212.6757914785356
 31
0.0
 11
158.5978890876567
 21
198.6768507000848
 31
0.0
  0
SPLINE
  5
287
330
1F
100
AcDbEntity
  8
1
  6
Continuous
 62
     3
100
AcDbSpline
210
0.0
220
0.0
230
1.0
 70
     8
 71
     3
 72
    11
 73
     7
 74
     5
 42
0.0000000001
 43
0.0000000001
 44
0.00000001
 40
0.0
 40
0.0
 40
0.0
 40
0.0
 40
18.04490870409944
 40
31.19542025972621
 40
47.21884700732693
 40
69.35275275114283
 40
69.35275275114283
 40
69.35275275114283
 40
69.35275275114283
 10
188.5978890876565
 20
255.6316007000849
 30
0.0
 10
185.9257136832568
 20
249.4872947314051
 30
0.0
 10
181.3061483468573
 20
238.8652289708967
 30
0.0
 10
195.8245520065302
 20
225.8867918620394
 30
0.0
 10
183.3200370072318
 20
209.0557368712554
 30
0.0
 10
186.6603027335309
 20
196.3274133072968
 30
0.0
 10
188.5978890876565
 20
188.9441007000849
 30
0.0
 11
188.5978890876565
 21
255.6316007000849
 31
0.0
 11
185.3364622367853
 21
237.8838733797855
 31
0.0
 11
191.6739198523337
 21
226.361174687821
 31
0.0
 11
187.0381774253141
 21
211.0229838920962
 31
0.0
 11
188.5978890876565
 21
188.9441007000849
 31
0.0
  0
XLINE
  5
288
330
1F
100
AcDbEntity
  8
1
  6
DOT_CENTER
 62
     3
 60
     1
100
AcDbXline
 10
104.9357130876568
 20
222.2878507000849
 30
0.0
 11
1.0
 21
0.0
 31
0.0
  0
XLINE
  5
289
330
1F
100
AcDbEntity
  8
1
  6
DOT_CENTER
 62
     3
 60
     1
100
AcDbXline
 10
104.9357130876568
 20
222.2878507000849
 30
0.0
 11
1.0
 21
0.0
 31
0.0
  0
ARC
  5
28A
330
1F
100
AcDbEntity
  8
1
  6
PHANTOM
 62
   140
100
AcDbCircle
 10
149.2958893098331
 20
30.89764558326022
 30
0.0
 40
1.5
100
AcDbArc
 50
-90.0
 51
0.0
  0
ARC
  5
28B
330
1F
100
AcDbEntity
  8
1
  6
PHANTOM
 62
   140
100
AcDbCircle
 10
172.2958893098331
 20
30.89764558326022
 30
0.0
 40
1.5
100
AcDbArc
 50
180.0
 51
-90.0
  0
TEXT
  5
28C
330
1F
100
AcDbEntity
  8
1
 62
     2
100
AcDbText
 10
140.5334168157423
 20
150.502460012152
 30
0.0
 40
5.0
  1
取付金具
 41
0.89
  7
CONVERTER_3
100
AcDbText
  0
MTEXT
  5
28D
330
1F
100
AcDbEntity
  8
JISSEN
 62
     2
100
AcDbMText
 10
293.461544354342
 20
124.8570287288136
 30
0.0
 40
3.2
 41
0.0
 71
     4
 72
     1
  1
71.2
  7
CONVERTER_1
 73
     1
 44
0.60024009603842
  0
MTEXT
  5
28E
330
1F
100
AcDbEntity
  8
JISSEN
 62
     2
100
AcDbMText
 10
293.461544354342
 20
131.8570287288136
 30
0.0
 40
3.2
 41
0.0
 71
     4
 72
     1
  1
600
  7
CONVERTER_1
 73
     1
 44
0.60024009603842
  0
MTEXT
  5
28F
330
1F
100
AcDbEntity
  8
JISSEN
 62
     2
100
AcDbMText
 10
323.461544354342
 20
124.8570287288136
 30
0.0
 40
3.2
 41
0.0
 71
     4
 72
     1
  1
80.7
  7
CONVERTER_1
 73
     1
 44
0.60024009603842
  0
MTEXT
  5
290
330
1F
100
AcDbEntity
  8
JISSEN
 62
     2
100
AcDbMText
 10
323.461544354342
 20
131.8570287288136
 30
0.0
 40
3.2
 41
0.0
 71
     4
 72
     1
  1
800
  7
CONVERTER_1
 73
     1
 44
0.60024009603842
  0
MTEXT
  5
291
330
1F
100
AcDbEntity
  8
JISSEN
 62
     2
100
AcDbMText
 10
308.461544354342
 20
124.8570287288136
 30
0.0
 40
3.2
 41
0.0
 71
     4
 72
     1
  1
75.9
  7
CONVERTER_1
 73
     1
 44
0.60024009603842
  0
MTEXT
  5
292
330
1F
100
AcDbEntity
  8
JISSEN
 62
     2
100
AcDbMText
 10
271.9160442852573
 20
124.8570287288136
 30
0.0
 40
3.2
 41
0.0
 71
     4
 72
     1
  1
D寸法
  7
CONVERTER_3
 73
     1
 44
0.60024009603842
  0
MTEXT
  5
293
330
1F
100
AcDbEntity
  8
JISSEN
 62
     2
100
AcDbMText
 10
271.9160442852573
 20
131.8570287288136
 30
0.0
 40
3.2
 41
0.0
 71
     4
 72
     1
  1
ローラ幅
  7
CONVERTER_3
 73
     1
 44
0.60024009603842
  0
MTEXT
  5
294
330
1F
100
AcDbEntity
  8
JISSEN
 62
     2
100
AcDbMText
 10
308.461544354342
 20
131.8570287288136
 30
0.0
 40
3.2
 41
0.0
 71
     4
 72
     1
  1
700
  7
CONVERTER_1
 73
     1
 44
0.60024009603842
  0
MTEXT
  5
295
330
1F
100
AcDbEntity
  8
JISSEN
 62
     2
100
AcDbMText
 10
353.461544354342
 20
124.8570287288136
 30
0.0
 40
3.2
 41
0.0
 71
     4
 72
     1
  1
90.1
  7
CONVERTER_1
 73
     1
 44
0.60024009603842
  0
MTEXT
  5
296
330
1F
100
AcDbEntity
  8
JISSEN
 62
     2
100
AcDbMText
 10
338.461544354342
 20
124.8570287288136
 30
0.0
 40
3.2
 41
0.0
 71
     4
 72
     1
  1
85.4
  7
CONVERTER_1
 73
     1
 44
0.60024009603842
  0
MTEXT
  5
297
330
1F
100
AcDbEntity
  8
JISSEN
 62
     2
100
AcDbMText
 10
338.461544354342
 20
131.8570287288136
 30
0.0
 40
3.2
 41
0.0
 71
     4
 72
     1
  1
900
  7
CONVERTER_1
 73
     1
 44
0.60024009603842
  0
MTEXT
  5
298
330
1F
100
AcDbEntity
  8
JISSEN
 62
     2
100
AcDbMText
 10
353.461544354342
 20
131.8570287288136
 30
0.0
 40
3.2
 41
0.0
 71
     4
 72
     1
  1
1000
  7
CONVERTER_1
 73
     1
 44
0.60024009603842
  0
MTEXT
  5
299
330
1F
100
AcDbEntity
  8
1
 62
     2
100
AcDbMText
 10
255.8986602410034
 20
70.74224751123174
 30
0.0
 40
3.2
 41
0.0
 71
     1
 72
     1
  1
適用機種\PDMT42AS
  7
CONVERTER_3
 73
     1
 44
1.20048019207683
  0
MTEXT
  5
29B
330
1F
100
AcDbEntity
  8
1
 62
     2
100
AcDbMText
 10
297.3841693614355
 20
15.0
 30
0.0
 40
3.2
 41
0.0
 71
     4
 72
     1
  1
本体組立図 DMT42AS ローラ幅 600 ～ 1000 mm　取付金具付
  7
CONVERTER_6
 73
     1
 44
0.60024009603842
  0
MTEXT
  5
29C
330
1F
100
AcDbEntity
  8
1
 62
     2
100
AcDbMText
 10
345.6248504453064
 20
4.612343470483
 30
0.0
 40
3.2
 41
0.0
 71
     4
 72
     1
  1
W_DMT42AS_S_010
  7
CONVERTER_1
 73
     1
 44
0.60024009603842
  0
MTEXT
  5
29D
330
1F
100
AcDbEntity
  8
1
 62
     2
100
AcDbMText
 10
232.5491066386065
 20
15.0
 30
0.0
 40
3.2
 41
0.0
 71
     4
 72
     1
  1
マルチベヤシリーズ
  7
CONVERTER_3
 73
     1
 44
0.60024009603842
  0
MTEXT
  5
29E
330
1F
100
AcDbEntity
  8
1
 62
     2
100
AcDbMText
 10
233.812332410118
 20
5.0
 30
0.0
 40
3.2
 41
0.0
 71
     4
 72
     1
  1
モータローラ
  7
CONVERTER_3
 73
     1
 44
0.60024009603842
  0
MTEXT
  5
29F
330
1F
100
AcDbEntity
  8
1
 62
     2
100
AcDbMText
 10
168.9047361015815
 20
12.5
 30
0.0
 40
3.2
 41
0.0
 71
     4
 72
     1
  1
2011.8.26
  7
CONVERTER_1
 73
     1
 44
0.60024009603842
  0
DIMENSION
  5
2B2
330
1F
100
AcDbEntity
  8
1
100
AcDbDimension
  2
*D02
 10
113.7958893098333
 20
79.698719975072
 30
0.0
 11
111.2558893098333
 21
111.301529779594
 31
0.0
 70
    32
  1
<>
 71
     5
 42
-1.0
 53
90.0
  3
ME10_DIM_0
100
AcDbAlignedDimension
 13
145.7958893098333
 23
144.1987199750722
 33
0.0
 14
147.5458893098332
 24
79.69871997507201
 34
0.0
 50
90.0
100
AcDbRotatedDimension
  0
DIMENSION
  5
2BF
330
1F
100
AcDbEntity
  8
1
100
AcDbDimension
  2
*D14
 10
143.7958893098333
 20
67.698719975072
 30
0.0
 11
160.5065063644521
 21
69.99871997507199
 31
0.0
 70
    32
  1
<>
 71
     5
 42
-1.0
 53
0.00013888888889
  3
ME10_DIM_1
100
AcDbAlignedDimension
 13
177.7958893098333
 23
85.1987199750721
 33
0.0
 14
143.7958893098333
 24
85.1987199750721
 34
0.0
100
AcDbRotatedDimension
  0
DIMENSION
  5
2CC
330
1F
100
AcDbEntity
  8
1
100
AcDbDimension
  2
*D25
 10
135.7958893098333
 20
57.698719975072
 30
0.0
 11
159.6702768106761
 21
59.998719975072
 31
0.0
 70
    32
  1
<>
 71
     5
 42
-1.0
 53
0.00013888888889
  3
ME10_DIM_2
100
AcDbAlignedDimension
 13
185.7958893098337
 23
88.1987199750721
 33
0.0
 14
135.7958893098333
 24
88.1987199750721
 34
0.0
100
AcDbRotatedDimension
  0
DIMENSION
  5
2D9
330
1F
100
AcDbEntity
  8
1
100
AcDbDimension
  2
*D36
 10
217.1930962133777
 20
57.89871997507201
 30
0.0
 11
228.8874862250231
 21
60.198719975072
 31
0.0
 70
    32
  1
<>
 71
     5
 42
-1.0
 53
0.00013888888889
  3
ME10_DIM_3
100
AcDbAlignedDimension
 13
240.6930962133778
 23
83.39871997507211
 33
0.0
 14
217.1930962133778
 24
85.398719975072
 34
0.0
100
AcDbRotatedDimension
  0
DIMENSION
  5
2E8
330
1F
100
AcDbEntity
  8
1
100
AcDbDimension
  2
*D47
 10
237.7930962133777
 20
67.89871997507198
 30
0.0
 11
229.9957155997281
 21
71.1471551864976
 31
0.0
 70
    32
  1
<>
 71
     5
 42
-1.0
 53
0.00013888888889
  3
ME10_DIM_4
100
AcDbAlignedDimension
 13
240.6930962133778
 23
83.39871997507211
 33
0.0
 14
237.7930962133777
 24
83.39871997507211
 34
0.0
100
AcDbRotatedDimension
  0
DIMENSION
  5
2F5
330
1F
100
AcDbEntity
  8
1
100
AcDbDimension
  2
*D58
 10
197.7958893098337
 20
89.19871997507211
 30
0.0
 11
195.1958893098337
 21
112.852155897662
 31
0.0
 70
    32
  1
<>
 71
     5
 42
-1.0
 53
90.0
  3
ME10_DIM_5
100
AcDbAlignedDimension
 13
168.5278121770031
 23
134.1987199750722
 33
0.0
 14
181.7958893098333
 24
89.1987199750721
 34
0.0
 50
90.0
100
AcDbRotatedDimension
  0
DIMENSION
  5
302
330
1F
100
AcDbEntity
  8
1
100
AcDbDimension
  2
*D69
 10
387.0978890876567
 20
204.2878507000849
 30
0.0
 11
382.2566726296962
 21
207.911261443279
 31
0.0
 70
    32
  1
<>
 71
     5
 42
-1.0
 53
0.00013888888889
  3
ME10_DIM_6
100
AcDbAlignedDimension
 13
377.0978890876566
 23
217.8157147000849
 33
0.0
 14
387.0978890876566
 24
222.2878507000849
 34
0.0
100
AcDbRotatedDimension
  0
DIMENSION
  5
30F
330
1F
100
AcDbEntity
  8
1
100
AcDbDimension
  2
*D710
 10
367.1399642218248
 20
228.2878507000849
 30
0.0
 11
364.5399642218248
 21
221.091583446857
 31
0.0
 70
    32
  1
<>
 71
     5
 42
-1.0
 53
90.0
  3
ME10_DIM_7
100
AcDbAlignedDimension
 13
381.0978890876565
 23
216.2878507000849
 33
0.0
 14
381.0978890876565
 24
228.2878507000849
 34
0.0
 50
90.0
100
AcDbRotatedDimension
  0
DIMENSION
  5
31D
330
1F
100
AcDbEntity
  8
1
100
AcDbDimension
  2
*D811
 10
326.8159111722858
 20
186.687850700085
 30
0.0
 11
323.043503925038
 21
241.467589396018
 31
0.0
 70
    32
  1
<>
 71
     5
 42
-1.0
 53
90.0
  3
ME10_DIM_8
100
AcDbAlignedDimension
 13
283.5978890876568
 23
257.8878507000849
 33
0.0
 14
283.5978890876568
 24
186.6878507000849
 34
0.0
 50
90.0
100
AcDbRotatedDimension
  0
DIMENSION
  5
32A
330
1F
100
AcDbEntity
  8
1
100
AcDbDimension
  2
*D912
 10
96.81923157991398
 20
213.0294305096295
 30
0.0
 11
94.21923157991398
 21
229.604817227624
 31
0.0
 70
    33
  1
<>
 71
     5
 42
-1.0
 52
110.0
 53
89.99999999999997
  3
ME10_DIM_9
100
AcDbAlignedDimension
 13
63.59788908765678
 23
243.6378507000849
 33
0.0
 14
63.59788908765675
 24
200.9378507000849
 34
0.0
  0
DIMENSION
  5
337
330
1F
100
AcDbEntity
  8
1
100
AcDbDimension
  2
*D1013
 10
23.03788908765671
 20
204.2878507000849
 30
0.0
 11
27.87910554561714
 21
207.911261443279
 31
0.0
 70
    32
  1
<>
 71
     5
 42
-1.0
 53
0.00013888888889
  3
ME10_DIM_10
100
AcDbAlignedDimension
 13
33.03788908765674
 23
217.8157147000849
 33
0.0
 14
23.03788908765671
 24
222.2878507000849
 34
0.0
100
AcDbRotatedDimension
  0
DIMENSION
  5
344
330
1F
100
AcDbEntity
  8
1
100
AcDbDimension
  2
*D1114
 10
11.03788908765671
 20
228.2878507000849
 30
0.0
 11
6.55799642218213
 21
222.254553035408
 31
0.0
 70
    32
  1
<>
 71
     5
 42
-1.0
 53
90.0
  3
ME10_DIM_11
100
AcDbAlignedDimension
 13
29.03788908765674
 23
216.2878507000849
 33
0.0
 14
29.03788908765674
 24
228.2878507000849
 34
0.0
 50
90.0
100
AcDbRotatedDimension
  0
DIMENSION
  5
351
330
1F
100
AcDbEntity
  8
1
100
AcDbDimension
  2
*D1215
 10
123.7958893098333
 20
79.698719975072
 30
0.0
 11
121.4958893098333
 21
105.486681836839
 31
0.0
 70
    32
  1
<>
 71
     5
 42
-1.0
 53
90.0
  3
ME10_DIM_12
100
AcDbAlignedDimension
 13
153.1156331443041
 23
134.1987199750722
 33
0.0
 14
147.5458893098332
 24
79.69871997507201
 34
0.0
 50
90.0
100
AcDbRotatedDimension
  0
DIMENSION
  5
35E
330
1F
100
AcDbEntity
  8
1
100
AcDbDimension
  2
*D1316
 10
123.7958893098333
 20
134.1987199750722
 30
0.0
 11
121.4958893098333
 21
138.437486845783
 31
0.0
 70
    32
  1
<>
 71
     5
 42
-1.0
 53
90.0
  3
ME10_DIM_13
100
AcDbAlignedDimension
 13
145.7958893098333
 23
144.1987199750722
 33
0.0
 14
153.1156331443041
 24
134.1987199750722
 34
0.0
 50
90.0
100
AcDbRotatedDimension
  0
DIMENSION
  5
36B
330
1F
100
AcDbEntity
  8
1
100
AcDbDimension
  2
*D1417
 10
43.59788908765674
 20
174.6878507000849
 30
0.0
 11
49.9672450805009
 21
177.2878507000849
 31
0.0
 70
    32
  1
<>
 71
     5
 42
-1.0
 53
0.00013888888889
  3
ME10_DIM_14
100
AcDbAlignedDimension
 13
58.59788908765674
 23
217.8157147000849
 33
0.0
 14
43.59788908765674
 24
217.2878507000849
 34
0.0
100
AcDbRotatedDimension
  0
DIMENSION
  5
378
330
1F
100
AcDbEntity
  8
1
100
AcDbDimension
  2
*D1518
 10
305.5978890876565
 20
174.6878507000849
 30
0.0
 11
331.2452313223465
 21
177.2878507000849
 31
0.0
 70
    32
  1
<>
 71
     5
 42
-1.0
 53
0.00013888888889
  3
ME10_DIM_15
100
AcDbAlignedDimension
 13
355.5978890876565
 23
219.7878507000849
 33
0.0
 14
305.5978890876565
 24
217.2878507000849
 34
0.0
100
AcDbRotatedDimension
  0
DIMENSION
  5
385
330
1F
100
AcDbEntity
  8
1
100
AcDbDimension
  2
*D1619
 10
288.5978890876565
 20
174.6878507000849
 30
0.0
 11
297.4381495927885
 21
177.840904895183
 31
0.0
 70
    32
  1
<>
 71
     5
 42
-1.0
 53
0.00013888888889
  3
ME10_DIM_16
100
AcDbAlignedDimension
 13
305.5978890876565
 23
217.2878507000849
 33
0.0
 14
288.5978890876565
 24
216.2878507000849
 34
0.0
100
AcDbRotatedDimension
  0
DIMENSION
  5
394
330
1F
100
AcDbEntity
  8
1
100
AcDbDimension
  2
*D1720
 10
283.5978890876568
 20
174.6878507000849
 30
0.0
 11
286.0384733582315
 21
177.840904895183
 31
0.0
 70
    32
  1
<>
 71
     5
 42
-1.0
 53
0.00013888888889
  3
ME10_DIM_17
100
AcDbAlignedDimension
 13
288.5978890876565
 23
216.2878507000849
 33
0.0
 14
283.5978890876568
 24
186.6878507000849
 34
0.0
100
AcDbRotatedDimension
  0
DIMENSION
  5
3A1
330
1F
100
AcDbEntity
  8
1
100
AcDbDimension
  2
*D1821
 10
63.59788908765668
 20
174.6878507000849
 30
0.0
 11
175.4742842655164
 21
177.2378507000849
 31
0.0
 70
    32
  1
ローラ幅
 71
     5
 42
-1.0
 53
0.00013888888889
  3
ME10_DIM_18
100
AcDbAlignedDimension
 13
283.5978890876568
 23
186.6878507000849
 33
0.0
 14
63.59788908765675
 24
200.9378507000849
 34
0.0
100
AcDbRotatedDimension
  0
DIMENSION
  5
3B0
330
1F
100
AcDbEntity
  8
1
100
AcDbDimension
  2
*D1922
 10
58.59788908765674
 20
174.6878507000849
 30
0.0
 11
61.20928443649371
 21
177.2878507000849
 31
0.0
 70
    32
  1
<>
 71
     5
 42
-1.0
 53
0.00013888888889
  3
ME10_DIM_19
100
AcDbAlignedDimension
 13
63.59788908765675
 23
200.9378507000849
 33
0.0
 14
58.59788908765674
 24
217.8157147000849
 34
0.0
100
AcDbRotatedDimension
  0
INSERT
  5
3B9
330
1F
100
AcDbEntity
  8
1
100
AcDbBlockReference
  2
*D2023
 10
0.0
 20
0.0
 30
0.0
  0
ENDSEC
  0
SECTION
  2
OBJECTS
  0
DICTIONARY
  5
C
330
0
100
AcDbDictionary
281
     1
  3
ACAD_GROUP
350
D
  3
ACAD_LAYOUT
350
1A
  3
ACAD_MLINESTYLE
350
17
  3
ACAD_PLOTSETTINGS
350
19
  3
ACAD_PLOTSTYLENAME
350
E
  0
DICTIONARY
  5
D
102
{ACAD_REACTORS
330
C
102
}
330
C
100
AcDbDictionary
281
     1
  0
DICTIONARY
  5
1A
102
{ACAD_REACTORS
330
C
102
}
330
C
100
AcDbDictionary
281
     1
  3
Layout1
350
1E
  3
Layout2
350
26
  3
Model
350
22
  0
DICTIONARY
  5
17
102
{ACAD_REACTORS
330
C
102
}
330
C
100
AcDbDictionary
281
     1
  3
Standard
350
18
  0
DICTIONARY
  5
19
102
{ACAD_REACTORS
330
C
102
}
330
C
100
AcDbDictionary
281
     1
  0
ACDBDICTIONARYWDFLT
  5
E
102
{ACAD_REACTORS
330
C
102
}
330
C
100
AcDbDictionary
281
     1
  3
Normal
350
F
100
AcDbDictionaryWithDefault
340
F
  0
LAYOUT
  5
1E
102
{ACAD_REACTORS
330
1A
102
}
330
1A
100
AcDbPlotSettings
  1

  2

  4

  6

 40
0.0
 41
0.0
 42
0.0
 43
0.0
 44
0.0
 45
0.0
 46
0.0
 47
0.0
 48
0.0
 49
0.0
140
0.0
141
0.0
142
1.0
143
1.0
 70
   688
 72
     0
 73
     0
 74
     5
  7

 75
    16
147
1.0
148
0.0
149
0.0
100
AcDbLayout
  1
Layout1
 70
     1
 71
     1
 10
0.0
 20
0.0
 11
0.0
 21
0.0
 12
0.0
 22
0.0
 32
0.0
 14
0.0
 24
0.0
 34
0.0
 15
0.0
 25
0.0
 35
0.0
146
0.0
 13
0.0
 23
0.0
 33
0.0
 16
1.0
 26
0.0
 36
0.0
 17
0.0
 27
1.0
 37
0.0
 76
     0
330
1B
  0
LAYOUT
  5
26
102
{ACAD_REACTORS
330
1A
102
}
330
1A
100
AcDbPlotSettings
  1

  2

  4

  6

 40
0.0
 41
0.0
 42
0.0
 43
0.0
 44
0.0
 45
0.0
 46
0.0
 47
0.0
 48
0.0
 49
0.0
140
0.0
141
0.0
142
1.0
143
1.0
 70
   688
 72
     0
 73
     0
 74
     5
  7

 75
    16
147
1.0
148
0.0
149
0.0
100
AcDbLayout
  1
Layout2
 70
     1
 71
     2
 10
0.0
 20
0.0
 11
0.0
 21
0.0
 12
0.0
 22
0.0
 32
0.0
 14
0.0
 24
0.0
 34
0.0
 15
0.0
 25
0.0
 35
0.0
146
0.0
 13
0.0
 23
0.0
 33
0.0
 16
1.0
 26
0.0
 36
0.0
 17
0.0
 27
1.0
 37
0.0
 76
     0
330
23
  0
LAYOUT
  5
22
102
{ACAD_REACTORS
330
1A
102
}
330
1A
100
AcDbPlotSettings
  1

  2

  4

  6

 40
0.0
 41
0.0
 42
0.0
 43
0.0
 44
0.0
 45
0.0
 46
0.0
 47
0.0
 48
0.0
 49
0.0
140
0.0
141
0.0
142
1.0
143
1.0
 70
  1712
 72
     0
 73
     0
 74
     0
  7

 75
     0
147
1.0
148
0.0
149
0.0
100
AcDbLayout
  1
Model
 70
     1
 71
     0
 10
0.0
 20
0.0
 11
0.0
 21
0.0
 12
0.0
 22
0.0
 32
0.0
 14
0.0
 24
-2.25615332095569
 34
0.0
 15
394.0
 25
268.0
 35
0.0
146
0.0
 13
0.0
 23
0.0
 33
0.0
 16
1.0
 26
0.0
 36
0.0
 17
0.0
 27
1.0
 37
0.0
 76
     0
330
1F
  0
MLINESTYLE
  5
18
102
{ACAD_REACTORS
330
17
102
}
330
17
100
AcDbMlineStyle
  2
Standard
 70
     0
  3

 62
   256
 51
90.0
 52
90.0
 71
     2
 49
0.5
 62
   256
  6
BYLAYER
 49
-0.5
 62
   256
  6
BYLAYER
  0
ACDBPLACEHOLDER
  5
F
102
{ACAD_REACTORS
330
E
102
}
330
E
  0
ENDSEC
  0
EOF
