  0
SECTION
  2
HEADER
  9
$ACADVER
  1
AC1015
  9
$ACADMAINTVER
 70
     6
  9
$DWGCODEPAGE
  3
DOS932
  9
$INSBASE
 10
0.0
 20
0.0
 30
0.0
  9
$EXTMIN
 10
0.0
 20
-2.25615332095569
 30
0.0
  9
$EXTMAX
 10
394.0
 20
268.0
 30
0.0
  9
$LIMMIN
 10
0.0
 20
0.0
  9
$LIMMAX
 10
12.0
 20
9.0
  9
$ORTHOMODE
 70
     0
  9
$REGENMODE
 70
     1
  9
$FILLMODE
 70
     1
  9
$QTEXTMODE
 70
     0
  9
$MIRRTEXT
 70
     1
  9
$LTSCALE
 40
1.0
  9
$ATTMODE
 70
     1
  9
$TEXTSIZE
 40
0.2
  9
$TRACEWID
 40
0.05
  9
$TEXTSTYLE
  7
Standard
  9
$CLAYER
  8
0
  9
$CELTYPE
  6
ByLayer
  9
$CECOLOR
 62
   256
  9
$CELTSCALE
 40
1.0
  9
$DISPSILH
 70
     0
  9
$DIMSCALE
 40
1.0
  9
$DIMASZ
 40
0.18
  9
$DIMEXO
 40
0.0625
  9
$DIMDLI
 40
0.38
  9
$DIMRND
 40
0.0
  9
$DIMDLE
 40
0.0
  9
$DIMEXE
 40
0.18
  9
$DIMTP
 40
0.0
  9
$DIMTM
 40
0.0
  9
$DIMTXT
 40
0.18
  9
$DIMCEN
 40
0.09
  9
$DIMTSZ
 40
0.0
  9
$DIMTOL
 70
     0
  9
$DIMLIM
 70
     0
  9
$DIMTIH
 70
     1
  9
$DIMTOH
 70
     1
  9
$DIMSE1
 70
     0
  9
$DIMSE2
 70
     0
  9
$DIMTAD
 70
     0
  9
$DIMZIN
 70
     0
  9
$DIMBLK
  1

  9
$DIMASO
 70
     1
  9
$DIMSHO
 70
     1
  9
$DIMPOST
  1

  9
$DIMAPOST
  1

  9
$DIMALT
 70
     0
  9
$DIMALTD
 70
     2
  9
$DIMALTF
 40
25.4
  9
$DIMLFAC
 40
1.0
  9
$DIMTOFL
 70
     0
  9
$DIMTVP
 40
0.0
  9
$DIMTIX
 70
     0
  9
$DIMSOXD
 70
     0
  9
$DIMSAH
 70
     0
  9
$DIMBLK1
  1

  9
$DIMBLK2
  1

  9
$DIMSTYLE
  2
Standard
  9
$DIMCLRD
 70
     0
  9
$DIMCLRE
 70
     0
  9
$DIMCLRT
 70
     0
  9
$DIMTFAC
 40
1.0
  9
$DIMGAP
 40
0.09
  9
$DIMJUST
 70
     0
  9
$DIMSD1
 70
     0
  9
$DIMSD2
 70
     0
  9
$DIMTOLJ
 70
     1
  9
$DIMTZIN
 70
     0
  9
$DIMALTZ
 70
     0
  9
$DIMALTTZ
 70
     0
  9
$DIMUPT
 70
     0
  9
$DIMDEC
 70
     4
  9
$DIMTDEC
 70
     4
  9
$DIMALTU
 70
     2
  9
$DIMALTTD
 70
     2
  9
$DIMTXSTY
  7
Standard
  9
$DIMAUNIT
 70
     0
  9
$DIMADEC
 70
     0
  9
$DIMALTRND
 40
0.0
  9
$DIMAZIN
 70
     0
  9
$DIMDSEP
 70
    46
  9
$DIMATFIT
 70
     3
  9
$DIMFRAC
 70
     0
  9
$DIMLDRBLK
  1

  9
$DIMLUNIT
 70
     2
  9
$DIMLWD
 70
    -2
  9
$DIMLWE
 70
    -2
  9
$DIMTMOVE
 70
     0
  9
$LUNITS
 70
     2
  9
$LUPREC
 70
     4
  9
$SKETCHINC
 40
0.1
  9
$FILLETRAD
 40
0.5
  9
$AUNITS
 70
     0
  9
$AUPREC
 70
     0
  9
$MENU
  1
.
  9
$ELEVATION
 40
0.0
  9
$PELEVATION
 40
0.0
  9
$THICKNESS
 40
0.0
  9
$LIMCHECK
 70
     0
  9
$CHAMFERA
 40
0.5
  9
$CHAMFERB
 40
0.5
  9
$CHAMFERC
 40
1.0
  9
$CHAMFERD
 40
0.0
  9
$SKPOLY
 70
     0
  9
$TDCREATE
 40
2455804.544659977
  9
$TDUCREATE
 40
2455804.169659977
  9
$TDUPDATE
 40
2455804.544659989
  9
$TDUUPDATE
 40
2455804.169659989
  9
$TDINDWG
 40
0.0000000116
  9
$TDUSRTIMER
 40
0.0000000116
  9
$USRTIMER
 70
     1
  9
$ANGBASE
 50
0.0
  9
$ANGDIR
 70
     0
  9
$PDMODE
 70
     0
  9
$PDSIZE
 40
0.0
  9
$PLINEWID
 40
0.0
  9
$SPLFRAME
 70
     0
  9
$SPLINETYPE
 70
     6
  9
$SPLINESEGS
 70
     8
  9
$HANDSEED
  5
384
  9
$SURFTAB1
 70
     6
  9
$SURFTAB2
 70
     6
  9
$SURFTYPE
 70
     6
  9
$SURFU
 70
     6
  9
$SURFV
 70
     6
  9
$UCSBASE
  2

  9
$UCSNAME
  2

  9
$UCSORG
 10
0.0
 20
0.0
 30
0.0
  9
$UCSXDIR
 10
1.0
 20
0.0
 30
0.0
  9
$UCSYDIR
 10
0.0
 20
1.0
 30
0.0
  9
$UCSORTHOREF
  2

  9
$UCSORTHOVIEW
 70
     0
  9
$UCSORGTOP
 10
0.0
 20
0.0
 30
0.0
  9
$UCSORGBOTTOM
 10
0.0
 20
0.0
 30
0.0
  9
$UCSORGLEFT
 10
0.0
 20
0.0
 30
0.0
  9
$UCSORGRIGHT
 10
0.0
 20
0.0
 30
0.0
  9
$UCSORGFRONT
 10
0.0
 20
0.0
 30
0.0
  9
$UCSORGBACK
 10
0.0
 20
0.0
 30
0.0
  9
$PUCSBASE
  2

  9
$PUCSNAME
  2

  9
$PUCSORG
 10
0.0
 20
0.0
 30
0.0
  9
$PUCSXDIR
 10
1.0
 20
0.0
 30
0.0
  9
$PUCSYDIR
 10
0.0
 20
1.0
 30
0.0
  9
$PUCSORTHOREF
  2

  9
$PUCSORTHOVIEW
 70
     0
  9
$PUCSORGTOP
 10
0.0
 20
0.0
 30
0.0
  9
$PUCSORGBOTTOM
 10
0.0
 20
0.0
 30
0.0
  9
$PUCSORGLEFT
 10
0.0
 20
0.0
 30
0.0
  9
$PUCSORGRIGHT
 10
0.0
 20
0.0
 30
0.0
  9
$PUCSORGFRONT
 10
0.0
 20
0.0
 30
0.0
  9
$PUCSORGBACK
 10
0.0
 20
0.0
 30
0.0
  9
$USERI1
 70
     0
  9
$USERI2
 70
     0
  9
$USERI3
 70
     0
  9
$USERI4
 70
     0
  9
$USERI5
 70
     0
  9
$USERR1
 40
14.0
  9
$USERR2
 40
0.0
  9
$USERR3
 40
0.0
  9
$USERR4
 40
0.0
  9
$USERR5
 40
0.0
  9
$WORLDVIEW
 70
     1
  9
$SHADEDGE
 70
     3
  9
$SHADEDIF
 70
    70
  9
$TILEMODE
 70
     1
  9
$MAXACTVP
 70
    64
  9
$PINSBASE
 10
0.0
 20
0.0
 30
0.0
  9
$PLIMCHECK
 70
     0
  9
$PEXTMIN
 10
1.00000000000000E+20
 20
1.00000000000000E+20
 30
1.00000000000000E+20
  9
$PEXTMAX
 10
-1.00000000000000E+20
 20
-1.00000000000000E+20
 30
-1.00000000000000E+20
  9
$PLIMMIN
 10
0.0
 20
0.0
  9
$PLIMMAX
 10
12.0
 20
9.0
  9
$UNITMODE
 70
     0
  9
$VISRETAIN
 70
     1
  9
$PLINEGEN
 70
     0
  9
$PSLTSCALE
 70
     1
  9
$TREEDEPTH
 70
  3020
  9
$CMLSTYLE
  2
Standard
  9
$CMLJUST
 70
     0
  9
$CMLSCALE
 40
1.0
  9
$PROXYGRAPHICS
 70
     1
  9
$MEASUREMENT
 70
     1
  9
$CELWEIGHT
370
    -1
  9
$ENDCAPS
280
     0
  9
$JOINSTYLE
280
     0
  9
$LWDISPLAY
290
     0
  9
$INSUNITS
 70
     1
  9
$HYPERLINKBASE
  1

  9
$STYLESHEET
  1

  9
$XEDIT
290
     1
  9
$CEPSNTYPE
380
     0
  9
$PSTYLEMODE
290
     1
  9
$FINGERPRINTGUID
  2
{34E59A6B-571A-4024-837F-0355525A3E1C}
  9
$VERSIONGUID
  2
{FAEB1C32-E019-11D5-929B-00C0DF256EC4}
  9
$EXTNAMES
290
     1
  9
$PSVPSCALE
 40
0.0
  9
$OLESTARTUP
290
     0
  0
ENDSEC
  0
SECTION
  2
CLASSES
  0
CLASS
  1
ACDBDICTIONARYWDFLT
  2
AcDbDictionaryWithDefault
  3
ObjectDBX Classes
 90
        0
280
     0
281
     0
  0
CLASS
  1

  2
exOdDbCircle
  3

 90
        0
280
     0
281
     1
  0
CLASS
  1
ACDBPLACEHOLDER
  2
AcDbPlaceHolder
  3
ObjectDBX Classes
 90
        0
280
     0
281
     0
  0
CLASS
  1
LAYOUT
  2
AcDbLayout
  3
ObjectDBX Classes
 90
        0
280
     0
281
     0
  0
ENDSEC
  0
SECTION
  2
TABLES
  0
TABLE
  2
VPORT
  5
8
330
0
100
AcDbSymbolTable
 70
     1
  0
VPORT
  5
29
330
8
100
AcDbSymbolTableRecord
100
AcDbViewportTableRecord
  2
*Active
 70
     0
 10
0.0
 20
0.0
 11
1.0
 21
1.0
 12
197.0
 22
132.8719233395221
 13
0.0
 23
0.0
 14
0.5
 24
0.5
 15
0.5
 25
0.5
 16
0.0
 26
0.0
 36
1.0
 17
0.0
 27
0.0
 37
0.0
 40
297.2817686530513
 41
1.60267857142857
 42
50.0
 43
0.0
 44
0.0
 50
0.0
 51
0.0
 71
     0
 72
   100
 73
     1
 74
     3
 75
     0
 76
     0
 77
     0
 78
     0
281
     0
 65
     1
110
0.0
120
0.0
130
0.0
111
1.0
121
0.0
131
0.0
112
0.0
122
1.0
132
0.0
 79
     0
146
0.0
  0
ENDTAB
  0
TABLE
  2
LTYPE
  5
5
330
0
100
AcDbSymbolTable
 70
     8
  0
LTYPE
  5
14
330
5
100
AcDbSymbolTableRecord
100
AcDbLinetypeTableRecord
  2
ByBlock
 70
     0
  3

 72
    65
 73
     0
 40
0.0
  0
LTYPE
  5
15
330
5
100
AcDbSymbolTableRecord
100
AcDbLinetypeTableRecord
  2
ByLayer
 70
     0
  3

 72
    65
 73
     0
 40
0.0
  0
LTYPE
  5
16
330
5
100
AcDbSymbolTableRecord
100
AcDbLinetypeTableRecord
  2
Continuous
 70
     0
  3
Solid line
 72
    65
 73
     0
 40
0.0
  0
LTYPE
  5
2A
330
5
100
AcDbSymbolTableRecord
100
AcDbLinetypeTableRecord
  2
DASHED
 70
     0
  3
Dashed
 72
    65
 73
     2
 40
15.0
 49
7.0
 74
     0
 49
-8.0
 74
     0
  0
LTYPE
  5
2B
330
5
100
AcDbSymbolTableRecord
100
AcDbLinetypeTableRecord
  2
DOTTED
 70
     0
  3
Dotted
 72
    65
 73
     2
 40
1.0
 49
0.0
 74
     0
 49
-1.0
 74
     0
  0
LTYPE
  5
2C
330
5
100
AcDbSymbolTableRecord
100
AcDbLinetypeTableRecord
  2
DOT_CENTER
 70
     0
  3
Dot_Center
 72
    65
 73
     4
 40
14.0
 49
12.0
 74
     0
 49
-1.0
 74
     0
 49
0.0
 74
     0
 49
-1.0
 74
     0
  0
LTYPE
  5
2D
330
5
100
AcDbSymbolTableRecord
100
AcDbLinetypeTableRecord
  2
LONG_DASHED
 70
     0
  3
Long_Dashed
 72
    65
 73
     2
 40
15.0
 49
10.0
 74
     0
 49
-5.0
 74
     0
  0
LTYPE
  5
2E
330
5
100
AcDbSymbolTableRecord
100
AcDbLinetypeTableRecord
  2
DASH_CENTER
 70
     0
  3
Dash_Center
 72
    65
 73
     4
 40
14.0
 49
11.0
 74
     0
 49
-1.0
 74
     0
 49
1.0
 74
     0
 49
-1.0
 74
     0
  0
LTYPE
  5
2F
330
5
100
AcDbSymbolTableRecord
100
AcDbLinetypeTableRecord
  2
PHANTOM
 70
     0
  3
Phantom
 72
    65
 73
     6
 40
13.0
 49
10.0
 74
     0
 49
-1.0
 74
     0
 49
0.0
 74
     0
 49
-1.0
 74
     0
 49
0.0
 74
     0
 49
-1.0
 74
     0
  0
LTYPE
  5
30
330
5
100
AcDbSymbolTableRecord
100
AcDbLinetypeTableRecord
  2
CENTER_DASH_DASH
 70
     0
  3
Center_Dash_Dash
 72
    65
 73
     6
 40
14.0
 49
9.0
 74
     0
 49
-1.0
 74
     0
 49
1.0
 74
     0
 49
-1.0
 74
     0
 49
1.0
 74
     0
 49
-1.0
 74
     0
  0
ENDTAB
  0
TABLE
  2
LAYER
  5
2
330
0
100
AcDbSymbolTable
 70
     7
  0
LAYER
  5
10
330
2
100
AcDbSymbolTableRecord
100
AcDbLayerTableRecord
  2
0
 70
     0
 62
     7
  6
Continuous
370
    -3
390
F
  0
LAYER
  5
31
330
2
100
AcDbSymbolTableRecord
100
AcDbLayerTableRecord
  2
1
 70
     0
 62
     7
  6
Continuous
370
    -3
390
F
  0
LAYER
  5
32
330
2
100
AcDbSymbolTableRecord
100
AcDbLayerTableRecord
  2
ITTEN
 70
     0
 62
     7
  6
Continuous
370
    -3
390
F
  0
LAYER
  5
33
330
2
100
AcDbSymbolTableRecord
100
AcDbLayerTableRecord
  2
JISSEN
 70
     0
 62
     7
  6
Continuous
370
    -3
390
F
  0
LAYER
  5
34
330
2
100
AcDbSymbolTableRecord
100
AcDbLayerTableRecord
  2
NITEN
 70
     0
 62
     7
  6
Continuous
370
    -3
390
F
  0
LAYER
  5
35
330
2
100
AcDbSymbolTableRecord
100
AcDbLayerTableRecord
  2
SAISEN
 70
     0
 62
     7
  6
Continuous
370
    -3
390
F
  0
LAYER
  5
36
330
2
100
AcDbSymbolTableRecord
100
AcDbLayerTableRecord
  2
TENSEN
 70
     0
 62
     7
  6
Continuous
370
    -3
390
F
  0
ENDTAB
  0
TABLE
  2
STYLE
  5
3
330
0
100
AcDbSymbolTable
 70
     7
  0
STYLE
  5
11
330
3
100
AcDbSymbolTableRecord
100
AcDbTextStyleTableRecord
  2
Standard
 70
     0
 40
0.0
 41
1.0
 50
0.0
 71
     0
 42
0.2
  3
txt
  4

  0
STYLE
  5
4F
330
3
100
AcDbSymbolTableRecord
100
AcDbTextStyleTableRecord
  2
CONVERTER_1
 70
     0
 40
0.0
 41
0.9
 50
0.0
 71
     0
 42
0.2
  3
txt.shx
  4

  0
STYLE
  5
52
330
3
100
AcDbSymbolTableRecord
100
AcDbTextStyleTableRecord
  2
CONVERTER_2
 70
     0
 40
0.0
 41
1.068
 50
0.0
 71
     0
 42
0.2
  3
msmincho.ttc
  4

1001
ACAD
1000
MS Mincho
1071
    32785
  0
STYLE
  5
55
330
3
100
AcDbSymbolTableRecord
100
AcDbTextStyleTableRecord
  2
CONVERTER_3
 70
     0
 40
0.0
 41
0.89
 50
0.0
 71
     0
 42
0.2
  3
MSMINCHO.TTC
  4

1001
ACAD
1000
MS Mincho
1071
    32785
  0
STYLE
  5
58
330
3
100
AcDbSymbolTableRecord
100
AcDbTextStyleTableRecord
  2
CONVERTER_4
 70
     0
 40
0.0
 41
0.801
 50
0.0
 71
     0
 42
0.2
  3
msmincho.ttc
  4

1001
ACAD
1000
MS Mincho
1071
    32785
  0
STYLE
  5
5C
330
3
100
AcDbSymbolTableRecord
100
AcDbTextStyleTableRecord
  2
CONVERTER_5
 70
     0
 40
0.0
 41
0.9025
 50
0.0
 71
     0
 42
0.2
  3
complex.shx
  4

  0
STYLE
  5
271
330
3
100
AcDbSymbolTableRecord
100
AcDbTextStyleTableRecord
  2
CONVERTER_6
 70
     0
 40
0.0
 41
0.712
 50
0.0
 71
     0
 42
0.2
  3
msmincho.ttc
  4

1001
ACAD
1000
MS Mincho
1071
    32785
  0
ENDTAB
  0
TABLE
  2
VIEW
  5
6
330
0
100
AcDbSymbolTable
 70
     0
  0
ENDTAB
  0
TABLE
  2
UCS
  5
7
330
0
100
AcDbSymbolTable
 70
     0
  0
ENDTAB
  0
TABLE
  2
APPID
  5
9
330
0
100
AcDbSymbolTable
 70
     1
  0
APPID
  5
12
330
9
100
AcDbSymbolTableRecord
100
AcDbRegAppTableRecord
  2
ACAD
 70
     0
  0
ENDTAB
  0
TABLE
  2
DIMSTYLE
  5
A
330
0
100
AcDbSymbolTable
 70
    20
100
AcDbDimStyleTable
  0
DIMSTYLE
105
27
330
A
100
AcDbSymbolTableRecord
100
AcDbDimStyleTableRecord
  2
Standard
 70
     0
340
11
  0
DIMSTYLE
105
289
102
{ACAD_REACTORS
330
28A
102
}
330
A
100
AcDbSymbolTableRecord
100
AcDbDimStyleTableRecord
  2
ME10_DIM_0
 70
     0
 41
3.2
 42
1.0
 44
1.0
 73
     0
 74
     0
 77
     1
 78
     8
140
3.2
147
0.7
172
     1
173
     1
176
     2
177
     2
178
     2
271
     2
340
4F
343
283
344
283
  0
DIMSTYLE
105
296
102
{ACAD_REACTORS
330
297
102
}
330
A
100
AcDbSymbolTableRecord
100
AcDbDimStyleTableRecord
  2
ME10_DIM_1
 70
     0
  3
φ<>
 41
3.2
 42
1.0
 44
1.0
 73
     0
 74
     0
 77
     1
 78
     8
140
3.2
147
1.0
172
     1
173
     1
176
     2
177
     2
178
     2
271
     2
340
55
343
283
344
283
  0
DIMSTYLE
105
2A3
102
{ACAD_REACTORS
330
2A4
102
}
330
A
100
AcDbSymbolTableRecord
100
AcDbDimStyleTableRecord
  2
ME10_DIM_2
 70
     0
  3
φ<>
 41
3.2
 42
1.0
 44
1.0
 73
     0
 74
     0
 77
     1
 78
     8
140
3.2
147
0.7
172
     1
173
     1
176
     2
177
     2
178
     2
271
     2
340
55
343
283
344
283
  0
DIMSTYLE
105
2B0
102
{ACAD_REACTORS
330
2B1
102
}
330
A
100
AcDbSymbolTableRecord
100
AcDbDimStyleTableRecord
  2
ME10_DIM_3
 70
     0
 41
3.2
 42
1.0
 44
1.0
 73
     0
 74
     0
 77
     1
 78
     8
140
3.2
147
0.7
172
     1
173
     1
176
     2
177
     2
178
     2
271
     2
340
4F
343
283
344
283
  0
DIMSTYLE
105
2BD
102
{ACAD_REACTORS
330
2BE
102
}
330
A
100
AcDbSymbolTableRecord
100
AcDbDimStyleTableRecord
  2
ME10_DIM_4
 70
     0
  3
φ<>
 41
3.2
 42
1.0
 44
1.0
 73
     0
 74
     0
 77
     1
 78
     8
140
3.2
147
1.0
172
     1
173
     1
176
     2
177
     2
178
     2
271
     2
340
55
343
283
344
283
  0
DIMSTYLE
105
2CA
102
{ACAD_REACTORS
330
2CB
102
}
330
A
100
AcDbSymbolTableRecord
100
AcDbDimStyleTableRecord
  2
ME10_DIM_5
 70
     0
 41
3.2
 42
1.0
 44
1.0
 73
     0
 74
     0
 77
     1
 78
     8
140
3.2
147
1.0
172
     1
173
     1
176
     2
177
     2
178
     2
271
     2
340
4F
343
283
344
283
  0
DIMSTYLE
105
2D9
102
{ACAD_REACTORS
330
2DA
102
}
330
A
100
AcDbSymbolTableRecord
100
AcDbDimStyleTableRecord
  2
ME10_DIM_6
 70
     0
  3
ｔ<>
 41
3.2
 42
1.0
 44
1.0
 77
     1
 78
     8
140
3.2
147
0.7
172
     1
173
     1
176
     2
177
     2
178
     2
271
     2
340
55
343
283
344
283
  0
DIMSTYLE
105
2E6
102
{ACAD_REACTORS
330
2E7
102
}
330
A
100
AcDbSymbolTableRecord
100
AcDbDimStyleTableRecord
  2
ME10_DIM_7
 70
     0
 41
3.2
 42
1.0
 44
1.0
 77
     1
 78
     8
140
3.2
147
0.7
172
     1
173
     1
176
     2
177
     2
178
     2
271
     2
340
4F
343
283
344
283
  0
DIMSTYLE
105
2F3
102
{ACAD_REACTORS
330
2F4
102
}
330
A
100
AcDbSymbolTableRecord
100
AcDbDimStyleTableRecord
  2
ME10_DIM_8
 70
     0
 41
3.2
 42
1.0
 44
1.0
 73
     0
 74
     0
 77
     1
 78
     8
140
3.2
147
0.7
172
     1
173
     1
176
     2
177
     2
178
     2
271
     2
340
4F
343
283
344
283
  0
DIMSTYLE
105
300
102
{ACAD_REACTORS
330
301
102
}
330
A
100
AcDbSymbolTableRecord
100
AcDbDimStyleTableRecord
  2
ME10_DIM_9
 70
     0
 41
3.2
 42
1.0
 44
1.0
 73
     0
 74
     0
 77
     1
 78
     8
140
3.2
147
0.7
172
     1
173
     1
176
     2
177
     2
178
     2
271
     2
340
4F
343
283
344
283
  0
DIMSTYLE
105
30D
102
{ACAD_REACTORS
330
30E
102
}
330
A
100
AcDbSymbolTableRecord
100
AcDbDimStyleTableRecord
  2
ME10_DIM_10
 70
     0
 41
3.2
 42
1.0
 44
1.0
 73
     0
 74
     0
 77
     1
 78
     8
140
3.2
147
0.7
172
     1
173
     1
176
     2
177
     2
178
     2
271
     2
340
4F
343
283
344
283
  0
DIMSTYLE
105
31A
102
{ACAD_REACTORS
330
31B
102
}
330
A
100
AcDbSymbolTableRecord
100
AcDbDimStyleTableRecord
  2
ME10_DIM_11
 70
     0
 41
3.2
 42
1.0
 44
1.0
 73
     0
 74
     0
 77
     1
 78
     8
140
3.2
147
0.7
172
     1
173
     1
176
     2
177
     2
178
     2
271
     2
340
4F
343
283
344
283
  0
DIMSTYLE
105
327
102
{ACAD_REACTORS
330
328
102
}
330
A
100
AcDbSymbolTableRecord
100
AcDbDimStyleTableRecord
  2
ME10_DIM_12
 70
     0
 41
3.2
 42
1.0
 44
1.0
 73
     0
 74
     0
 77
     1
 78
     8
140
3.2
147
0.7
172
     1
173
     1
176
     2
177
     2
178
     2
271
     2
340
4F
343
283
344
283
  0
DIMSTYLE
105
334
102
{ACAD_REACTORS
330
335
102
}
330
A
100
AcDbSymbolTableRecord
100
AcDbDimStyleTableRecord
  2
ME10_DIM_13
 70
     0
 41
3.2
 42
1.0
 44
1.0
 73
     0
 74
     0
 77
     1
 78
     8
140
3.2
147
0.7
172
     1
173
     1
176
     2
177
     2
178
     2
271
     2
340
4F
343
283
344
283
  0
DIMSTYLE
105
343
102
{ACAD_REACTORS
330
344
102
}
330
A
100
AcDbSymbolTableRecord
100
AcDbDimStyleTableRecord
  2
ME10_DIM_14
 70
     0
 41
3.2
 42
1.0
 44
1.0
 73
     0
 74
     0
 77
     1
 78
     8
140
3.2
147
0.7
172
     1
173
     1
176
     2
177
     2
178
     2
271
     2
340
4F
343
283
344
283
  0
DIMSTYLE
105
350
102
{ACAD_REACTORS
330
351
102
}
330
A
100
AcDbSymbolTableRecord
100
AcDbDimStyleTableRecord
  2
ME10_DIM_15
 70
     0
  3
　(ローラ幅）
 41
3.2
 42
1.0
 44
1.0
 73
     0
 74
     0
 77
     1
 78
     8
140
3.2
147
0.7
172
     1
173
     1
176
     2
177
     2
178
     2
271
     2
340
55
343
283
344
283
  0
DIMSTYLE
105
35F
102
{ACAD_REACTORS
330
360
102
}
330
A
100
AcDbSymbolTableRecord
100
AcDbDimStyleTableRecord
  2
ME10_DIM_16
 70
     0
 41
3.2
 42
1.0
 44
1.0
 73
     0
 74
     0
 77
     1
 78
     8
140
3.2
147
0.7
172
     1
173
     1
176
     2
177
     2
178
     2
271
     2
340
4F
343
283
344
283
  0
DIMSTYLE
105
36C
102
{ACAD_REACTORS
330
36D
102
}
330
A
100
AcDbSymbolTableRecord
100
AcDbDimStyleTableRecord
  2
ME10_DIM_17
 70
     0
 41
3.2
 42
1.0
 44
1.0
 73
     0
 74
     0
 77
     1
 78
     8
140
3.2
147
0.7
172
     1
173
     1
176
     2
177
     2
178
     2
271
     2
340
4F
343
283
344
283
  0
DIMSTYLE
105
379
102
{ACAD_REACTORS
330
37A
102
}
330
A
100
AcDbSymbolTableRecord
100
AcDbDimStyleTableRecord
  2
ME10_DIM_18
 70
     0
 41
3.2
 42
1.0
 44
1.0
 73
     0
 74
     0
 77
     1
 78
     8
140
3.2
147
0.7
172
     1
173
     1
176
     2
177
     2
178
     2
271
     2
340
4F
343
283
344
283
  0
ENDTAB
  0
TABLE
  2
BLOCK_RECORD
  5
1
330
0
100
AcDbSymbolTable
 70
    23
  0
BLOCK_RECORD
  5
1F
330
1
100
AcDbSymbolTableRecord
100
AcDbBlockTableRecord
  2
*Model_Space
340
22
  0
BLOCK_RECORD
  5
1B
330
1
100
AcDbSymbolTableRecord
100
AcDbBlockTableRecord
  2
*Paper_Space
340
1E
  0
BLOCK_RECORD
  5
23
330
1
100
AcDbSymbolTableRecord
100
AcDbBlockTableRecord
  2
*Paper_Space0
340
26
  0
BLOCK_RECORD
  5
37
330
1
100
AcDbSymbolTableRecord
100
AcDbBlockTableRecord
  2
Zuwaku-A3-web
340
0
102
{BLKREFS
331
3A
102
}
  0
BLOCK_RECORD
  5
278
330
1
100
AcDbSymbolTableRecord
100
AcDbBlockTableRecord
  2
*D02
340
0
  0
BLOCK_RECORD
  5
283
330
1
100
AcDbSymbolTableRecord
100
AcDbBlockTableRecord
  2
_Open30
340
0
  0
BLOCK_RECORD
  5
28B
330
1
100
AcDbSymbolTableRecord
100
AcDbBlockTableRecord
  2
*D14
340
0
  0
BLOCK_RECORD
  5
298
330
1
100
AcDbSymbolTableRecord
100
AcDbBlockTableRecord
  2
*D25
340
0
  0
BLOCK_RECORD
  5
2A5
330
1
100
AcDbSymbolTableRecord
100
AcDbBlockTableRecord
  2
*D36
340
0
  0
BLOCK_RECORD
  5
2B2
330
1
100
AcDbSymbolTableRecord
100
AcDbBlockTableRecord
  2
*D47
340
0
  0
BLOCK_RECORD
  5
2BF
330
1
100
AcDbSymbolTableRecord
100
AcDbBlockTableRecord
  2
*D58
340
0
  0
BLOCK_RECORD
  5
2CC
330
1
100
AcDbSymbolTableRecord
100
AcDbBlockTableRecord
  2
*D69
340
0
  0
BLOCK_RECORD
  5
2DB
330
1
100
AcDbSymbolTableRecord
100
AcDbBlockTableRecord
  2
*D710
340
0
  0
BLOCK_RECORD
  5
2E8
330
1
100
AcDbSymbolTableRecord
100
AcDbBlockTableRecord
  2
*D811
340
0
  0
BLOCK_RECORD
  5
2F5
330
1
100
AcDbSymbolTableRecord
100
AcDbBlockTableRecord
  2
*D912
340
0
  0
BLOCK_RECORD
  5
302
330
1
100
AcDbSymbolTableRecord
100
AcDbBlockTableRecord
  2
*D1013
340
0
  0
BLOCK_RECORD
  5
30F
330
1
100
AcDbSymbolTableRecord
100
AcDbBlockTableRecord
  2
*D1114
340
0
  0
BLOCK_RECORD
  5
31C
330
1
100
AcDbSymbolTableRecord
100
AcDbBlockTableRecord
  2
*D1215
340
0
  0
BLOCK_RECORD
  5
329
330
1
100
AcDbSymbolTableRecord
100
AcDbBlockTableRecord
  2
*D1316
340
0
  0
BLOCK_RECORD
  5
336
330
1
100
AcDbSymbolTableRecord
100
AcDbBlockTableRecord
  2
*D1417
340
0
  0
BLOCK_RECORD
  5
345
330
1
100
AcDbSymbolTableRecord
100
AcDbBlockTableRecord
  2
*D1518
340
0
  0
BLOCK_RECORD
  5
352
330
1
100
AcDbSymbolTableRecord
100
AcDbBlockTableRecord
  2
*D1619
340
0
  0
BLOCK_RECORD
  5
361
330
1
100
AcDbSymbolTableRecord
100
AcDbBlockTableRecord
  2
*D1720
340
0
  0
BLOCK_RECORD
  5
36E
330
1
100
AcDbSymbolTableRecord
100
AcDbBlockTableRecord
  2
*D1821
340
0
  0
BLOCK_RECORD
  5
37B
330
1
100
AcDbSymbolTableRecord
100
AcDbBlockTableRecord
  2
*D1922
340
0
102
{BLKREFS
331
383
102
}
  0
ENDTAB
  0
ENDSEC
  0
SECTION
  2
BLOCKS
  0
BLOCK
  5
20
330
1F
100
AcDbEntity
  8
0
100
AcDbBlockBegin
  2
*Model_Space
 70
     0
 71
     0
 10
0.0
 20
0.0
 30
0.0
  3
*Model_Space
  1

  0
ENDBLK
  5
21
330
1F
100
AcDbEntity
  8
0
100
AcDbBlockEnd
  0
BLOCK
  5
1C
330
1B
100
AcDbEntity
 67
     1
  8
0
100
AcDbBlockBegin
  2
*Paper_Space
 70
     0
 71
     0
 10
0.0
 20
0.0
 30
0.0
  3
*Paper_Space
  1

  0
ENDBLK
  5
1D
330
1B
100
AcDbEntity
 67
     1
  8
0
100
AcDbBlockEnd
  0
BLOCK
  5
24
330
23
100
AcDbEntity
  8
0
100
AcDbBlockBegin
  2
*Paper_Space0
 70
     0
 71
     0
 10
0.0
 20
0.0
 30
0.0
  3
*Paper_Space0
  1

  0
ENDBLK
  5
25
330
23
100
AcDbEntity
  8
0
100
AcDbBlockEnd
  0
BLOCK
  5
38
330
37
100
AcDbEntity
  8
0
100
AcDbBlockBegin
  2
Zuwaku-A3-web
 70
     0
 71
     0
 10
196.9999999999998
 20
134.0
 30
0.0
  3
Zuwaku-A3-web
  1

  0
LINE
  5
3B
330
37
100
AcDbEntity
  8
1
  6
Continuous
 62
     4
100
AcDbLine
 10
189.4945771572093
 20
2.13397584248199
 30
0.0
 11
195.2266254722454
 21
7.866024157518
 31
0.0
  0
LINE
  5
3C
330
37
100
AcDbEntity
  8
1
  6
Continuous
 62
     7
100
AcDbLine
 10
0.0
 20
0.0
 30
0.0
 11
394.0
 21
0.0
 31
0.0
  0
LINE
  5
3D
330
37
100
AcDbEntity
  8
1
  6
Continuous
 62
     4
100
AcDbLine
 10
162.5
 20
15.0
 30
0.0
 11
202.0
 21
15.0
 31
0.0
  0
LINE
  5
3E
330
37
100
AcDbEntity
  8
1
  6
Continuous
 62
     3
100
AcDbLine
 10
9.5
 20
12.5
 30
0.0
 11
6.0
 21
19.0
 31
0.0
  0
LINE
  5
3F
330
37
100
AcDbEntity
  8
1
  6
Continuous
 62
     3
100
AcDbLine
 10
2.5
 20
12.5
 30
0.0
 11
9.5
 21
12.5
 31
0.0
  0
LINE
  5
40
330
37
100
AcDbEntity
  8
1
  6
Continuous
 62
     3
100
AcDbLine
 10
6.0
 20
19.0
 30
0.0
 11
2.5
 21
12.5
 31
0.0
  0
LINE
  5
41
330
37
100
AcDbEntity
  8
1
  6
Continuous
 62
     4
100
AcDbLine
 10
12.0
 20
20.0
 30
0.0
 11
12.0
 21
0.0
 31
0.0
  0
LINE
  5
42
330
37
100
AcDbEntity
  8
1
  6
Continuous
 62
     4
100
AcDbLine
 10
0.0
 20
10.0
 30
0.0
 11
394.0
 21
10.0
 31
0.0
  0
LINE
  5
43
330
37
100
AcDbEntity
  8
1
  6
Continuous
 62
     7
100
AcDbLine
 10
393.9999999999996
 20
268.0
 30
0.0
 11
0.0
 21
268.0
 31
0.0
  0
LINE
  5
44
330
37
100
AcDbEntity
  8
1
  6
Continuous
 62
     7
100
AcDbLine
 10
394.0
 20
0.0
 30
0.0
 11
393.9999999999996
 21
268.0
 31
0.0
  0
LINE
  5
45
330
37
100
AcDbEntity
  8
1
  6
Continuous
 62
     4
100
AcDbLine
 10
202.0
 20
0.0
 30
0.0
 11
202.0
 21
20.0
 31
0.0
  0
LINE
  5
46
330
37
100
AcDbEntity
  8
1
  6
Continuous
 62
     4
100
AcDbLine
 10
162.5
 20
0.0
 30
0.0
 11
162.5
 21
20.0
 31
0.0
  0
LINE
  5
47
330
37
100
AcDbEntity
  8
1
  6
Continuous
 62
     4
100
AcDbLine
 10
283.0
 20
20.0
 30
0.0
 11
283.0
 21
0.0
 31
0.0
  0
LINE
  5
48
330
37
100
AcDbEntity
  8
1
  6
Continuous
 62
     4
100
AcDbLine
 10
227.0
 20
20.0
 30
0.0
 11
227.0
 21
0.0
 31
0.0
  0
LINE
  5
49
330
37
100
AcDbEntity
  8
1
  6
Continuous
 62
     4
100
AcDbLine
 10
170.5
 20
10.0
 30
0.0
 11
170.5
 21
0.0
 31
0.0
  0
LINE
  5
4A
330
37
100
AcDbEntity
  8
1
  6
Continuous
 62
     4
100
AcDbLine
 10
66.0
 20
20.0
 30
0.0
 11
66.0
 21
0.0
 31
0.0
  0
LINE
  5
4B
330
37
100
AcDbEntity
  8
1
  6
Continuous
 62
     7
100
AcDbLine
 10
0.0
 20
268.0
 30
0.0
 11
0.0
 21
0.0
 31
0.0
  0
LINE
  5
4C
330
37
100
AcDbEntity
  8
1
  6
Continuous
 62
     4
100
AcDbLine
 10
173.7445771572093
 20
2.13397584248199
 30
0.0
 11
179.4766254722454
 21
7.866024157518
 31
0.0
  0
LINE
  5
4D
330
37
100
AcDbEntity
  8
1
  6
Continuous
 62
     4
100
AcDbLine
 10
394.0
 20
20.0
 30
0.0
 11
0.0
 21
20.0
 31
0.0
  0
LINE
  5
4E
330
37
100
AcDbEntity
  8
1
  6
Continuous
 62
     4
100
AcDbLine
 10
295.0
 20
20.0
 30
0.0
 11
295.0
 21
0.0
 31
0.0
  0
MTEXT
  5
50
330
37
100
AcDbEntity
  8
1
 62
     2
100
AcDbMText
 10
180.9766254722454
 20
3.75
 30
0.0
 40
4.0
 41
0.0
 71
     5
 72
     1
  1
1
  7
CONVERTER_1
 73
     1
 44
0.60024009603842
  0
MTEXT
  5
51
330
37
100
AcDbEntity
  8
1
 62
     2
100
AcDbMText
 10
173.183432867907
 20
6.25
 30
0.0
 40
4.0
 41
0.0
 71
     5
 72
     1
  1
1
  7
CONVERTER_1
 73
     1
 44
0.60024009603842
  0
MTEXT
  5
53
330
37
100
AcDbEntity
  8
1
 62
     2
100
AcDbMText
 10
289.0
 20
2.75
 30
0.0
 40
3.5
 41
0.0
 71
     5
 72
     1
  1
番号
  7
CONVERTER_2
 73
     1
 44
0.78031212484994
  0
MTEXT
  5
54
330
37
100
AcDbEntity
  8
1
 62
     2
100
AcDbMText
 10
166.5
 20
2.75
 30
0.0
 40
3.5
 41
0.0
 71
     5
 72
     1
  1
度
  7
CONVERTER_2
 73
     1
 44
0.78031212484994
  0
MTEXT
  5
56
330
37
100
AcDbEntity
  8
1
 62
     2
100
AcDbMText
 10
5.67807803017169
 20
2.75
 30
0.0
 40
3.5
 41
0.0
 71
     5
 72
     1
  1
番号
  7
CONVERTER_3
 73
     1
 44
0.78031212484994
  0
MTEXT
  5
57
330
37
100
AcDbEntity
  8
1
 62
     7
100
AcDbMText
 10
114.25
 20
15.0
 30
0.0
 40
5.0
 41
0.0
 71
     5
 72
     1
  1
技術情報サービス
  7
CONVERTER_3
 73
     1
 44
1.20048019207683
  0
MTEXT
  5
59
330
37
100
AcDbEntity
  8
1
 62
     2
100
AcDbMText
 10
214.5
 20
15.0
 30
0.0
 40
4.0
 41
0.0
 71
     5
 72
     1
  1
シリーズ名
  7
CONVERTER_4
 73
     1
 44
1.32052821128451
  0
MTEXT
  5
5A
330
37
100
AcDbEntity
  8
1
 62
     2
100
AcDbMText
 10
214.5
 20
5.0
 30
0.0
 40
4.0
 41
0.0
 71
     5
 72
     1
  1
機　種
  7
CONVERTER_3
 73
     1
 44
1.32052821128451
  0
MTEXT
  5
5B
330
37
100
AcDbEntity
  8
1
 62
     2
100
AcDbMText
 10
189.75
 20
6.5
 30
0.0
 40
4.0
 41
0.0
 71
     5
 72
     1
  1
1
  7
CONVERTER_1
 73
     1
 44
1.32052821128451
  0
MTEXT
  5
5D
330
37
100
AcDbEntity
  8
1
 62
     7
100
AcDbMText
 10
114.25
 20
5.0
 30
0.0
 40
4.0
 41
0.0
 71
     5
 72
     1
  1
MARUYASU KIKAI CO.,LTD.
  7
CONVERTER_5
 73
     1
 44
1.32052821128451
  0
MTEXT
  5
5E
330
37
100
AcDbEntity
  8
1
 62
     2
100
AcDbMText
 10
6.0
 20
7.25
 30
0.0
 40
3.5
 41
0.0
 71
     5
 72
     1
  1
改訂
  7
CONVERTER_3
 73
     1
 44
0.78031212484994
  0
MTEXT
  5
5F
330
37
100
AcDbEntity
  8
1
 62
     2
100
AcDbMText
 10
39.0
 20
5.0
 30
0.0
 40
3.5
 41
0.0
 71
     5
 72
     1
  1
改　 訂　 記　 事
  7
CONVERTER_3
 73
     1
 44
1.32052821128451
  0
MTEXT
  5
60
330
37
100
AcDbEntity
  8
1
 62
     2
100
AcDbMText
 10
166.5
 20
7.25
 30
0.0
 40
3.5
 41
0.0
 71
     5
 72
     1
  1
尺
  7
CONVERTER_2
 73
     1
 44
0.78031212484994
  0
MTEXT
  5
61
330
37
100
AcDbEntity
  8
1
 62
     2
100
AcDbMText
 10
182.25
 20
17.5
 30
0.0
 40
3.5
 41
0.0
 71
     5
 72
     1
  1
年　　月　　日
  7
CONVERTER_3
 73
     1
 44
0.78031212484994
  0
MTEXT
  5
62
330
37
100
AcDbEntity
  8
1
 62
     2
100
AcDbMText
 10
289.0
 20
7.25
 30
0.0
 40
3.5
 41
0.0
 71
     5
 72
     1
  1
図面
  7
CONVERTER_2
 73
     1
 44
0.78031212484994
  0
MTEXT
  5
63
330
37
100
AcDbEntity
  8
1
 62
     2
100
AcDbMText
 10
289.0
 20
15.0
 30
0.0
 40
4.0
 41
0.0
 71
     5
 72
     1
  1
図名
  7
CONVERTER_3
 73
     1
 44
1.32052821128451
  0
MTEXT
  5
64
330
37
100
AcDbEntity
  8
1
 62
     4
100
AcDbMText
 10
393.4565543923691
 20
-0.25615332095569
 30
0.0
 40
2.0
 41
0.0
 71
     3
 72
     1
  1
A3
  7
CONVERTER_1
 73
     1
 44
1.32052821128451
  0
ENDBLK
  5
39
330
37
100
AcDbEntity
  8
0
100
AcDbBlockEnd
  0
BLOCK
  5
281
330
278
100
AcDbEntity
  8
0
100
AcDbBlockBegin
  2
*D02
 70
     1
 71
     0
 10
0.0
 20
0.0
 30
0.0
  3
*D02
  1

  0
LINE
  5
279
330
278
100
AcDbEntity
  8
1
  6
Continuous
 62
     2
100
AcDbLine
 10
27.47788908765671
 20
203.6402823973006
 30
0.0
 11
37.47788908765674
 21
203.6402823973006
 31
0.0
  0
LINE
  5
27A
330
278
100
AcDbEntity
  8
1
  6
Continuous
 62
     2
100
AcDbLine
 10
37.47788908765674
 20
216.1681463973006
 30
0.0
 11
37.47788908765674
 21
202.6402823973006
 31
0.0
  0
LINE
  5
27B
330
278
100
AcDbEntity
  8
1
  6
Continuous
 62
     2
100
AcDbLine
 10
27.47788908765671
 20
220.6402823973006
 30
0.0
 11
27.47788908765671
 21
202.6402823973006
 31
0.0
  0
LINE
  5
27C
330
278
100
AcDbEntity
  8
1
 62
     2
100
AcDbLine
 10
27.47788908765671
 20
203.6402823973006
 30
0.0
 11
30.67788908765671
 21
204.4977198130802
 31
0.0
  0
LINE
  5
27D
330
278
100
AcDbEntity
  8
1
 62
     2
100
AcDbLine
 10
27.47788908765671
 20
203.6402823973006
 30
0.0
 11
30.67788908765671
 21
202.782844981521
 31
0.0
  0
LINE
  5
27E
330
278
100
AcDbEntity
  8
1
 62
     2
100
AcDbLine
 10
37.47788908765674
 20
203.6402823973006
 30
0.0
 11
34.27788908765674
 21
202.782844981521
 31
0.0
  0
LINE
  5
27F
330
278
100
AcDbEntity
  8
1
 62
     2
100
AcDbLine
 10
37.47788908765674
 20
203.6402823973006
 30
0.0
 11
34.27788908765674
 21
204.4977198130802
 31
0.0
  0
MTEXT
  5
280
330
278
100
AcDbEntity
  8
1
 62
     2
100
AcDbMText
 10
30.39910554561714
 20
205.6636931404947
 30
0.0
 40
3.2
 41
0.0
 71
     7
 72
     1
  1
10
  7
CONVERTER_1
 11
0.9999999999970621
 21
2.424068405545307E-6
 31
0.0
 73
     1
 44
0.60024009603842
  0
ENDBLK
  5
282
330
278
100
AcDbEntity
  8
0
100
AcDbBlockEnd
  0
BLOCK
  5
284
330
283
100
AcDbEntity
  8
0
100
AcDbBlockBegin
  2
_Open30
 70
     0
 71
     0
 10
0.0
 20
0.0
 30
0.0
  3
_Open30
  1

  0
LINE
  5
286
330
283
100
AcDbEntity
  8
0
  6
ByBlock
 62
     0
370
    -2
100
AcDbLine
 10
-1.0
 20
0.267949
 30
0.0
 11
0.0
 21
0.0
 31
0.0
  0
LINE
  5
287
330
283
100
AcDbEntity
  8
0
  6
ByBlock
 62
     0
370
    -2
100
AcDbLine
 10
0.0
 20
0.0
 30
0.0
 11
-1.0
 21
-0.267949
 31
0.0
  0
LINE
  5
288
330
283
100
AcDbEntity
  8
0
  6
ByBlock
 62
     0
370
    -2
100
AcDbLine
 10
0.0
 20
0.0
 30
0.0
 11
-1.0
 21
0.0
 31
0.0
  0
ENDBLK
  5
285
330
283
100
AcDbEntity
  8
0
100
AcDbBlockEnd
  0
BLOCK
  5
294
330
28B
100
AcDbEntity
  8
0
100
AcDbBlockBegin
  2
*D14
 70
     1
 71
     0
 10
0.0
 20
0.0
 30
0.0
  3
*D14
  1

  0
LINE
  5
28C
330
28B
100
AcDbEntity
  8
1
  6
Continuous
 62
     2
100
AcDbLine
 10
15.47788908765671
 20
227.6402823973006
 30
0.0
 11
15.47788908765671
 21
215.6402823973006
 31
0.0
  0
LINE
  5
28D
330
28B
100
AcDbEntity
  8
1
  6
Continuous
 62
     2
100
AcDbLine
 10
32.47788908765674
 20
215.6402823973006
 30
0.0
 11
14.47788908765671
 21
215.6402823973006
 31
0.0
  0
LINE
  5
28E
330
28B
100
AcDbEntity
  8
1
  6
Continuous
 62
     2
100
AcDbLine
 10
32.47788908765674
 20
227.6402823973006
 30
0.0
 11
14.47788908765671
 21
227.6402823973006
 31
0.0
  0
LINE
  5
28F
330
28B
100
AcDbEntity
  8
1
 62
     2
100
AcDbLine
 10
15.47788908765671
 20
227.6402823973006
 30
0.0
 11
16.3353265034363
 21
224.4402823973006
 31
0.0
  0
LINE
  5
290
330
28B
100
AcDbEntity
  8
1
 62
     2
100
AcDbLine
 10
15.47788908765671
 20
227.6402823973006
 30
0.0
 11
14.62045167187712
 21
224.4402823973006
 31
0.0
  0
LINE
  5
291
330
28B
100
AcDbEntity
  8
1
 62
     2
100
AcDbLine
 10
15.47788908765671
 20
215.6402823973006
 30
0.0
 11
14.62045167187712
 21
218.8402823973005
 31
0.0
  0
LINE
  5
292
330
28B
100
AcDbEntity
  8
1
 62
     2
100
AcDbLine
 10
15.47788908765671
 20
215.6402823973006
 30
0.0
 11
16.3353265034363
 21
218.8402823973005
 31
0.0
  0
MTEXT
  5
293
330
28B
100
AcDbEntity
  8
1
 62
     2
100
AcDbMText
 10
12.59799642218213
 20
216.2612069548459
 30
0.0
 40
3.2
 41
0.0
 71
     7
 72
     1
  1
\C2;φ\C2;12
  7
CONVERTER_3
 11
0.0
 21
1.0
 31
0.0
 73
     1
 44
0.60024009603842
  0
ENDBLK
  5
295
330
28B
100
AcDbEntity
  8
0
100
AcDbBlockEnd
  0
BLOCK
  5
2A1
330
298
100
AcDbEntity
  8
0
100
AcDbBlockBegin
  2
*D25
 70
     1
 71
     0
 10
0.0
 20
0.0
 30
0.0
  3
*D25
  1

  0
LINE
  5
299
330
298
100
AcDbEntity
  8
1
  6
Continuous
 62
     2
100
AcDbLine
 10
128.392307692308
 20
193.1402823973006
 30
0.0
 11
128.392307692308
 21
250.1402823973006
 31
0.0
  0
LINE
  5
29A
330
298
100
AcDbEntity
  8
1
  6
Continuous
 62
     2
100
AcDbLine
 10
71.39084052433239
 20
250.1402823973006
 30
0.0
 11
129.392307692308
 21
250.1402823973006
 31
0.0
  0
LINE
  5
29B
330
298
100
AcDbEntity
  8
1
  6
Continuous
 62
     2
100
AcDbLine
 10
71.39084052433239
 20
193.1402823973006
 30
0.0
 11
129.392307692308
 21
193.1402823973006
 31
0.0
  0
LINE
  5
29C
330
298
100
AcDbEntity
  8
1
 62
     2
100
AcDbLine
 10
128.392307692308
 20
193.1402823973006
 30
0.0
 11
127.5348702765284
 21
196.3402823973006
 31
0.0
  0
LINE
  5
29D
330
298
100
AcDbEntity
  8
1
 62
     2
100
AcDbLine
 10
128.392307692308
 20
193.1402823973006
 30
0.0
 11
129.2497451080876
 21
196.3402823973006
 31
0.0
  0
LINE
  5
29E
330
298
100
AcDbEntity
  8
1
 62
     2
100
AcDbLine
 10
128.392307692308
 20
250.1402823973006
 30
0.0
 11
129.2497451080876
 21
246.9402823973006
 31
0.0
  0
LINE
  5
29F
330
298
100
AcDbEntity
  8
1
 62
     2
100
AcDbLine
 10
128.392307692308
 20
250.1402823973006
 30
0.0
 11
127.5348702765284
 21
246.9402823973006
 31
0.0
  0
MTEXT
  5
2A0
330
298
100
AcDbEntity
  8
1
 62
     2
100
AcDbMText
 10
127.692307692308
 20
215.8145046195228
 30
0.0
 40
3.2
 41
0.0
 71
     7
 72
     1
  1
\C2;φ\C2;57
  7
CONVERTER_3
 11
0.0
 21
1.0
 31
0.0
 73
     1
 44
0.60024009603842
  0
ENDBLK
  5
2A2
330
298
100
AcDbEntity
  8
0
100
AcDbBlockEnd
  0
BLOCK
  5
2AE
330
2A5
100
AcDbEntity
  8
0
100
AcDbBlockBegin
  2
*D36
 70
     1
 71
     0
 10
0.0
 20
0.0
 30
0.0
  3
*D36
  1

  0
LINE
  5
2A6
330
2A5
100
AcDbEntity
  8
1
  6
Continuous
 62
     2
100
AcDbLine
 10
380.097889087657
 20
203.6402823973006
 30
0.0
 11
370.0978890876569
 21
203.6402823973006
 31
0.0
  0
LINE
  5
2A7
330
2A5
100
AcDbEntity
  8
1
  6
Continuous
 62
     2
100
AcDbLine
 10
370.0978890876569
 20
216.1681463973006
 30
0.0
 11
370.0978890876569
 21
202.6402823973006
 31
0.0
  0
LINE
  5
2A8
330
2A5
100
AcDbEntity
  8
1
  6
Continuous
 62
     2
100
AcDbLine
 10
380.097889087657
 20
220.6402823973006
 30
0.0
 11
380.097889087657
 21
202.6402823973006
 31
0.0
  0
LINE
  5
2A9
330
2A5
100
AcDbEntity
  8
1
 62
     2
100
AcDbLine
 10
380.097889087657
 20
203.6402823973006
 30
0.0
 11
376.897889087657
 21
202.782844981521
 31
0.0
  0
LINE
  5
2AA
330
2A5
100
AcDbEntity
  8
1
 62
     2
100
AcDbLine
 10
380.097889087657
 20
203.6402823973006
 30
0.0
 11
376.897889087657
 21
204.4977198130802
 31
0.0
  0
LINE
  5
2AB
330
2A5
100
AcDbEntity
  8
1
 62
     2
100
AcDbLine
 10
370.0978890876569
 20
203.6402823973006
 30
0.0
 11
373.2978890876569
 21
204.4977198130802
 31
0.0
  0
LINE
  5
2AC
330
2A5
100
AcDbEntity
  8
1
 62
     2
100
AcDbLine
 10
370.0978890876569
 20
203.6402823973006
 30
0.0
 11
373.2978890876569
 21
202.782844981521
 31
0.0
  0
MTEXT
  5
2AD
330
2A5
100
AcDbEntity
  8
1
 62
     2
100
AcDbMText
 10
373.3366726296965
 20
205.6636931404947
 30
0.0
 40
3.2
 41
0.0
 71
     7
 72
     1
  1
10
  7
CONVERTER_1
 11
0.9999999999970621
 21
2.424068405545307E-6
 31
0.0
 73
     1
 44
0.60024009603842
  0
ENDBLK
  5
2AF
330
2A5
100
AcDbEntity
  8
0
100
AcDbBlockEnd
  0
BLOCK
  5
2BB
330
2B2
100
AcDbEntity
  8
0
100
AcDbBlockBegin
  2
*D47
 70
     1
 71
     0
 10
0.0
 20
0.0
 30
0.0
  3
*D47
  1

  0
LINE
  5
2B3
330
2B2
100
AcDbEntity
  8
1
  6
Continuous
 62
     2
100
AcDbLine
 10
358.0978890876569
 20
227.6402823973006
 30
0.0
 11
358.0978890876569
 21
215.6402823973006
 31
0.0
  0
LINE
  5
2B4
330
2B2
100
AcDbEntity
  8
1
  6
Continuous
 62
     2
100
AcDbLine
 10
373.0978890876568
 20
215.6402823973006
 30
0.0
 11
357.0978890876569
 21
215.6402823973006
 31
0.0
  0
LINE
  5
2B5
330
2B2
100
AcDbEntity
  8
1
  6
Continuous
 62
     2
100
AcDbLine
 10
373.0978890876568
 20
227.6402823973006
 30
0.0
 11
357.0978890876569
 21
227.6402823973006
 31
0.0
  0
LINE
  5
2B6
330
2B2
100
AcDbEntity
  8
1
 62
     2
100
AcDbLine
 10
358.0978890876569
 20
227.6402823973006
 30
0.0
 11
358.9553265034365
 21
224.4402823973006
 31
0.0
  0
LINE
  5
2B7
330
2B2
100
AcDbEntity
  8
1
 62
     2
100
AcDbLine
 10
358.0978890876569
 20
227.6402823973006
 30
0.0
 11
357.2404516718773
 21
224.4402823973006
 31
0.0
  0
LINE
  5
2B8
330
2B2
100
AcDbEntity
  8
1
 62
     2
100
AcDbLine
 10
358.0978890876569
 20
215.6402823973006
 30
0.0
 11
357.2404516718773
 21
218.8402823973006
 31
0.0
  0
LINE
  5
2B9
330
2B2
100
AcDbEntity
  8
1
 62
     2
100
AcDbLine
 10
358.0978890876569
 20
215.6402823973006
 30
0.0
 11
358.9553265034365
 21
218.8402823973006
 31
0.0
  0
MTEXT
  5
2BA
330
2B2
100
AcDbEntity
  8
1
 62
     2
100
AcDbMText
 10
357.0978890876569
 20
215.6654603160403
 30
0.0
 40
3.2
 41
0.0
 71
     7
 72
     1
  1
\C2;φ\C2;12
  7
CONVERTER_3
 11
0.0
 21
1.0
 31
0.0
 73
     1
 44
0.60024009603842
  0
ENDBLK
  5
2BC
330
2B2
100
AcDbEntity
  8
0
100
AcDbBlockEnd
  0
BLOCK
  5
2C8
330
2BF
100
AcDbEntity
  8
0
100
AcDbBlockBegin
  2
*D58
 70
     1
 71
     0
 10
0.0
 20
0.0
 30
0.0
  3
*D58
  1

  0
LINE
  5
2C0
330
2BF
100
AcDbEntity
  8
1
  6
Continuous
 62
     2
100
AcDbLine
 10
197.7958893098336
 20
94.2387199750721
 30
0.0
 11
197.7958893098336
 21
139.2387199750722
 31
0.0
  0
LINE
  5
2C1
330
2BF
100
AcDbEntity
  8
1
  6
Continuous
 62
     2
100
AcDbLine
 10
169.527812177003
 20
139.2387199750722
 30
0.0
 11
198.7958893098336
 21
139.2387199750722
 31
0.0
  0
LINE
  5
2C2
330
2BF
100
AcDbEntity
  8
1
  6
Continuous
 62
     2
100
AcDbLine
 10
182.7958893098332
 20
94.2387199750721
 30
0.0
 11
198.7958893098336
 21
94.2387199750721
 31
0.0
  0
LINE
  5
2C3
330
2BF
100
AcDbEntity
  8
1
 62
     2
100
AcDbLine
 10
197.7958893098336
 20
94.2387199750721
 30
0.0
 11
196.938451894054
 21
97.4387199750721
 31
0.0
  0
LINE
  5
2C4
330
2BF
100
AcDbEntity
  8
1
 62
     2
100
AcDbLine
 10
197.7958893098336
 20
94.2387199750721
 30
0.0
 11
198.6533267256132
 21
97.4387199750721
 31
0.0
  0
LINE
  5
2C5
330
2BF
100
AcDbEntity
  8
1
 62
     2
100
AcDbLine
 10
197.7958893098336
 20
139.2387199750722
 30
0.0
 11
198.6533267256132
 21
136.0387199750722
 31
0.0
  0
LINE
  5
2C6
330
2BF
100
AcDbEntity
  8
1
 62
     2
100
AcDbLine
 10
197.7958893098336
 20
139.2387199750722
 30
0.0
 11
196.938451894054
 21
136.0387199750722
 31
0.0
  0
MTEXT
  5
2C7
330
2BF
100
AcDbEntity
  8
1
 62
     2
100
AcDbMText
 10
196.7958893098336
 20
115.492155897662
 30
0.0
 40
3.2
 41
0.0
 71
     7
 72
     1
  1
45
  7
CONVERTER_1
 11
0.0
 21
1.0
 31
0.0
 73
     1
 44
0.60024009603842
  0
ENDBLK
  5
2C9
330
2BF
100
AcDbEntity
  8
0
100
AcDbBlockEnd
  0
BLOCK
  5
2D7
330
2CC
100
AcDbEntity
  8
0
100
AcDbBlockBegin
  2
*D69
 70
     1
 71
     0
 10
0.0
 20
0.0
 30
0.0
  3
*D69
  1

  0
LINE
  5
2CD
330
2CC
100
AcDbEntity
  8
1
  6
Continuous
 62
     2
100
AcDbLine
 10
225.1201600441724
 20
72.93871997507199
 30
0.0
 11
237.7930962133776
 21
72.93871997507199
 31
0.0
  0
LINE
  5
2CE
330
2CC
100
AcDbEntity
  8
1
  6
Continuous
 62
     2
100
AcDbLine
 10
237.7930962133776
 20
72.93871997507199
 30
0.0
 11
240.6930962133776
 21
72.93871997507199
 31
0.0
  0
LINE
  5
2CF
330
2CC
100
AcDbEntity
  8
1
  6
Continuous
 62
     2
100
AcDbLine
 10
240.6930962133776
 20
72.93871997507199
 30
0.0
 11
247.0930962133776
 21
72.93871997507199
 31
0.0
  0
LINE
  5
2D0
330
2CC
100
AcDbEntity
  8
1
  6
Continuous
 62
     2
100
AcDbLine
 10
240.6930962133776
 20
87.4387199750721
 30
0.0
 11
240.6930962133776
 21
71.93871997507199
 31
0.0
  0
LINE
  5
2D1
330
2CC
100
AcDbEntity
  8
1
  6
Continuous
 62
     2
100
AcDbLine
 10
237.7930962133776
 20
87.4387199750721
 30
0.0
 11
237.7930962133776
 21
71.93871997507199
 31
0.0
  0
LINE
  5
2D2
330
2CC
100
AcDbEntity
  8
1
 62
     2
100
AcDbLine
 10
237.7930962133776
 20
72.93871997507199
 30
0.0
 11
234.5930962133776
 21
72.0812825592924
 31
0.0
  0
LINE
  5
2D3
330
2CC
100
AcDbEntity
  8
1
 62
     2
100
AcDbLine
 10
237.7930962133776
 20
72.93871997507199
 30
0.0
 11
234.5930962133776
 21
73.79615739085159
 31
0.0
  0
LINE
  5
2D4
330
2CC
100
AcDbEntity
  8
1
 62
     2
100
AcDbLine
 10
240.6930962133776
 20
72.93871997507199
 30
0.0
 11
243.8930962133776
 21
73.79615739085158
 31
0.0
  0
LINE
  5
2D5
330
2CC
100
AcDbEntity
  8
1
 62
     2
100
AcDbLine
 10
240.6930962133776
 20
72.93871997507199
 30
0.0
 11
243.8930962133776
 21
72.0812825592924
 31
0.0
  0
MTEXT
  5
2D6
330
2CC
100
AcDbEntity
  8
1
 62
     2
100
AcDbMText
 10
223.783271155299
 20
74.82714246498661
 30
0.0
 40
3.2
 41
0.0
 71
     7
 72
     1
  1
\C2;ｔ\C2;2.9
  7
CONVERTER_3
 11
0.9999999999970621
 21
2.424068405545307E-6
 31
0.0
 73
     1
 44
0.60024009603842
  0
ENDBLK
  5
2D8
330
2CC
100
AcDbEntity
  8
0
100
AcDbBlockEnd
  0
BLOCK
  5
2E4
330
2DB
100
AcDbEntity
  8
0
100
AcDbBlockBegin
  2
*D710
 70
     1
 71
     0
 10
0.0
 20
0.0
 30
0.0
  3
*D710
  1

  0
LINE
  5
2DC
330
2DB
100
AcDbEntity
  8
1
  6
Continuous
 62
     2
100
AcDbLine
 10
217.1930962133776
 20
62.938719975072
 30
0.0
 11
240.6930962133776
 21
62.938719975072
 31
0.0
  0
LINE
  5
2DD
330
2DB
100
AcDbEntity
  8
1
  6
Continuous
 62
     2
100
AcDbLine
 10
240.6930962133776
 20
87.4387199750721
 30
0.0
 11
240.6930962133776
 21
61.938719975072
 31
0.0
  0
LINE
  5
2DE
330
2DB
100
AcDbEntity
  8
1
  6
Continuous
 62
     2
100
AcDbLine
 10
217.1930962133776
 20
89.438719975072
 30
0.0
 11
217.1930962133776
 21
61.938719975072
 31
0.0
  0
LINE
  5
2DF
330
2DB
100
AcDbEntity
  8
1
 62
     2
100
AcDbLine
 10
217.1930962133776
 20
62.938719975072
 30
0.0
 11
220.3930962133776
 21
63.7961573908516
 31
0.0
  0
LINE
  5
2E0
330
2DB
100
AcDbEntity
  8
1
 62
     2
100
AcDbLine
 10
217.1930962133776
 20
62.938719975072
 30
0.0
 11
220.3930962133776
 21
62.08128255929241
 31
0.0
  0
LINE
  5
2E1
330
2DB
100
AcDbEntity
  8
1
 62
     2
100
AcDbLine
 10
240.6930962133776
 20
62.938719975072
 30
0.0
 11
237.4930962133776
 21
62.08128255929241
 31
0.0
  0
LINE
  5
2E2
330
2DB
100
AcDbEntity
  8
1
 62
     2
100
AcDbLine
 10
240.6930962133776
 20
62.938719975072
 30
0.0
 11
237.4930962133776
 21
63.7961573908516
 31
0.0
  0
MTEXT
  5
2E3
330
2DB
100
AcDbEntity
  8
1
 62
     2
100
AcDbMText
 10
224.527486225023
 20
63.638719975072
 30
0.0
 40
3.2
 41
0.0
 71
     7
 72
     1
  1
23.5
  7
CONVERTER_1
 11
0.9999999999970621
 21
2.424068405545307E-6
 31
0.0
 73
     1
 44
0.60024009603842
  0
ENDBLK
  5
2E5
330
2DB
100
AcDbEntity
  8
0
100
AcDbBlockEnd
  0
BLOCK
  5
2F1
330
2E8
100
AcDbEntity
  8
0
100
AcDbBlockBegin
  2
*D811
 70
     1
 71
     0
 10
0.0
 20
0.0
 30
0.0
  3
*D811
  1

  0
LINE
  5
2E9
330
2E8
100
AcDbEntity
  8
1
  6
Continuous
 62
     2
100
AcDbLine
 10
135.7958893098332
 20
62.738719975072
 30
0.0
 11
185.7958893098336
 21
62.738719975072
 31
0.0
  0
LINE
  5
2EA
330
2E8
100
AcDbEntity
  8
1
  6
Continuous
 62
     2
100
AcDbLine
 10
185.7958893098336
 20
92.2387199750721
 30
0.0
 11
185.7958893098336
 21
61.738719975072
 31
0.0
  0
LINE
  5
2EB
330
2E8
100
AcDbEntity
  8
1
  6
Continuous
 62
     2
100
AcDbLine
 10
135.7958893098332
 20
92.2387199750721
 30
0.0
 11
135.7958893098332
 21
61.738719975072
 31
0.0
  0
LINE
  5
2EC
330
2E8
100
AcDbEntity
  8
1
 62
     2
100
AcDbLine
 10
135.7958893098332
 20
62.738719975072
 30
0.0
 11
138.9958893098332
 21
63.59615739085159
 31
0.0
  0
LINE
  5
2ED
330
2E8
100
AcDbEntity
  8
1
 62
     2
100
AcDbLine
 10
135.7958893098332
 20
62.738719975072
 30
0.0
 11
138.9958893098332
 21
61.88128255929241
 31
0.0
  0
LINE
  5
2EE
330
2E8
100
AcDbEntity
  8
1
 62
     2
100
AcDbLine
 10
185.7958893098336
 20
62.738719975072
 30
0.0
 11
182.5958893098336
 21
61.88128255929241
 31
0.0
  0
LINE
  5
2EF
330
2E8
100
AcDbEntity
  8
1
 62
     2
100
AcDbLine
 10
185.7958893098336
 20
62.738719975072
 30
0.0
 11
182.5958893098336
 21
63.59615739085159
 31
0.0
  0
MTEXT
  5
2F0
330
2E8
100
AcDbEntity
  8
1
 62
     2
100
AcDbMText
 10
157.270276810676
 20
63.438719975072
 30
0.0
 40
3.2
 41
0.0
 71
     7
 72
     1
  1
50
  7
CONVERTER_1
 11
0.9999999999970621
 21
2.424068405545307E-6
 31
0.0
 73
     1
 44
0.60024009603842
  0
ENDBLK
  5
2F2
330
2E8
100
AcDbEntity
  8
0
100
AcDbBlockEnd
  0
BLOCK
  5
2FE
330
2F5
100
AcDbEntity
  8
0
100
AcDbBlockBegin
  2
*D912
 70
     1
 71
     0
 10
0.0
 20
0.0
 30
0.0
  3
*D912
  1

  0
LINE
  5
2F6
330
2F5
100
AcDbEntity
  8
1
  6
Continuous
 62
     2
100
AcDbLine
 10
143.7958893098332
 20
72.738719975072
 30
0.0
 11
177.7958893098332
 21
72.738719975072
 31
0.0
  0
LINE
  5
2F7
330
2F5
100
AcDbEntity
  8
1
  6
Continuous
 62
     2
100
AcDbLine
 10
177.7958893098332
 20
89.2387199750721
 30
0.0
 11
177.7958893098332
 21
71.738719975072
 31
0.0
  0
LINE
  5
2F8
330
2F5
100
AcDbEntity
  8
1
  6
Continuous
 62
     2
100
AcDbLine
 10
143.7958893098332
 20
89.2387199750721
 30
0.0
 11
143.7958893098332
 21
71.738719975072
 31
0.0
  0
LINE
  5
2F9
330
2F5
100
AcDbEntity
  8
1
 62
     2
100
AcDbLine
 10
143.7958893098332
 20
72.738719975072
 30
0.0
 11
146.9958893098332
 21
73.59615739085159
 31
0.0
  0
LINE
  5
2FA
330
2F5
100
AcDbEntity
  8
1
 62
     2
100
AcDbLine
 10
143.7958893098332
 20
72.738719975072
 30
0.0
 11
146.9958893098332
 21
71.88128255929242
 31
0.0
  0
LINE
  5
2FB
330
2F5
100
AcDbEntity
  8
1
 62
     2
100
AcDbLine
 10
177.7958893098332
 20
72.738719975072
 30
0.0
 11
174.5958893098332
 21
71.88128255929242
 31
0.0
  0
LINE
  5
2FC
330
2F5
100
AcDbEntity
  8
1
 62
     2
100
AcDbLine
 10
177.7958893098332
 20
72.738719975072
 30
0.0
 11
174.5958893098332
 21
73.5961573908516
 31
0.0
  0
MTEXT
  5
2FD
330
2F5
100
AcDbEntity
  8
1
 62
     2
100
AcDbMText
 10
158.106506364452
 20
73.438719975072
 30
0.0
 40
3.2
 41
0.0
 71
     7
 72
     1
  1
34
  7
CONVERTER_1
 11
0.9999999999970621
 21
2.424068405545307E-6
 31
0.0
 73
     1
 44
0.60024009603842
  0
ENDBLK
  5
2FF
330
2F5
100
AcDbEntity
  8
0
100
AcDbBlockEnd
  0
BLOCK
  5
30B
330
302
100
AcDbEntity
  8
0
100
AcDbBlockBegin
  2
*D1013
 70
     1
 71
     0
 10
0.0
 20
0.0
 30
0.0
  3
*D1013
  1

  0
LINE
  5
303
330
302
100
AcDbEntity
  8
1
  6
Continuous
 62
     2
100
AcDbLine
 10
113.7958893098332
 20
84.73871997507199
 30
0.0
 11
113.7958893098332
 21
149.2387199750722
 31
0.0
  0
LINE
  5
304
330
302
100
AcDbEntity
  8
1
  6
Continuous
 62
     2
100
AcDbLine
 10
144.7958893098332
 20
149.2387199750722
 30
0.0
 11
112.7958893098332
 21
149.2387199750722
 31
0.0
  0
LINE
  5
305
330
302
100
AcDbEntity
  8
1
  6
Continuous
 62
     2
100
AcDbLine
 10
146.5458893098331
 20
84.73871997507199
 30
0.0
 11
112.7958893098332
 21
84.73871997507199
 31
0.0
  0
LINE
  5
306
330
302
100
AcDbEntity
  8
1
 62
     2
100
AcDbLine
 10
113.7958893098332
 20
84.73871997507199
 30
0.0
 11
112.9384518940536
 21
87.93871997507199
 31
0.0
  0
LINE
  5
307
330
302
100
AcDbEntity
  8
1
 62
     2
100
AcDbLine
 10
113.7958893098332
 20
84.73871997507199
 30
0.0
 11
114.6533267256128
 21
87.93871997507199
 31
0.0
  0
LINE
  5
308
330
302
100
AcDbEntity
  8
1
 62
     2
100
AcDbLine
 10
113.7958893098332
 20
149.2387199750722
 30
0.0
 11
114.6533267256128
 21
146.0387199750722
 31
0.0
  0
LINE
  5
309
330
302
100
AcDbEntity
  8
1
 62
     2
100
AcDbLine
 10
113.7958893098332
 20
149.2387199750722
 30
0.0
 11
112.9384518940536
 21
146.0387199750722
 31
0.0
  0
MTEXT
  5
30A
330
302
100
AcDbEntity
  8
1
 62
     2
100
AcDbMText
 10
112.6158893098332
 20
111.981529779594
 30
0.0
 40
3.2
 41
0.0
 71
     7
 72
     1
  1
64.5
  7
CONVERTER_1
 11
0.0
 21
1.0
 31
0.0
 73
     1
 44
0.60024009603842
  0
ENDBLK
  5
30C
330
302
100
AcDbEntity
  8
0
100
AcDbBlockEnd
  0
BLOCK
  5
318
330
30F
100
AcDbEntity
  8
0
100
AcDbBlockBegin
  2
*D1114
 70
     1
 71
     0
 10
0.0
 20
0.0
 30
0.0
  3
*D1114
  1

  0
LINE
  5
310
330
30F
100
AcDbEntity
  8
1
  6
Continuous
 62
     2
100
AcDbLine
 10
50.39084052433241
 20
181.1402823973006
 30
0.0
 11
65.39084052433239
 21
181.1402823973006
 31
0.0
  0
LINE
  5
311
330
30F
100
AcDbEntity
  8
1
  6
Continuous
 62
     2
100
AcDbLine
 10
65.39084052433239
 20
211.6402823973006
 30
0.0
 11
65.39084052433239
 21
180.1402823973006
 31
0.0
  0
LINE
  5
312
330
30F
100
AcDbEntity
  8
1
  6
Continuous
 62
     2
100
AcDbLine
 10
50.39084052433241
 20
215.6402823973006
 30
0.0
 11
50.39084052433241
 21
180.1402823973006
 31
0.0
  0
LINE
  5
313
330
30F
100
AcDbEntity
  8
1
 62
     2
100
AcDbLine
 10
50.39084052433241
 20
181.1402823973006
 30
0.0
 11
53.59084052433241
 21
181.9977198130802
 31
0.0
  0
LINE
  5
314
330
30F
100
AcDbEntity
  8
1
 62
     2
100
AcDbLine
 10
50.39084052433241
 20
181.1402823973006
 30
0.0
 11
53.59084052433241
 21
180.282844981521
 31
0.0
  0
LINE
  5
315
330
30F
100
AcDbEntity
  8
1
 62
     2
100
AcDbLine
 10
65.39084052433239
 20
181.1402823973006
 30
0.0
 11
62.19084052433239
 21
180.282844981521
 31
0.0
  0
LINE
  5
316
330
30F
100
AcDbEntity
  8
1
 62
     2
100
AcDbLine
 10
65.39084052433239
 20
181.1402823973006
 30
0.0
 11
62.19084052433239
 21
181.9977198130802
 31
0.0
  0
MTEXT
  5
317
330
30F
100
AcDbEntity
  8
1
 62
     2
100
AcDbMText
 10
53.6201360930219
 20
181.8402823973006
 30
0.0
 40
3.2
 41
0.0
 71
     7
 72
     1
  1
15
  7
CONVERTER_1
 11
0.9999999999970621
 21
2.424068405545307E-6
 31
0.0
 73
     1
 44
0.60024009603842
  0
ENDBLK
  5
319
330
30F
100
AcDbEntity
  8
0
100
AcDbBlockEnd
  0
BLOCK
  5
325
330
31C
100
AcDbEntity
  8
0
100
AcDbBlockBegin
  2
*D1215
 70
     1
 71
     0
 10
0.0
 20
0.0
 30
0.0
  3
*D1215
  1

  0
LINE
  5
31D
330
31C
100
AcDbEntity
  8
1
  6
Continuous
 62
     2
100
AcDbLine
 10
292.3908405243325
 20
181.1402823973006
 30
0.0
 11
342.3908405243325
 21
181.1402823973006
 31
0.0
  0
LINE
  5
31E
330
31C
100
AcDbEntity
  8
1
  6
Continuous
 62
     2
100
AcDbLine
 10
342.3908405243325
 20
219.1402823973006
 30
0.0
 11
342.3908405243325
 21
180.1402823973006
 31
0.0
  0
LINE
  5
31F
330
31C
100
AcDbEntity
  8
1
  6
Continuous
 62
     2
100
AcDbLine
 10
292.3908405243325
 20
215.6402823973006
 30
0.0
 11
292.3908405243325
 21
180.1402823973006
 31
0.0
  0
LINE
  5
320
330
31C
100
AcDbEntity
  8
1
 62
     2
100
AcDbLine
 10
292.3908405243325
 20
181.1402823973006
 30
0.0
 11
295.5908405243325
 21
181.9977198130802
 31
0.0
  0
LINE
  5
321
330
31C
100
AcDbEntity
  8
1
 62
     2
100
AcDbLine
 10
292.3908405243325
 20
181.1402823973006
 30
0.0
 11
295.5908405243325
 21
180.282844981521
 31
0.0
  0
LINE
  5
322
330
31C
100
AcDbEntity
  8
1
 62
     2
100
AcDbLine
 10
342.3908405243325
 20
181.1402823973006
 30
0.0
 11
339.1908405243325
 21
180.282844981521
 31
0.0
  0
LINE
  5
323
330
31C
100
AcDbEntity
  8
1
 62
     2
100
AcDbLine
 10
342.3908405243325
 20
181.1402823973006
 30
0.0
 11
339.1908405243325
 21
181.9977198130802
 31
0.0
  0
MTEXT
  5
324
330
31C
100
AcDbEntity
  8
1
 62
     2
100
AcDbMText
 10
314.9908405243325
 20
181.8402823973006
 30
0.0
 40
3.2
 41
0.0
 71
     7
 72
     1
  1
50
  7
CONVERTER_1
 11
0.9999999999970621
 21
2.424068405545307E-6
 31
0.0
 73
     1
 44
0.60024009603842
  0
ENDBLK
  5
326
330
31C
100
AcDbEntity
  8
0
100
AcDbBlockEnd
  0
BLOCK
  5
332
330
329
100
AcDbEntity
  8
0
100
AcDbBlockBegin
  2
*D1316
 70
     1
 71
     0
 10
0.0
 20
0.0
 30
0.0
  3
*D1316
  1

  0
LINE
  5
32A
330
329
100
AcDbEntity
  8
1
  6
Continuous
 62
     2
100
AcDbLine
 10
275.3908405243325
 20
181.1402823973006
 30
0.0
 11
292.3908405243325
 21
181.1402823973006
 31
0.0
  0
LINE
  5
32B
330
329
100
AcDbEntity
  8
1
  6
Continuous
 62
     2
100
AcDbLine
 10
292.3908405243325
 20
215.6402823973006
 30
0.0
 11
292.3908405243325
 21
180.1402823973006
 31
0.0
  0
LINE
  5
32C
330
329
100
AcDbEntity
  8
1
  6
Continuous
 62
     2
100
AcDbLine
 10
275.3908405243325
 20
211.6402823973006
 30
0.0
 11
275.3908405243325
 21
180.1402823973006
 31
0.0
  0
LINE
  5
32D
330
329
100
AcDbEntity
  8
1
 62
     2
100
AcDbLine
 10
275.3908405243325
 20
181.1402823973006
 30
0.0
 11
278.5908405243325
 21
181.9977198130802
 31
0.0
  0
LINE
  5
32E
330
329
100
AcDbEntity
  8
1
 62
     2
100
AcDbLine
 10
275.3908405243325
 20
181.1402823973006
 30
0.0
 11
278.5908405243325
 21
180.282844981521
 31
0.0
  0
LINE
  5
32F
330
329
100
AcDbEntity
  8
1
 62
     2
100
AcDbLine
 10
292.3908405243325
 20
181.1402823973006
 30
0.0
 11
289.1908405243325
 21
180.282844981521
 31
0.0
  0
LINE
  5
330
330
329
100
AcDbEntity
  8
1
 62
     2
100
AcDbLine
 10
292.3908405243325
 20
181.1402823973006
 30
0.0
 11
289.1908405243325
 21
181.9977198130802
 31
0.0
  0
MTEXT
  5
331
330
329
100
AcDbEntity
  8
1
 62
     2
100
AcDbMText
 10
281.9708405243325
 20
181.8402823973006
 30
0.0
 40
3.2
 41
0.0
 71
     7
 72
     1
  1
17
  7
CONVERTER_1
 11
0.9999999999970621
 21
2.424068405545307E-6
 31
0.0
 73
     1
 44
0.60024009603842
  0
ENDBLK
  5
333
330
329
100
AcDbEntity
  8
0
100
AcDbBlockEnd
  0
BLOCK
  5
341
330
336
100
AcDbEntity
  8
0
100
AcDbBlockBegin
  2
*D1417
 70
     1
 71
     0
 10
0.0
 20
0.0
 30
0.0
  3
*D1417
  1

  0
LINE
  5
337
330
336
100
AcDbEntity
  8
1
  6
Continuous
 62
     2
100
AcDbLine
 10
263.9908405243325
 20
181.1402823973006
 30
0.0
 11
270.3908405243325
 21
181.1402823973006
 31
0.0
  0
LINE
  5
338
330
336
100
AcDbEntity
  8
1
  6
Continuous
 62
     2
100
AcDbLine
 10
270.3908405243325
 20
181.1402823973006
 30
0.0
 11
275.3908405243325
 21
181.1402823973006
 31
0.0
  0
LINE
  5
339
330
336
100
AcDbEntity
  8
1
  6
Continuous
 62
     2
100
AcDbLine
 10
275.3908405243325
 20
181.1402823973006
 30
0.0
 11
281.7908405243325
 21
181.1402823973006
 31
0.0
  0
LINE
  5
33A
330
336
100
AcDbEntity
  8
1
  6
Continuous
 62
     2
100
AcDbLine
 10
275.3908405243325
 20
211.6402823973006
 30
0.0
 11
275.3908405243325
 21
180.1402823973006
 31
0.0
  0
LINE
  5
33B
330
336
100
AcDbEntity
  8
1
  6
Continuous
 62
     2
100
AcDbLine
 10
270.3908405243325
 20
192.1402823973006
 30
0.0
 11
270.3908405243325
 21
180.1402823973006
 31
0.0
  0
LINE
  5
33C
330
336
100
AcDbEntity
  8
1
 62
     2
100
AcDbLine
 10
270.3908405243325
 20
181.1402823973006
 30
0.0
 11
267.1908405243325
 21
180.282844981521
 31
0.0
  0
LINE
  5
33D
330
336
100
AcDbEntity
  8
1
 62
     2
100
AcDbLine
 10
270.3908405243325
 20
181.1402823973006
 30
0.0
 11
267.1908405243325
 21
181.9977198130802
 31
0.0
  0
LINE
  5
33E
330
336
100
AcDbEntity
  8
1
 62
     2
100
AcDbLine
 10
275.3908405243325
 20
181.1402823973006
 30
0.0
 11
278.5908405243325
 21
181.9977198130802
 31
0.0
  0
LINE
  5
33F
330
336
100
AcDbEntity
  8
1
 62
     2
100
AcDbLine
 10
275.3908405243325
 20
181.1402823973006
 30
0.0
 11
278.5908405243325
 21
180.282844981521
 31
0.0
  0
MTEXT
  5
340
330
336
100
AcDbEntity
  8
1
 62
     2
100
AcDbMText
 10
271.9308405243325
 20
181.8402823973006
 30
0.0
 40
3.2
 41
0.0
 71
     7
 72
     1
  1
5
  7
CONVERTER_1
 11
0.9999999999970621
 21
2.424068405545307E-6
 31
0.0
 73
     1
 44
0.60024009603842
  0
ENDBLK
  5
342
330
336
100
AcDbEntity
  8
0
100
AcDbBlockEnd
  0
BLOCK
  5
34E
330
345
100
AcDbEntity
  8
0
100
AcDbBlockBegin
  2
*D1518
 70
     1
 71
     0
 10
0.0
 20
0.0
 30
0.0
  3
*D1518
  1

  0
LINE
  5
346
330
345
100
AcDbEntity
  8
1
  6
Continuous
 62
     2
100
AcDbLine
 10
70.39084052433239
 20
181.1402823973006
 30
0.0
 11
270.3908405243325
 21
181.1402823973006
 31
0.0
  0
LINE
  5
347
330
345
100
AcDbEntity
  8
1
  6
Continuous
 62
     2
100
AcDbLine
 10
70.39084052433239
 20
192.1402823973006
 30
0.0
 11
70.39084052433239
 21
180.1402823973006
 31
0.0
  0
LINE
  5
348
330
345
100
AcDbEntity
  8
1
  6
Continuous
 62
     2
100
AcDbLine
 10
270.3908405243325
 20
192.1402823973006
 30
0.0
 11
270.3908405243325
 21
180.1402823973006
 31
0.0
  0
LINE
  5
349
330
345
100
AcDbEntity
  8
1
 62
     2
100
AcDbLine
 10
70.39084052433239
 20
181.1402823973006
 30
0.0
 11
73.59084052433239
 21
181.9977198130802
 31
0.0
  0
LINE
  5
34A
330
345
100
AcDbEntity
  8
1
 62
     2
100
AcDbLine
 10
70.39084052433239
 20
181.1402823973006
 30
0.0
 11
73.59084052433239
 21
180.282844981521
 31
0.0
  0
LINE
  5
34B
330
345
100
AcDbEntity
  8
1
 62
     2
100
AcDbLine
 10
270.3908405243325
 20
181.1402823973006
 30
0.0
 11
267.1908405243325
 21
180.282844981521
 31
0.0
  0
LINE
  5
34C
330
345
100
AcDbEntity
  8
1
 62
     2
100
AcDbLine
 10
270.3908405243325
 20
181.1402823973006
 30
0.0
 11
267.1908405243325
 21
181.9977198130802
 31
0.0
  0
MTEXT
  5
34D
330
345
100
AcDbEntity
  8
1
 62
     2
100
AcDbMText
 10
156.2308405243324
 20
181.8402823973006
 30
0.0
 40
3.2
 41
0.0
 71
     7
 72
     1
  1
\C2;200\C2;　(ローラ幅）
  7
CONVERTER_3
 11
0.9999999999970621
 21
2.424068405545307E-6
 31
0.0
 73
     1
 44
0.60024009603842
  0
ENDBLK
  5
34F
330
345
100
AcDbEntity
  8
0
100
AcDbBlockEnd
  0
BLOCK
  5
35D
330
352
100
AcDbEntity
  8
0
100
AcDbBlockBegin
  2
*D1619
 70
     1
 71
     0
 10
0.0
 20
0.0
 30
0.0
  3
*D1619
  1

  0
LINE
  5
353
330
352
100
AcDbEntity
  8
1
  6
Continuous
 62
     2
100
AcDbLine
 10
58.99084052433239
 20
181.1402823973006
 30
0.0
 11
65.39084052433239
 21
181.1402823973006
 31
0.0
  0
LINE
  5
354
330
352
100
AcDbEntity
  8
1
  6
Continuous
 62
     2
100
AcDbLine
 10
65.39084052433239
 20
181.1402823973006
 30
0.0
 11
70.39084052433239
 21
181.1402823973006
 31
0.0
  0
LINE
  5
355
330
352
100
AcDbEntity
  8
1
  6
Continuous
 62
     2
100
AcDbLine
 10
70.39084052433239
 20
181.1402823973006
 30
0.0
 11
76.7908405243324
 21
181.1402823973006
 31
0.0
  0
LINE
  5
356
330
352
100
AcDbEntity
  8
1
  6
Continuous
 62
     2
100
AcDbLine
 10
70.39084052433239
 20
192.1402823973006
 30
0.0
 11
70.39084052433239
 21
180.1402823973006
 31
0.0
  0
LINE
  5
357
330
352
100
AcDbEntity
  8
1
  6
Continuous
 62
     2
100
AcDbLine
 10
65.39084052433239
 20
211.6402823973006
 30
0.0
 11
65.39084052433239
 21
180.1402823973006
 31
0.0
  0
LINE
  5
358
330
352
100
AcDbEntity
  8
1
 62
     2
100
AcDbLine
 10
65.39084052433239
 20
181.1402823973006
 30
0.0
 11
62.19084052433239
 21
180.282844981521
 31
0.0
  0
LINE
  5
359
330
352
100
AcDbEntity
  8
1
 62
     2
100
AcDbLine
 10
65.39084052433239
 20
181.1402823973006
 30
0.0
 11
62.19084052433239
 21
181.9977198130802
 31
0.0
  0
LINE
  5
35A
330
352
100
AcDbEntity
  8
1
 62
     2
100
AcDbLine
 10
70.39084052433239
 20
181.1402823973006
 30
0.0
 11
73.59084052433239
 21
181.9977198130802
 31
0.0
  0
LINE
  5
35B
330
352
100
AcDbEntity
  8
1
 62
     2
100
AcDbLine
 10
70.39084052433239
 20
181.1402823973006
 30
0.0
 11
73.59084052433239
 21
180.282844981521
 31
0.0
  0
MTEXT
  5
35C
330
352
100
AcDbEntity
  8
1
 62
     2
100
AcDbMText
 10
66.9308405243324
 20
181.8402823973006
 30
0.0
 40
3.2
 41
0.0
 71
     7
 72
     1
  1
5
  7
CONVERTER_1
 11
0.9999999999970621
 21
2.424068405545307E-6
 31
0.0
 73
     1
 44
0.60024009603842
  0
ENDBLK
  5
35E
330
352
100
AcDbEntity
  8
0
100
AcDbBlockEnd
  0
BLOCK
  5
36A
330
361
100
AcDbEntity
  8
0
100
AcDbBlockBegin
  2
*D1720
 70
     1
 71
     0
 10
0.0
 20
0.0
 30
0.0
  3
*D1720
  1

  0
LINE
  5
362
330
361
100
AcDbEntity
  8
1
  6
Continuous
 62
     2
100
AcDbLine
 10
123.7958893098332
 20
84.738719975072
 30
0.0
 11
123.7958893098332
 21
139.2387199750722
 31
0.0
  0
LINE
  5
363
330
361
100
AcDbEntity
  8
1
  6
Continuous
 62
     2
100
AcDbLine
 10
152.115633144304
 20
139.2387199750722
 30
0.0
 11
122.7958893098332
 21
139.2387199750722
 31
0.0
  0
LINE
  5
364
330
361
100
AcDbEntity
  8
1
  6
Continuous
 62
     2
100
AcDbLine
 10
146.5458893098331
 20
84.738719975072
 30
0.0
 11
122.7958893098332
 21
84.738719975072
 31
0.0
  0
LINE
  5
365
330
361
100
AcDbEntity
  8
1
 62
     2
100
AcDbLine
 10
123.7958893098332
 20
84.738719975072
 30
0.0
 11
122.9384518940536
 21
87.938719975072
 31
0.0
  0
LINE
  5
366
330
361
100
AcDbEntity
  8
1
 62
     2
100
AcDbLine
 10
123.7958893098332
 20
84.738719975072
 30
0.0
 11
124.6533267256128
 21
87.938719975072
 31
0.0
  0
LINE
  5
367
330
361
100
AcDbEntity
  8
1
 62
     2
100
AcDbLine
 10
123.7958893098332
 20
139.2387199750722
 30
0.0
 11
124.6533267256128
 21
136.0387199750722
 31
0.0
  0
LINE
  5
368
330
361
100
AcDbEntity
  8
1
 62
     2
100
AcDbLine
 10
123.7958893098332
 20
139.2387199750722
 30
0.0
 11
122.9384518940536
 21
136.0387199750722
 31
0.0
  0
MTEXT
  5
369
330
361
100
AcDbEntity
  8
1
 62
     2
100
AcDbMText
 10
123.0958893098332
 20
106.166681836839
 30
0.0
 40
3.2
 41
0.0
 71
     7
 72
     1
  1
54.5
  7
CONVERTER_1
 11
0.0
 21
1.0
 31
0.0
 73
     1
 44
0.60024009603842
  0
ENDBLK
  5
36B
330
361
100
AcDbEntity
  8
0
100
AcDbBlockEnd
  0
BLOCK
  5
377
330
36E
100
AcDbEntity
  8
0
100
AcDbBlockBegin
  2
*D1821
 70
     1
 71
     0
 10
0.0
 20
0.0
 30
0.0
  3
*D1821
  1

  0
LINE
  5
36F
330
36E
100
AcDbEntity
  8
1
  6
Continuous
 62
     2
100
AcDbLine
 10
123.7958893098332
 20
139.2387199750722
 30
0.0
 11
123.7958893098332
 21
149.2387199750722
 31
0.0
  0
LINE
  5
370
330
36E
100
AcDbEntity
  8
1
  6
Continuous
 62
     2
100
AcDbLine
 10
144.7958893098332
 20
149.2387199750722
 30
0.0
 11
122.7958893098332
 21
149.2387199750722
 31
0.0
  0
LINE
  5
371
330
36E
100
AcDbEntity
  8
1
  6
Continuous
 62
     2
100
AcDbLine
 10
152.115633144304
 20
139.2387199750722
 30
0.0
 11
122.7958893098332
 21
139.2387199750722
 31
0.0
  0
LINE
  5
372
330
36E
100
AcDbEntity
  8
1
 62
     2
100
AcDbLine
 10
123.7958893098332
 20
139.2387199750722
 30
0.0
 11
122.9384518940536
 21
142.4387199750722
 31
0.0
  0
LINE
  5
373
330
36E
100
AcDbEntity
  8
1
 62
     2
100
AcDbLine
 10
123.7958893098332
 20
139.2387199750722
 30
0.0
 11
124.6533267256128
 21
142.4387199750722
 31
0.0
  0
LINE
  5
374
330
36E
100
AcDbEntity
  8
1
 62
     2
100
AcDbLine
 10
123.7958893098332
 20
149.2387199750722
 30
0.0
 11
124.6533267256128
 21
146.0387199750722
 31
0.0
  0
LINE
  5
375
330
36E
100
AcDbEntity
  8
1
 62
     2
100
AcDbLine
 10
123.7958893098332
 20
149.2387199750722
 30
0.0
 11
122.9384518940536
 21
146.0387199750722
 31
0.0
  0
MTEXT
  5
376
330
36E
100
AcDbEntity
  8
1
 62
     2
100
AcDbMText
 10
123.0958893098332
 20
141.557486845783
 30
0.0
 40
3.2
 41
0.0
 71
     7
 72
     1
  1
10
  7
CONVERTER_1
 11
0.0
 21
1.0
 31
0.0
 73
     1
 44
0.60024009603842
  0
ENDBLK
  5
378
330
36E
100
AcDbEntity
  8
0
100
AcDbBlockEnd
  0
BLOCK
  5
381
330
37B
100
AcDbEntity
  8
0
100
AcDbBlockBegin
  2
*D1922
 70
     1
 71
     0
 10
0.0
 20
0.0
 30
0.0
  3
*D1922
  1

  0
LINE
  5
37C
330
37B
100
AcDbEntity
  8
1
  6
Continuous
 62
     2
100
AcDbLine
 10
142.0762056402212
 20
92.22248881856505
 30
0.0
 11
125.4581115320554
 21
72.738719975072
 31
0.0
  0
LINE
  5
37D
330
37B
100
AcDbEntity
  8
1
  6
Continuous
 62
     2
100
AcDbLine
 10
125.4581115320554
 20
72.738719975072
 30
0.0
 11
106.333667087611
 21
72.738719975072
 31
0.0
  0
LINE
  5
37E
330
37B
100
AcDbEntity
  8
1
 62
     2
100
AcDbLine
 10
142.0762056402212
 20
92.22248881856505
 30
0.0
 11
140.6519808438783
 21
89.23137152707332
 31
0.0
  0
LINE
  5
37F
330
37B
100
AcDbEntity
  8
1
 62
     2
100
AcDbLine
 10
142.0762056402212
 20
92.22248881856505
 30
0.0
 11
139.3472321401427
 21
90.34421765660575
 31
0.0
  0
MTEXT
  5
380
330
37B
100
AcDbEntity
  8
1
 62
     2
100
AcDbMText
 10
104.9221115320863
 20
73.43869453205002
 30
0.0
 40
3.2
 41
0.0
 71
     7
 72
     1
  1
\C2;2-φ\C2;5.3
  7
CONVERTER_3
 11
0.9999999999970621
 21
2.424068405545307E-6
 31
0.0
 73
     1
 44
0.60024009603842
  0
ENDBLK
  5
382
330
37B
100
AcDbEntity
  8
0
100
AcDbBlockEnd
  0
ENDSEC
  0
SECTION
  2
ENTITIES
  0
INSERT
  5
3A
330
1F
100
AcDbEntity
  8
0
100
AcDbBlockReference
  2
Zuwaku-A3-web
 10
196.9999999999998
 20
134.0
 30
0.0
  0
LINE
  5
65
330
1F
100
AcDbEntity
  8
1
  6
Continuous
 62
     7
100
AcDbLine
 10
333.1708405243325
 20
220.1402823973006
 30
0.0
 11
342.3908405243325
 21
220.1402823973006
 31
0.0
  0
LINE
  5
66
330
1F
100
AcDbEntity
  8
1
  6
Continuous
 62
     7
100
AcDbLine
 10
333.1708405243325
 20
221.6402823973006
 30
0.0
 11
342.3908405243325
 21
221.6402823973006
 31
0.0
  0
LINE
  5
67
330
1F
100
AcDbEntity
  8
1
  6
Continuous
 62
     7
100
AcDbLine
 10
333.1708405243325
 20
223.1402823973006
 30
0.0
 11
342.3908405243325
 21
223.1402823973006
 31
0.0
  0
LINE
  5
68
330
1F
100
AcDbEntity
  8
1
  6
Continuous
 62
     7
100
AcDbLine
 10
294.6108405243325
 20
219.3902823973006
 30
0.0
 11
333.1708405243325
 21
219.3902823973006
 31
0.0
  0
LINE
  5
69
330
1F
100
AcDbEntity
  8
1
  6
Continuous
 62
     7
100
AcDbLine
 10
294.6108405243325
 20
220.8902823973006
 30
0.0
 11
333.1708405243325
 21
220.8902823973006
 31
0.0
  0
LINE
  5
6A
330
1F
100
AcDbEntity
  8
1
  6
Continuous
 62
     7
100
AcDbLine
 10
294.6108405243325
 20
222.3902823973006
 30
0.0
 11
333.1708405243325
 21
222.3902823973006
 31
0.0
  0
LINE
  5
6B
330
1F
100
AcDbEntity
  8
1
  6
Continuous
 62
     7
100
AcDbLine
 10
333.1708405243325
 20
223.8902823973006
 30
0.0
 11
333.1708405243325
 21
219.3902823973006
 31
0.0
  0
LINE
  5
6C
330
1F
100
AcDbEntity
  8
1
  6
Continuous
 62
     7
100
AcDbLine
 10
294.6108405243325
 20
223.8902823973006
 30
0.0
 11
333.1708405243325
 21
223.8902823973006
 31
0.0
  0
LINE
  5
6D
330
1F
100
AcDbEntity
  8
1
  6
Continuous
 62
     7
100
AcDbLine
 10
294.6108405243325
 20
223.8902823973006
 30
0.0
 11
294.6108405243325
 21
219.3902823973006
 31
0.0
  0
LINE
  5
6E
330
1F
100
AcDbEntity
  8
1
  6
Continuous
 62
     3
100
AcDbLine
 10
275.3908405243325
 20
226.1124183523002
 30
0.0
 11
291.6551577932312
 21
217.5572573973743
 31
0.0
  0
LINE
  5
6F
330
1F
100
AcDbEntity
  8
1
  6
Continuous
 62
     7
100
AcDbLine
 10
275.3908405243325
 20
226.1124183523002
 30
0.0
 11
291.3908405243325
 21
226.1124183523002
 31
0.0
  0
LINE
  5
70
330
1F
100
AcDbEntity
  8
1
  6
Continuous
 62
     7
100
AcDbLine
 10
275.3908405243325
 20
217.1681464423011
 30
0.0
 11
291.3908405243325
 21
217.1681464423011
 31
0.0
  0
LINE
  5
71
330
1F
100
AcDbEntity
  8
1
  6
Continuous
 62
     7
100
AcDbLine
 10
275.3908405243325
 20
215.6402823973006
 30
0.0
 11
291.3908405243325
 21
215.6402823973006
 31
0.0
  0
LINE
  5
72
330
1F
100
AcDbEntity
  8
1
  6
Continuous
 62
     7
100
AcDbLine
 10
291.3908405243325
 20
227.6402823973006
 30
0.0
 11
275.3908405243325
 21
227.6402823973006
 31
0.0
  0
LINE
  5
73
330
1F
100
AcDbEntity
  8
1
  6
Continuous
 62
     7
100
AcDbLine
 10
275.3908405243325
 20
230.6402823973007
 30
0.0
 11
275.3908405243325
 21
212.6402823973006
 31
0.0
  0
LINE
  5
74
330
1F
100
AcDbEntity
  8
1
  6
Continuous
 62
     7
100
AcDbLine
 10
275.3908405243325
 20
230.6402823973007
 30
0.0
 11
273.3908405243325
 21
232.6402823973006
 31
0.0
  0
LINE
  5
75
330
1F
100
AcDbEntity
  8
1
  6
Continuous
 62
     7
100
AcDbLine
 10
273.3908405243325
 20
247.1402823973007
 30
0.0
 11
273.3908405243325
 21
232.6402823973006
 31
0.0
  0
LINE
  5
76
330
1F
100
AcDbEntity
  8
1
  6
Continuous
 62
     7
100
AcDbLine
 10
273.3908405243325
 20
210.6402823973006
 30
0.0
 11
275.3908405243325
 21
212.6402823973006
 31
0.0
  0
LINE
  5
77
330
1F
100
AcDbEntity
  8
1
  6
Continuous
 62
     7
100
AcDbLine
 10
273.3908405243325
 20
210.6402823973006
 30
0.0
 11
273.3908405243325
 21
196.1402823973006
 31
0.0
  0
LINE
  5
78
330
1F
100
AcDbEntity
  8
1
  6
Continuous
 62
     7
100
AcDbLine
 10
273.3908405243325
 20
210.6402823973006
 30
0.0
 11
273.3908405243325
 21
232.6402823973006
 31
0.0
  0
LINE
  5
79
330
1F
100
AcDbEntity
  8
1
  6
Continuous
 62
     7
100
AcDbLine
 10
270.3908405243325
 20
250.1402823973006
 30
0.0
 11
270.3908405243325
 21
193.1402823973006
 31
0.0
  0
LINE
  5
7A
330
1F
100
AcDbEntity
  8
1
  6
Continuous
 62
     7
100
AcDbLine
 10
270.3908405243325
 20
250.1402823973006
 30
0.0
 11
270.3908405243325
 21
193.1402823973006
 31
0.0
  0
LINE
  5
7B
330
1F
100
AcDbEntity
  8
1
  6
Continuous
 62
     3
100
AcDbLine
 10
65.39084052433239
 20
226.1124183523002
 30
0.0
 11
51.10256030170924
 21
217.59253412314
 31
0.0
  0
LINE
  5
7C
330
1F
100
AcDbEntity
  8
1
  6
Continuous
 62
     7
100
AcDbLine
 10
51.39084052433241
 20
215.6402823973006
 30
0.0
 11
65.39084052433239
 21
215.6402823973006
 31
0.0
  0
LINE
  5
7D
330
1F
100
AcDbEntity
  8
1
  6
Continuous
 62
     7
100
AcDbLine
 10
65.39084052433239
 20
227.6402823973006
 30
0.0
 11
51.39084052433241
 21
227.6402823973006
 31
0.0
  0
LINE
  5
7E
330
1F
100
AcDbEntity
  8
1
  6
Continuous
 62
     7
100
AcDbLine
 10
65.39084052433239
 20
212.6402823973006
 30
0.0
 11
65.39084052433239
 21
230.6402823973007
 31
0.0
  0
LINE
  5
7F
330
1F
100
AcDbEntity
  8
1
  6
Continuous
 62
     7
100
AcDbLine
 10
67.39084052433239
 20
232.6402823973006
 30
0.0
 11
65.39084052433239
 21
230.6402823973007
 31
0.0
  0
LINE
  5
80
330
1F
100
AcDbEntity
  8
1
  6
Continuous
 62
     7
100
AcDbLine
 10
67.39084052433239
 20
232.6402823973006
 30
0.0
 11
67.39084052433239
 21
247.1402823973007
 31
0.0
  0
LINE
  5
81
330
1F
100
AcDbEntity
  8
1
  6
Continuous
 62
     7
100
AcDbLine
 10
65.39084052433239
 20
212.6402823973006
 30
0.0
 11
67.39084052433239
 21
210.6402823973006
 31
0.0
  0
LINE
  5
82
330
1F
100
AcDbEntity
  8
1
  6
Continuous
 62
     7
100
AcDbLine
 10
67.39084052433239
 20
196.1402823973006
 30
0.0
 11
67.39084052433239
 21
210.6402823973006
 31
0.0
  0
LINE
  5
83
330
1F
100
AcDbEntity
  8
1
  6
Continuous
 62
     7
100
AcDbLine
 10
67.39084052433239
 20
232.6402823973006
 30
0.0
 11
67.39084052433239
 21
210.6402823973006
 31
0.0
  0
LINE
  5
84
330
1F
100
AcDbEntity
  8
1
  6
Continuous
 62
     7
100
AcDbLine
 10
70.39084052433239
 20
193.1402823973006
 30
0.0
 11
70.39084052433239
 21
250.1402823973006
 31
0.0
  0
LINE
  5
85
330
1F
100
AcDbEntity
  8
1
  6
Continuous
 62
     7
100
AcDbLine
 10
275.3908405243325
 20
230.6402823973007
 30
0.0
 11
275.3908405243325
 21
212.6402823973006
 31
0.0
  0
LINE
  5
86
330
1F
100
AcDbEntity
  8
1
  6
Continuous
 62
     7
100
AcDbLine
 10
275.3908405243325
 20
230.6402823973007
 30
0.0
 11
273.3908405243325
 21
232.6402823973006
 31
0.0
  0
LINE
  5
87
330
1F
100
AcDbEntity
  8
1
  6
Continuous
 62
     7
100
AcDbLine
 10
273.3908405243325
 20
247.1402823973007
 30
0.0
 11
273.3908405243325
 21
232.6402823973006
 31
0.0
  0
LINE
  5
88
330
1F
100
AcDbEntity
  8
1
  6
Continuous
 62
     7
100
AcDbLine
 10
70.39084052433239
 20
250.1402823973006
 30
0.0
 11
270.3908405243325
 21
250.1402823973006
 31
0.0
  0
LINE
  5
89
330
1F
100
AcDbEntity
  8
1
  6
Continuous
 62
     7
100
AcDbLine
 10
273.3908405243325
 20
210.6402823973006
 30
0.0
 11
275.3908405243325
 21
212.6402823973006
 31
0.0
  0
LINE
  5
8A
330
1F
100
AcDbEntity
  8
1
  6
Continuous
 62
     7
100
AcDbLine
 10
273.3908405243325
 20
210.6402823973006
 30
0.0
 11
273.3908405243325
 21
196.1402823973006
 31
0.0
  0
LINE
  5
8B
330
1F
100
AcDbEntity
  8
1
  6
Continuous
 62
     7
100
AcDbLine
 10
273.3908405243325
 20
210.6402823973006
 30
0.0
 11
273.3908405243325
 21
232.6402823973006
 31
0.0
  0
LINE
  5
8C
330
1F
100
AcDbEntity
  8
1
  6
Continuous
 62
     7
100
AcDbLine
 10
70.39084052433239
 20
250.1402823973006
 30
0.0
 11
270.3908405243325
 21
250.1402823973006
 31
0.0
  0
LINE
  5
8D
330
1F
100
AcDbEntity
  8
1
  6
Continuous
 62
     7
100
AcDbLine
 10
70.39084052433239
 20
193.1402823973006
 30
0.0
 11
70.39084052433239
 21
250.1402823973006
 31
0.0
  0
LINE
  5
8E
330
1F
100
AcDbEntity
  8
1
  6
Continuous
 62
     7
100
AcDbLine
 10
270.3908405243325
 20
193.1402823973006
 30
0.0
 11
70.39084052433239
 21
193.1402823973006
 31
0.0
  0
LINE
  5
8F
330
1F
100
AcDbEntity
  8
1
  6
Continuous
 62
     7
100
AcDbLine
 10
270.3908405243325
 20
250.1402823973006
 30
0.0
 11
270.3908405243325
 21
193.1402823973006
 31
0.0
  0
LINE
  5
90
330
1F
100
AcDbEntity
  8
JISSEN
  6
Continuous
 62
     7
100
AcDbLine
 10
37.47788908765674
 20
226.1124183523002
 30
0.0
 11
37.47788908765674
 21
217.168146442301
 31
0.0
  0
LINE
  5
91
330
1F
100
AcDbEntity
  8
ITTEN
  6
DASH_CENTER
 62
     3
100
AcDbLine
 10
33.47788908765674
 20
229.6402823973006
 30
0.0
 11
33.47788908765674
 21
227.6402823973006
 31
0.0
  0
LINE
  5
92
330
1F
100
AcDbEntity
  8
ITTEN
  6
DASH_CENTER
 62
     3
100
AcDbLine
 10
33.47788908765674
 20
227.6402823973006
 30
0.0
 11
33.47788908765674
 21
215.6402823973006
 31
0.0
  0
LINE
  5
93
330
1F
100
AcDbEntity
  8
ITTEN
  6
DASH_CENTER
 62
     3
100
AcDbLine
 10
33.47788908765674
 20
215.6402823973006
 30
0.0
 11
33.47788908765674
 21
213.6402823973006
 31
0.0
  0
LINE
  5
94
330
1F
100
AcDbEntity
  8
JISSEN
  6
Continuous
 62
     7
100
AcDbLine
 10
37.47788908765674
 20
217.168146442301
 30
0.0
 11
37.47788908765674
 21
217.1681463973006
 31
0.0
  0
LINE
  5
95
330
1F
100
AcDbEntity
  8
JISSEN
  6
Continuous
 62
     7
100
AcDbLine
 10
37.47788908765674
 20
226.1124183973006
 30
0.0
 11
37.47788908765674
 21
226.1124183523002
 31
0.0
  0
LINE
  5
96
330
1F
100
AcDbEntity
  8
1
  6
Continuous
 62
     7
100
AcDbLine
 10
51.39084052433241
 20
227.6402823973006
 30
0.0
 11
50.39084052433241
 21
226.6402823973006
 31
0.0
  0
LINE
  5
97
330
1F
100
AcDbEntity
  8
1
  6
Continuous
 62
     7
100
AcDbLine
 10
50.39084052433241
 20
216.6402823973006
 30
0.0
 11
51.39084052433241
 21
215.6402823973006
 31
0.0
  0
LINE
  5
98
330
1F
100
AcDbEntity
  8
1
  6
Continuous
 62
     7
100
AcDbLine
 10
50.39084052433241
 20
226.6402823973006
 30
0.0
 11
50.39084052433241
 21
216.6402823973006
 31
0.0
  0
LINE
  5
99
330
1F
100
AcDbEntity
  8
1
  6
Continuous
 62
     7
100
AcDbLine
 10
51.39084052433241
 20
226.1124183523002
 30
0.0
 11
50.39084052433241
 21
224.6402823973006
 31
0.0
  0
LINE
  5
9A
330
1F
100
AcDbEntity
  8
1
  6
Continuous
 62
     7
100
AcDbLine
 10
51.39084052433241
 20
217.1681464423011
 30
0.0
 11
50.39084052433241
 21
218.6402823973006
 31
0.0
  0
LINE
  5
9B
330
1F
100
AcDbEntity
  8
1
  6
Continuous
 62
     7
100
AcDbLine
 10
51.39084052433241
 20
227.6402823973006
 30
0.0
 11
51.39084052433241
 21
226.1124183523002
 31
0.0
  0
LINE
  5
9C
330
1F
100
AcDbEntity
  8
1
  6
Continuous
 62
     7
100
AcDbLine
 10
51.39084052433241
 20
217.1681464423011
 30
0.0
 11
51.39084052433241
 21
215.6402823973006
 31
0.0
  0
LINE
  5
9D
330
1F
100
AcDbEntity
  8
1
  6
Continuous
 62
     7
100
AcDbLine
 10
51.39084052433241
 20
217.1681464423011
 30
0.0
 11
65.39084052433239
 21
217.1681464423011
 31
0.0
  0
LINE
  5
9E
330
1F
100
AcDbEntity
  8
1
  6
Continuous
 62
     7
100
AcDbLine
 10
51.39084052433241
 20
226.1124183523002
 30
0.0
 11
65.39084052433239
 21
226.1124183523002
 31
0.0
  0
LINE
  5
9F
330
1F
100
AcDbEntity
  8
1
  6
Continuous
 62
     3
100
AcDbLine
 10
51.10256030170925
 20
225.6880306714614
 30
0.0
 11
65.39084052433239
 21
217.1681464423011
 31
0.0
  0
LINE
  5
A0
330
1F
100
AcDbEntity
  8
1
  6
Continuous
 62
     7
100
AcDbLine
 10
291.3908405243325
 20
215.6402823973006
 30
0.0
 11
291.3908405243325
 21
217.1681464423011
 31
0.0
  0
LINE
  5
A1
330
1F
100
AcDbEntity
  8
1
  6
Continuous
 62
     7
100
AcDbLine
 10
291.3908405243325
 20
226.1124183523002
 30
0.0
 11
291.3908405243325
 21
227.6402823973006
 31
0.0
  0
LINE
  5
A2
330
1F
100
AcDbEntity
  8
1
  6
Continuous
 62
     7
100
AcDbLine
 10
292.3908405243325
 20
218.6402823973006
 30
0.0
 11
291.3908405243325
 21
217.1681464423011
 31
0.0
  0
LINE
  5
A3
330
1F
100
AcDbEntity
  8
1
  6
Continuous
 62
     7
100
AcDbLine
 10
292.3908405243325
 20
224.6402823973006
 30
0.0
 11
291.3908405243325
 21
226.1124183523002
 31
0.0
  0
LINE
  5
A4
330
1F
100
AcDbEntity
  8
1
  6
Continuous
 62
     7
100
AcDbLine
 10
292.3908405243325
 20
216.6402823973006
 30
0.0
 11
292.3908405243325
 21
226.6402823973006
 31
0.0
  0
LINE
  5
A5
330
1F
100
AcDbEntity
  8
1
  6
Continuous
 62
     7
100
AcDbLine
 10
291.3908405243325
 20
215.6402823973006
 30
0.0
 11
292.3908405243325
 21
216.6402823973006
 31
0.0
  0
LINE
  5
A6
330
1F
100
AcDbEntity
  8
1
  6
Continuous
 62
     7
100
AcDbLine
 10
292.3908405243325
 20
226.6402823973006
 30
0.0
 11
291.3908405243325
 21
227.6402823973006
 31
0.0
  0
LINE
  5
A7
330
1F
100
AcDbEntity
  8
1
  6
Continuous
 62
     3
100
AcDbLine
 10
291.6551577932313
 20
225.723307397227
 30
0.0
 11
275.3908405243325
 21
217.1681464423011
 31
0.0
  0
LINE
  5
A8
330
1F
100
AcDbEntity
  8
1
  6
DOT_CENTER
 62
     3
100
AcDbLine
 10
137.308407871199
 20
221.6402823973006
 30
0.0
 11
344.683775141391
 21
221.6402823973006
 31
0.0
  0
LINE
  5
A9
330
1F
100
AcDbEntity
  8
1
  6
DOT_CENTER
 62
     3
100
AcDbLine
 10
48.3758099630919
 20
221.6402823973006
 30
0.0
 11
118.313237924866
 21
221.6402823973006
 31
0.0
  0
LINE
  5
AA
330
1F
100
AcDbEntity
  8
ITTEN
  6
DASH_CENTER
 62
     3
100
AcDbLine
 10
38.990995858702
 20
221.6402823973006
 30
0.0
 11
25.47788908765674
 21
221.6402823973006
 31
0.0
  0
LINE
  5
AB
330
1F
100
AcDbEntity
  8
ITTEN
  6
DASH_CENTER
 62
     3
100
AcDbLine
 10
382.0978890876569
 20
221.6402823973006
 30
0.0
 11
368.5847823166117
 21
221.6402823973006
 31
0.0
  0
LINE
  5
AC
330
1F
100
AcDbEntity
  8
JISSEN
  6
Continuous
 62
     7
100
AcDbLine
 10
370.0978890876569
 20
226.1124183523002
 30
0.0
 11
370.0978890876569
 21
226.1124183973006
 31
0.0
  0
LINE
  5
AD
330
1F
100
AcDbEntity
  8
JISSEN
  6
Continuous
 62
     7
100
AcDbLine
 10
370.0978890876569
 20
217.1681463973006
 30
0.0
 11
370.0978890876569
 21
217.168146442301
 31
0.0
  0
LINE
  5
AE
330
1F
100
AcDbEntity
  8
ITTEN
  6
DASH_CENTER
 62
     3
100
AcDbLine
 10
374.0978890876568
 20
213.6402823973006
 30
0.0
 11
374.0978890876568
 21
215.6402823973006
 31
0.0
  0
LINE
  5
AF
330
1F
100
AcDbEntity
  8
ITTEN
  6
DASH_CENTER
 62
     3
100
AcDbLine
 10
374.0978890876568
 20
215.6402823973006
 30
0.0
 11
374.0978890876568
 21
227.6402823973006
 31
0.0
  0
LINE
  5
B0
330
1F
100
AcDbEntity
  8
ITTEN
  6
DASH_CENTER
 62
     3
100
AcDbLine
 10
374.0978890876568
 20
227.6402823973006
 30
0.0
 11
374.0978890876568
 21
229.6402823973006
 31
0.0
  0
LINE
  5
B1
330
1F
100
AcDbEntity
  8
JISSEN
  6
Continuous
 62
     7
100
AcDbLine
 10
370.0978890876569
 20
217.168146442301
 30
0.0
 11
370.0978890876569
 21
226.1124183523002
 31
0.0
  0
LINE
  5
B2
330
1F
100
AcDbEntity
  8
ITTEN
  6
DASH_CENTER
 62
     3
100
AcDbLine
 10
141.1837451049584
 20
138.5387199750722
 30
0.0
 11
152.2077342741804
 21
138.5387199750722
 31
0.0
  0
LINE
  5
B3
330
1F
100
AcDbEntity
  8
ITTEN
  6
DASH_CENTER
 62
     3
100
AcDbLine
 10
181.7958893098332
 20
94.2387199750721
 30
0.0
 11
173.7958893098332
 21
94.2387199750721
 31
0.0
  0
LINE
  5
B4
330
1F
100
AcDbEntity
  8
ITTEN
  6
DASH_CENTER
 62
     3
100
AcDbLine
 10
169.384044345486
 20
138.5387199750722
 30
0.0
 11
180.408033514708
 21
138.5387199750722
 31
0.0
  0
LINE
  5
B5
330
1F
100
AcDbEntity
  8
ITTEN
  6
DASH_CENTER
 62
     3
100
AcDbLine
 10
174.7958893098332
 20
144.109136825715
 30
0.0
 11
174.7958893098332
 21
133.406234719674
 31
0.0
  0
LINE
  5
B6
330
1F
100
AcDbEntity
  8
ITTEN
  6
DASH_CENTER
 62
     3
100
AcDbLine
 10
146.7958893098332
 20
144.002107804655
 30
0.0
 11
146.7958893098332
 21
133.299205698614
 31
0.0
  0
LINE
  5
B7
330
1F
100
AcDbEntity
  8
ITTEN
  6
DASH_CENTER
 62
     3
100
AcDbLine
 10
168.527812177003
 20
139.2387199750722
 30
0.0
 11
153.115633144304
 21
139.2387199750722
 31
0.0
  0
LINE
  5
B8
330
1F
100
AcDbEntity
  8
ITTEN
  6
DASH_CENTER
 62
     3
100
AcDbLine
 10
143.7958893098332
 20
98.2387199750721
 30
0.0
 11
143.7958893098332
 21
90.2387199750721
 31
0.0
  0
LINE
  5
B9
330
1F
100
AcDbEntity
  8
ITTEN
  6
DASH_CENTER
 62
     3
100
AcDbLine
 10
147.7958893098332
 20
94.2387199750721
 30
0.0
 11
139.7958893098332
 21
94.2387199750721
 31
0.0
  0
LINE
  5
BA
330
1F
100
AcDbEntity
  8
ITTEN
  6
DASH_CENTER
 62
     3
100
AcDbLine
 10
177.7958893098332
 20
98.2387199750721
 30
0.0
 11
177.7958893098332
 21
90.2387199750721
 31
0.0
  0
LINE
  5
BB
330
1F
100
AcDbEntity
  8
1
  6
Continuous
 62
     7
100
AcDbLine
 10
183.7958893098336
 20
33.23764558326022
 30
0.0
 11
183.7958893098336
 21
30.33764558326022
 31
0.0
  0
LINE
  5
BC
330
1F
100
AcDbEntity
  8
1
  6
Continuous
 62
     7
100
AcDbLine
 10
137.7958893098332
 20
33.23764558326022
 30
0.0
 11
137.7958893098332
 21
30.33764558326022
 31
0.0
  0
LINE
  5
BD
330
1F
100
AcDbEntity
  8
JISSEN
  6
PHANTOM
 62
   140
100
AcDbLine
 10
137.7958893098332
 20
30.33764558326022
 30
0.0
 11
135.795889309833
 21
30.33764558326022
 31
0.0
  0
LINE
  5
BE
330
1F
100
AcDbEntity
  8
JISSEN
  6
Continuous
 62
     7
100
AcDbLine
 10
183.7958893098336
 20
30.33764558326022
 30
0.0
 11
137.7958893098332
 21
30.33764558326022
 31
0.0
  0
LINE
  5
BF
330
1F
100
AcDbEntity
  8
NITEN
  6
Continuous
 62
     7
100
AcDbLine
 10
137.7958893098332
 20
33.23764558326022
 30
0.0
 11
183.7958893098336
 21
33.23764558326022
 31
0.0
  0
LINE
  5
C0
330
1F
100
AcDbEntity
  8
1
  6
PHANTOM
 62
   140
100
AcDbLine
 10
137.7958893098332
 20
34.43764558326021
 30
0.0
 11
137.7958893098332
 21
33.23764558326022
 31
0.0
  0
LINE
  5
C1
330
1F
100
AcDbEntity
  8
1
  6
PHANTOM
 62
   140
100
AcDbLine
 10
183.7958893098336
 20
34.43764558326022
 30
0.0
 11
183.7958893098336
 21
33.23764558326022
 31
0.0
  0
LINE
  5
C2
330
1F
100
AcDbEntity
  8
JISSEN
  6
PHANTOM
 62
   140
100
AcDbLine
 10
147.7958893098328
 20
34.43764558326022
 30
0.0
 11
147.7958893098328
 21
42.23764558326022
 31
0.0
  0
LINE
  5
C3
330
1F
100
AcDbEntity
  8
JISSEN
  6
PHANTOM
 62
   140
100
AcDbLine
 10
150.795889309833
 20
35.93764558326022
 30
0.0
 11
150.795889309833
 21
42.33764558326021
 31
0.0
  0
LINE
  5
C4
330
1F
100
AcDbEntity
  8
1
  6
PHANTOM
 62
   140
100
AcDbLine
 10
172.295889309833
 20
34.43764558326022
 30
0.0
 11
185.7958893098326
 21
34.43764558326022
 31
0.0
  0
LINE
  5
C5
330
1F
100
AcDbEntity
  8
1
  6
PHANTOM
 62
   140
100
AcDbLine
 10
135.795889309833
 20
34.43764558326022
 30
0.0
 11
149.295889309833
 21
34.43764558326022
 31
0.0
  0
LINE
  5
C6
330
1F
100
AcDbEntity
  8
JISSEN
  6
Continuous
 62
     7
100
AcDbLine
 10
240.6930962133776
 20
148.4387199750722
 30
0.0
 11
237.7930962133776
 21
148.4387199750722
 31
0.0
  0
LINE
  5
C7
330
1F
100
AcDbEntity
  8
NITEN
  6
PHANTOM
 62
   140
100
AcDbLine
 10
237.7930962133776
 20
148.4387199750722
 30
0.0
 11
230.6930962133776
 21
148.4387199750722
 31
0.0
  0
LINE
  5
C8
330
1F
100
AcDbEntity
  8
JISSEN
  6
PHANTOM
 62
   140
100
AcDbLine
 10
240.6930962133776
 20
148.4387199750722
 30
0.0
 11
240.6930962133776
 21
149.4387199750722
 31
0.0
  0
LINE
  5
C9
330
1F
100
AcDbEntity
  8
ITTEN
  6
DASH_CENTER
 62
     3
100
AcDbLine
 10
223.097444226827
 20
138.7387199750722
 30
0.0
 11
243.039979607315
 21
138.7387199750722
 31
0.0
  0
LINE
  5
CA
330
1F
100
AcDbEntity
  8
SAISEN
  6
Continuous
 62
     3
100
AcDbLine
 10
224.6930962133776
 20
136.6387199750722
 30
0.0
 11
226.3930962133776
 21
136.6387199750722
 31
0.0
  0
LINE
  5
CB
330
1F
100
AcDbEntity
  8
SAISEN
  6
Continuous
 62
     3
100
AcDbLine
 10
224.6930962133776
 20
140.8387199750722
 30
0.0
 11
226.3930962133776
 21
140.8387199750722
 31
0.0
  0
LINE
  5
CC
330
1F
100
AcDbEntity
  8
1
  6
Continuous
 62
     7
100
AcDbLine
 10
224.6930962133776
 20
141.2387199750722
 30
0.0
 11
224.6930962133776
 21
136.2387199750722
 31
0.0
  0
LINE
  5
CD
330
1F
100
AcDbEntity
  8
1
  6
Continuous
 62
     7
100
AcDbLine
 10
230.3930962133776
 20
142.7387199750722
 30
0.0
 11
226.7503618032857
 21
142.7387199750722
 31
0.0
  0
LINE
  5
CE
330
1F
100
AcDbEntity
  8
1
  6
Continuous
 62
     7
100
AcDbLine
 10
226.3930962133776
 20
140.7387199750722
 30
0.0
 11
226.3930962133776
 21
136.7387199750722
 31
0.0
  0
LINE
  5
CF
330
1F
100
AcDbEntity
  8
1
  6
Continuous
 62
     7
100
AcDbLine
 10
226.7503618032857
 20
138.7387199750722
 30
0.0
 11
230.3930962133776
 21
138.7387199750722
 31
0.0
  0
LINE
  5
D0
330
1F
100
AcDbEntity
  8
1
  6
Continuous
 62
     7
100
AcDbLine
 10
226.7503618032857
 20
134.7387199750722
 30
0.0
 11
230.3930962133776
 21
134.7387199750722
 31
0.0
  0
LINE
  5
D1
330
1F
100
AcDbEntity
  8
JISSEN
  6
Continuous
 62
     7
100
AcDbLine
 10
142.7958893098332
 20
88.2387199750721
 30
0.0
 11
178.7958893098332
 21
88.2387199750721
 31
0.0
  0
LINE
  5
D2
330
1F
100
AcDbEntity
  8
JISSEN
  6
Continuous
 62
     7
100
AcDbLine
 10
183.7958893098336
 20
93.2387199750721
 30
0.0
 11
183.7958893098336
 21
138.7387199750722
 31
0.0
  0
LINE
  5
D3
330
1F
100
AcDbEntity
  8
JISSEN
  6
Continuous
 62
     7
100
AcDbLine
 10
137.7958893098332
 20
93.2387199750721
 30
0.0
 11
137.7958893098332
 21
138.7387199750722
 31
0.0
  0
LINE
  5
D4
330
1F
100
AcDbEntity
  8
JISSEN
  6
Continuous
 62
     7
100
AcDbLine
 10
142.8151486114253
 20
148.2387199750722
 30
0.0
 11
178.7766300082411
 21
148.2387199750722
 31
0.0
  0
LINE
  5
D5
330
1F
100
AcDbEntity
  8
JISSEN
  6
Continuous
 62
     7
100
AcDbLine
 10
156.3014482989843
 20
143.2887199750722
 30
0.0
 11
165.290330320682
 21
143.2887199750722
 31
0.0
  0
LINE
  5
D6
330
1F
100
AcDbEntity
  8
JISSEN
  6
Continuous
 62
     7
100
AcDbLine
 10
182.2958893098336
 20
128.2387199750722
 30
0.0
 11
182.2958893098336
 21
122.2387199750722
 31
0.0
  0
LINE
  5
D7
330
1F
100
AcDbEntity
  8
JISSEN
  6
Continuous
 62
     7
100
AcDbLine
 10
180.7958893098332
 20
128.2387199750722
 30
0.0
 11
183.7958893098336
 21
128.2387199750722
 31
0.0
  0
LINE
  5
D8
330
1F
100
AcDbEntity
  8
JISSEN
  6
Continuous
 62
     7
100
AcDbLine
 10
180.7958893098332
 20
122.2387199750722
 30
0.0
 11
180.7958893098332
 21
128.2387199750722
 31
0.0
  0
LINE
  5
D9
330
1F
100
AcDbEntity
  8
JISSEN
  6
Continuous
 62
     7
100
AcDbLine
 10
180.7958893098332
 20
127.7387199750722
 30
0.0
 11
174.7958893098332
 21
127.7387199750722
 31
0.0
  0
LINE
  5
DA
330
1F
100
AcDbEntity
  8
JISSEN
  6
Continuous
 62
     7
100
AcDbLine
 10
174.7958893098332
 20
127.7387199750722
 30
0.0
 11
174.7958893098332
 21
123.0413515540192
 31
0.0
  0
LINE
  5
DB
330
1F
100
AcDbEntity
  8
ITTEN
  6
DASH_CENTER
 62
     3
100
AcDbLine
 10
173.7958893098332
 20
125.2387199750722
 30
0.0
 11
184.9512643098336
 21
125.2387199750722
 31
0.0
  0
LINE
  5
DC
330
1F
100
AcDbEntity
  8
JISSEN
  6
Continuous
 62
     7
100
AcDbLine
 10
175.7073271375993
 20
122.7387199750722
 30
0.0
 11
180.7958893098332
 21
122.7387199750722
 31
0.0
  0
LINE
  5
DD
330
1F
100
AcDbEntity
  8
JISSEN
  6
Continuous
 62
     7
100
AcDbLine
 10
183.7958893098336
 20
122.2387199750722
 30
0.0
 11
180.7958893098332
 21
122.2387199750722
 31
0.0
  0
LINE
  5
DE
330
1F
100
AcDbEntity
  8
JISSEN
  6
Continuous
 62
     7
100
AcDbLine
 10
145.884451482067
 20
122.7387199750722
 30
0.0
 11
140.7958893098332
 21
122.7387199750722
 31
0.0
  0
LINE
  5
DF
330
1F
100
AcDbEntity
  8
JISSEN
  6
Continuous
 62
     7
100
AcDbLine
 10
146.7958893098332
 20
127.7387199750722
 30
0.0
 11
146.7958893098332
 21
123.0413515540192
 31
0.0
  0
LINE
  5
E0
330
1F
100
AcDbEntity
  8
ITTEN
  6
DASH_CENTER
 62
     3
100
AcDbLine
 10
136.8380573098332
 20
125.2387199750722
 30
0.0
 11
147.7958893098332
 21
125.2387199750722
 31
0.0
  0
LINE
  5
E1
330
1F
100
AcDbEntity
  8
JISSEN
  6
Continuous
 62
     7
100
AcDbLine
 10
140.7958893098332
 20
127.7387199750722
 30
0.0
 11
146.7958893098332
 21
127.7387199750722
 31
0.0
  0
LINE
  5
E2
330
1F
100
AcDbEntity
  8
JISSEN
  6
Continuous
 62
     7
100
AcDbLine
 10
137.7958893098332
 20
128.2387199750722
 30
0.0
 11
140.7958893098332
 21
128.2387199750722
 31
0.0
  0
LINE
  5
E3
330
1F
100
AcDbEntity
  8
JISSEN
  6
Continuous
 62
     7
100
AcDbLine
 10
139.2958893098332
 20
128.2387199750722
 30
0.0
 11
139.2958893098332
 21
122.2387199750722
 31
0.0
  0
LINE
  5
E4
330
1F
100
AcDbEntity
  8
JISSEN
  6
Continuous
 62
     7
100
AcDbLine
 10
140.7958893098332
 20
122.2387199750722
 30
0.0
 11
140.7958893098332
 21
128.2387199750722
 31
0.0
  0
LINE
  5
E5
330
1F
100
AcDbEntity
  8
JISSEN
  6
Continuous
 62
     7
100
AcDbLine
 10
137.7958893098332
 20
122.2387199750722
 30
0.0
 11
140.7958893098332
 21
122.2387199750722
 31
0.0
  0
LINE
  5
E6
330
1F
100
AcDbEntity
  8
JISSEN
  6
Continuous
 62
     7
100
AcDbLine
 10
174.6826853098332
 20
147.3387199750722
 30
0.0
 11
179.0568793098332
 21
147.3387199750722
 31
0.0
  0
LINE
  5
E7
330
1F
100
AcDbEntity
  8
JISSEN
  6
Continuous
 62
     7
100
AcDbLine
 10
148.7958893098332
 20
147.5387199750722
 30
0.0
 11
172.7958893098332
 21
147.5387199750722
 31
0.0
  0
LINE
  5
E8
330
1F
100
AcDbEntity
  8
JISSEN
  6
Continuous
 62
     7
100
AcDbLine
 10
142.5348993098332
 20
147.3387199750722
 30
0.0
 11
146.9090933098332
 21
147.3387199750722
 31
0.0
  0
LINE
  5
E9
330
1F
100
AcDbEntity
  8
JISSEN
  6
Continuous
 62
     7
100
AcDbLine
 10
148.7958893098332
 20
127.7387199750722
 30
0.0
 11
172.7958893098332
 21
127.7387199750722
 31
0.0
  0
LINE
  5
EA
330
1F
100
AcDbEntity
  8
JISSEN
  6
Continuous
 62
     7
100
AcDbLine
 10
172.7958893098332
 20
129.5387199750722
 30
0.0
 11
148.7958893098332
 21
129.5387199750722
 31
0.0
  0
LINE
  5
EB
330
1F
100
AcDbEntity
  8
JISSEN
  6
Continuous
 62
     7
100
AcDbLine
 10
149.1052903098332
 20
142.5387199750722
 30
0.0
 11
144.4864883098332
 21
142.5387199750722
 31
0.0
  0
LINE
  5
EC
330
1F
100
AcDbEntity
  8
JISSEN
  6
Continuous
 62
     7
100
AcDbLine
 10
149.1052903098332
 20
142.5387199750722
 30
0.0
 11
151.3958893098332
 21
138.5387199750722
 31
0.0
  0
LINE
  5
ED
330
1F
100
AcDbEntity
  8
JISSEN
  6
Continuous
 62
     7
100
AcDbLine
 10
142.1958893098332
 20
138.5387199750722
 30
0.0
 11
144.4864883098332
 21
142.5387199750722
 31
0.0
  0
LINE
  5
EE
330
1F
100
AcDbEntity
  8
JISSEN
  6
Continuous
 62
     7
100
AcDbLine
 10
144.4864883098332
 20
134.5387199750722
 30
0.0
 11
142.1958893098332
 21
138.5387199750722
 31
0.0
  0
LINE
  5
EF
330
1F
100
AcDbEntity
  8
JISSEN
  6
Continuous
 62
     7
100
AcDbLine
 10
144.4864883098332
 20
134.5387199750722
 30
0.0
 11
149.1052903098332
 21
134.5387199750722
 31
0.0
  0
LINE
  5
F0
330
1F
100
AcDbEntity
  8
JISSEN
  6
Continuous
 62
     7
100
AcDbLine
 10
151.3958893098332
 20
138.5387199750722
 30
0.0
 11
149.1052903098332
 21
134.5387199750722
 31
0.0
  0
LINE
  5
F1
330
1F
100
AcDbEntity
  8
JISSEN
  6
Continuous
 62
     7
100
AcDbLine
 10
172.4864883098332
 20
142.5387199750722
 30
0.0
 11
177.1052903098332
 21
142.5387199750722
 31
0.0
  0
LINE
  5
F2
330
1F
100
AcDbEntity
  8
JISSEN
  6
Continuous
 62
     7
100
AcDbLine
 10
172.4864883098332
 20
142.5387199750722
 30
0.0
 11
170.1958893098332
 21
138.5387199750722
 31
0.0
  0
LINE
  5
F3
330
1F
100
AcDbEntity
  8
JISSEN
  6
Continuous
 62
     7
100
AcDbLine
 10
170.1958893098332
 20
138.5387199750722
 30
0.0
 11
172.4864883098332
 21
134.5387199750722
 31
0.0
  0
LINE
  5
F4
330
1F
100
AcDbEntity
  8
JISSEN
  6
Continuous
 62
     7
100
AcDbLine
 10
177.1052903098332
 20
134.5387199750722
 30
0.0
 11
172.4864883098332
 21
134.5387199750722
 31
0.0
  0
LINE
  5
F5
330
1F
100
AcDbEntity
  8
JISSEN
  6
Continuous
 62
     7
100
AcDbLine
 10
177.1052903098332
 20
134.5387199750722
 30
0.0
 11
179.3958893098332
 21
138.5387199750722
 31
0.0
  0
LINE
  5
F6
330
1F
100
AcDbEntity
  8
JISSEN
  6
Continuous
 62
     7
100
AcDbLine
 10
179.3958893098332
 20
138.5387199750722
 30
0.0
 11
177.1052903098332
 21
142.5387199750722
 31
0.0
  0
LINE
  5
F7
330
1F
100
AcDbEntity
  8
JISSEN
  6
Continuous
 62
     7
100
AcDbLine
 10
237.7930962133776
 20
88.4387199750721
 30
0.0
 11
240.6930962133776
 21
88.4387199750721
 31
0.0
  0
LINE
  5
F8
330
1F
100
AcDbEntity
  8
JISSEN
  6
Continuous
 62
     7
100
AcDbLine
 10
235.2930962133776
 20
127.4387199750722
 30
0.0
 11
235.2930962133776
 21
123.4387199750722
 31
0.0
  0
LINE
  5
F9
330
1F
100
AcDbEntity
  8
JISSEN
  6
Continuous
 62
     7
100
AcDbLine
 10
236.2930962133776
 20
122.4387199750722
 30
0.0
 11
237.4930962133776
 21
122.4387199750722
 31
0.0
  0
LINE
  5
FA
330
1F
100
AcDbEntity
  8
JISSEN
  6
Continuous
 62
     7
100
AcDbLine
 10
236.7930962133776
 20
128.4387199750722
 30
0.0
 11
236.2930962133776
 21
128.4387199750722
 31
0.0
  0
LINE
  5
FB
330
1F
100
AcDbEntity
  8
JISSEN
  6
Continuous
 62
     7
100
AcDbLine
 10
237.7930962133776
 20
148.4387199750722
 30
0.0
 11
237.7930962133776
 21
88.4387199750721
 31
0.0
  0
LINE
  5
FC
330
1F
100
AcDbEntity
  8
ITTEN
  6
DASH_CENTER
 62
     3
100
AcDbLine
 10
160.7958893098332
 20
150.2887199750722
 30
0.0
 11
160.7958893098332
 21
128.1887199750722
 31
0.0
  0
LINE
  5
FD
330
1F
100
AcDbEntity
  8
JISSEN
  6
Continuous
 62
     7
100
AcDbLine
 10
139.7958893098332
 20
121.7387199750722
 30
0.0
 11
145.5458893098332
 21
121.7387199750722
 31
0.0
  0
LINE
  5
FE
330
1F
100
AcDbEntity
  8
JISSEN
  6
Continuous
 62
     7
100
AcDbLine
 10
139.7958893098332
 20
100.7387199750721
 30
0.0
 11
145.5458893098332
 21
100.7387199750721
 31
0.0
  0
LINE
  5
FF
330
1F
100
AcDbEntity
  8
JISSEN
  6
Continuous
 62
     7
100
AcDbLine
 10
138.6778553210833
 20
121.2387199750722
 30
0.0
 11
145.5458893098332
 21
121.2387199750722
 31
0.0
  0
LINE
  5
100
330
1F
100
AcDbEntity
  8
JISSEN
  6
Continuous
 62
     7
100
AcDbLine
 10
138.6778553210833
 20
101.2387199750721
 30
0.0
 11
145.5458893098332
 21
101.2387199750721
 31
0.0
  0
LINE
  5
101
330
1F
100
AcDbEntity
  8
JISSEN
  6
Continuous
 62
     7
100
AcDbLine
 10
139.2958893098332
 20
120.4887199750722
 30
0.0
 11
145.5458893098332
 21
120.4887199750722
 31
0.0
  0
LINE
  5
102
330
1F
100
AcDbEntity
  8
JISSEN
  6
Continuous
 62
     7
100
AcDbLine
 10
139.2958893098332
 20
101.9887199750721
 30
0.0
 11
145.5458893098332
 21
101.9887199750721
 31
0.0
  0
LINE
  5
103
330
1F
100
AcDbEntity
  8
JISSEN
  6
Continuous
 62
     7
100
AcDbLine
 10
157.0458893098332
 20
123.9887199750722
 30
0.0
 11
157.0458893098332
 21
98.4887199750721
 31
0.0
  0
LINE
  5
104
330
1F
100
AcDbEntity
  8
JISSEN
  6
Continuous
 62
     7
100
AcDbLine
 10
155.0458893098332
 20
123.9887199750722
 30
0.0
 11
155.0458893098332
 21
98.4887199750721
 31
0.0
  0
LINE
  5
105
330
1F
100
AcDbEntity
  8
JISSEN
  6
Continuous
 62
     7
100
AcDbLine
 10
164.5458893098332
 20
123.9887199750722
 30
0.0
 11
164.5458893098332
 21
98.4887199750721
 31
0.0
  0
LINE
  5
106
330
1F
100
AcDbEntity
  8
JISSEN
  6
Continuous
 62
     7
100
AcDbLine
 10
166.5458893098332
 20
123.9887199750722
 30
0.0
 11
166.5458893098331
 21
98.4887199750721
 31
0.0
  0
LINE
  5
107
330
1F
100
AcDbEntity
  8
JISSEN
  6
Continuous
 62
     7
100
AcDbLine
 10
174.0458893098332
 20
121.9887199750722
 30
0.0
 11
174.0458893098331
 21
100.4887199750721
 31
0.0
  0
LINE
  5
108
330
1F
100
AcDbEntity
  8
JISSEN
  6
Continuous
 62
     7
100
AcDbLine
 10
176.0458893098332
 20
121.9887199750722
 30
0.0
 11
176.0458893098332
 21
100.4887199750721
 31
0.0
  0
LINE
  5
109
330
1F
100
AcDbEntity
  8
JISSEN
  6
Continuous
 62
     7
100
AcDbLine
 10
147.5458893098332
 20
121.9887199750722
 30
0.0
 11
147.5458893098332
 21
100.4887199750721
 31
0.0
  0
LINE
  5
10A
330
1F
100
AcDbEntity
  8
JISSEN
  6
Continuous
 62
     7
100
AcDbLine
 10
145.5458893098332
 20
121.9887199750722
 30
0.0
 11
145.5458893098332
 21
100.4887199750721
 31
0.0
  0
LINE
  5
10B
330
1F
100
AcDbEntity
  8
JISSEN
  6
Continuous
 62
     7
100
AcDbLine
 10
183.2958893098336
 20
120.2387199750722
 30
0.0
 11
183.2958893098336
 21
102.2387199750721
 31
0.0
  0
LINE
  5
10C
330
1F
100
AcDbEntity
  8
JISSEN
  6
Continuous
 62
     7
100
AcDbLine
 10
138.2958893098332
 20
120.2387199750722
 30
0.0
 11
138.2958893098332
 21
102.2387199750721
 31
0.0
  0
LINE
  5
10D
330
1F
100
AcDbEntity
  8
JISSEN
  6
Continuous
 62
     7
100
AcDbLine
 10
138.7958893098332
 20
119.9887199750722
 30
0.0
 11
138.7958893098333
 21
102.4887199750721
 31
0.0
  0
LINE
  5
10E
330
1F
100
AcDbEntity
  8
JISSEN
  6
Continuous
 62
     7
100
AcDbLine
 10
182.7958893098336
 20
119.9887199750722
 30
0.0
 11
182.7958893098336
 21
102.4887199750721
 31
0.0
  0
LINE
  5
10F
330
1F
100
AcDbEntity
  8
JISSEN
  6
Continuous
 62
     7
100
AcDbLine
 10
146.5458893098332
 20
122.9887199750722
 30
0.0
 11
156.0458893098332
 21
124.9887199750722
 31
0.0
  0
LINE
  5
110
330
1F
100
AcDbEntity
  8
JISSEN
  6
Continuous
 62
     7
100
AcDbLine
 10
156.0458893098332
 20
124.9887199750722
 30
0.0
 11
165.5458893098331
 21
124.9887199750722
 31
0.0
  0
LINE
  5
111
330
1F
100
AcDbEntity
  8
JISSEN
  6
Continuous
 62
     7
100
AcDbLine
 10
165.5458893098331
 20
124.9887199750722
 30
0.0
 11
175.0458893098332
 21
122.9887199750722
 31
0.0
  0
LINE
  5
112
330
1F
100
AcDbEntity
  8
JISSEN
  6
Continuous
 62
     7
100
AcDbLine
 10
175.0458893098332
 20
99.4887199750721
 30
0.0
 11
165.5458893098331
 21
97.4887199750721
 31
0.0
  0
LINE
  5
113
330
1F
100
AcDbEntity
  8
JISSEN
  6
Continuous
 62
     7
100
AcDbLine
 10
165.5458893098331
 20
97.4887199750721
 30
0.0
 11
156.0458893098332
 21
97.4887199750721
 31
0.0
  0
LINE
  5
114
330
1F
100
AcDbEntity
  8
JISSEN
  6
Continuous
 62
     7
100
AcDbLine
 10
146.5458893098332
 20
99.4887199750721
 30
0.0
 11
156.0458893098332
 21
97.4887199750721
 31
0.0
  0
LINE
  5
115
330
1F
100
AcDbEntity
  8
JISSEN
  6
Continuous
 62
     7
100
AcDbLine
 10
176.0458893098332
 20
121.7387199750722
 30
0.0
 11
181.7958893098332
 21
121.7387199750722
 31
0.0
  0
LINE
  5
116
330
1F
100
AcDbEntity
  8
JISSEN
  6
Continuous
 62
     7
100
AcDbLine
 10
176.0458893098332
 20
100.7387199750721
 30
0.0
 11
181.7958893098332
 21
100.7387199750721
 31
0.0
  0
LINE
  5
117
330
1F
100
AcDbEntity
  8
JISSEN
  6
Continuous
 62
     7
100
AcDbLine
 10
176.0458893098332
 20
121.2387199750722
 30
0.0
 11
182.9139232985836
 21
121.2387199750722
 31
0.0
  0
LINE
  5
118
330
1F
100
AcDbEntity
  8
JISSEN
  6
Continuous
 62
     7
100
AcDbLine
 10
176.0458893098332
 20
120.4887199750722
 30
0.0
 11
182.2958893098336
 21
120.4887199750722
 31
0.0
  0
LINE
  5
119
330
1F
100
AcDbEntity
  8
JISSEN
  6
Continuous
 62
     7
100
AcDbLine
 10
166.5458893098331
 20
121.2387199750722
 30
0.0
 11
174.0458893098331
 21
121.2387199750722
 31
0.0
  0
LINE
  5
11A
330
1F
100
AcDbEntity
  8
JISSEN
  6
Continuous
 62
     7
100
AcDbLine
 10
166.5458893098331
 20
120.4887199750722
 30
0.0
 11
174.0458893098331
 21
120.4887199750722
 31
0.0
  0
LINE
  5
11B
330
1F
100
AcDbEntity
  8
JISSEN
  6
Continuous
 62
     7
100
AcDbLine
 10
157.0458893098332
 20
120.4887199750722
 30
0.0
 11
164.5458893098332
 21
120.4887199750722
 31
0.0
  0
LINE
  5
11C
330
1F
100
AcDbEntity
  8
JISSEN
  6
Continuous
 62
     7
100
AcDbLine
 10
157.0458893098332
 20
121.2387199750722
 30
0.0
 11
164.5458893098332
 21
121.2387199750722
 31
0.0
  0
LINE
  5
11D
330
1F
100
AcDbEntity
  8
JISSEN
  6
Continuous
 62
     7
100
AcDbLine
 10
147.5458893098332
 20
121.2387199750722
 30
0.0
 11
155.0458893098332
 21
121.2387199750722
 31
0.0
  0
LINE
  5
11E
330
1F
100
AcDbEntity
  8
JISSEN
  6
Continuous
 62
     7
100
AcDbLine
 10
147.5458893098332
 20
120.4887199750722
 30
0.0
 11
155.0458893098332
 21
120.4887199750722
 31
0.0
  0
LINE
  5
11F
330
1F
100
AcDbEntity
  8
JISSEN
  6
Continuous
 62
     7
100
AcDbLine
 10
147.5458893098332
 20
101.9887199750721
 30
0.0
 11
155.0458893098333
 21
101.9887199750721
 31
0.0
  0
LINE
  5
120
330
1F
100
AcDbEntity
  8
JISSEN
  6
Continuous
 62
     7
100
AcDbLine
 10
147.5458893098332
 20
101.2387199750721
 30
0.0
 11
155.0458893098333
 21
101.2387199750721
 31
0.0
  0
LINE
  5
121
330
1F
100
AcDbEntity
  8
JISSEN
  6
Continuous
 62
     7
100
AcDbLine
 10
157.0458893098332
 20
101.9887199750721
 30
0.0
 11
164.5458893098332
 21
101.9887199750721
 31
0.0
  0
LINE
  5
122
330
1F
100
AcDbEntity
  8
JISSEN
  6
Continuous
 62
     7
100
AcDbLine
 10
157.0458893098332
 20
101.2387199750721
 30
0.0
 11
164.5458893098332
 21
101.2387199750721
 31
0.0
  0
LINE
  5
123
330
1F
100
AcDbEntity
  8
JISSEN
  6
Continuous
 62
     7
100
AcDbLine
 10
166.5458893098331
 20
101.9887199750721
 30
0.0
 11
174.0458893098331
 21
101.9887199750721
 31
0.0
  0
LINE
  5
124
330
1F
100
AcDbEntity
  8
JISSEN
  6
Continuous
 62
     7
100
AcDbLine
 10
166.5458893098331
 20
101.2387199750721
 30
0.0
 11
174.0458893098331
 21
101.2387199750721
 31
0.0
  0
LINE
  5
125
330
1F
100
AcDbEntity
  8
JISSEN
  6
Continuous
 62
     7
100
AcDbLine
 10
176.0458893098332
 20
101.9887199750721
 30
0.0
 11
182.2958893098336
 21
101.9887199750721
 31
0.0
  0
LINE
  5
126
330
1F
100
AcDbEntity
  8
JISSEN
  6
Continuous
 62
     7
100
AcDbLine
 10
176.0458893098332
 20
101.2387199750721
 30
0.0
 11
182.9139232985836
 21
101.2387199750721
 31
0.0
  0
LINE
  5
127
330
1F
100
AcDbEntity
  8
NITEN
  6
PHANTOM
 62
   140
100
AcDbLine
 10
174.5458893098331
 20
86.2387199750721
 30
0.0
 11
174.5458893098331
 21
85.238719975072
 31
0.0
  0
LINE
  5
128
330
1F
100
AcDbEntity
  8
NITEN
  6
PHANTOM
 62
   140
100
AcDbLine
 10
147.0458893098331
 20
86.2387199750721
 30
0.0
 11
147.0458893098331
 21
85.238719975072
 31
0.0
  0
LINE
  5
129
330
1F
100
AcDbEntity
  8
NITEN
  6
PHANTOM
 62
   140
100
AcDbLine
 10
147.5458893098331
 20
84.738719975072
 30
0.0
 11
174.0458893098331
 21
84.738719975072
 31
0.0
  0
LINE
  5
12A
330
1F
100
AcDbEntity
  8
NITEN
  6
PHANTOM
 62
   140
100
AcDbLine
 10
175.7958893098331
 20
149.2387199750722
 30
0.0
 11
145.7958893098332
 21
149.2387199750722
 31
0.0
  0
LINE
  5
12B
330
1F
100
AcDbEntity
  8
NITEN
  6
PHANTOM
 62
   140
100
AcDbLine
 10
142.6958893098332
 20
86.2387199750721
 30
0.0
 11
178.7958893098332
 21
86.2387199750721
 31
0.0
  0
LINE
  5
12C
330
1F
100
AcDbEntity
  8
NITEN
  6
PHANTOM
 62
   140
100
AcDbLine
 10
135.7958893098332
 20
139.2387199750722
 30
0.0
 11
135.7958893098332
 21
93.2387199750721
 31
0.0
  0
LINE
  5
12D
330
1F
100
AcDbEntity
  8
JISSEN
  6
Continuous
 62
     3
100
AcDbLine
 10
140.2958893098332
 20
115.5887199750722
 30
0.0
 11
140.2958893098332
 21
114.8887199750722
 31
0.0
  0
LINE
  5
12E
330
1F
100
AcDbEntity
  8
JISSEN
  6
Continuous
 62
     3
100
AcDbLine
 10
141.7958893098334
 20
113.7387199750722
 30
0.0
 11
141.4458893098335
 21
113.7387199750722
 31
0.0
  0
LINE
  5
12F
330
1F
100
AcDbEntity
  8
JISSEN
  6
Continuous
 62
     3
100
AcDbLine
 10
141.7958893098334
 20
113.7387199750722
 30
0.0
 11
142.1458893098333
 21
113.7387199750722
 31
0.0
  0
LINE
  5
130
330
1F
100
AcDbEntity
  8
JISSEN
  6
Continuous
 62
     3
100
AcDbLine
 10
143.2958893098336
 20
115.5887199750722
 30
0.0
 11
143.2958893098336
 21
114.8887199750722
 31
0.0
  0
LINE
  5
131
330
1F
100
AcDbEntity
  8
JISSEN
  6
Continuous
 62
     3
100
AcDbLine
 10
141.7958893098334
 20
116.7387199750722
 30
0.0
 11
141.4458893098335
 21
116.7387199750722
 31
0.0
  0
LINE
  5
132
330
1F
100
AcDbEntity
  8
JISSEN
  6
Continuous
 62
     3
100
AcDbLine
 10
141.7958893098334
 20
116.7387199750722
 30
0.0
 11
142.1458893098333
 21
116.7387199750722
 31
0.0
  0
LINE
  5
133
330
1F
100
AcDbEntity
  8
NITEN
  6
PHANTOM
 62
   140
100
AcDbLine
 10
185.7958893098336
 20
93.2387199750721
 30
0.0
 11
185.7958893098336
 21
139.2387199750722
 31
0.0
  0
LINE
  5
134
330
1F
100
AcDbEntity
  8
JISSEN
  6
Continuous
 62
     3
100
AcDbLine
 10
154.7958893098335
 20
119.7387199750722
 30
0.0
 11
154.7958893098335
 21
112.7387199750722
 31
0.0
  0
LINE
  5
135
330
1F
100
AcDbEntity
  8
JISSEN
  6
Continuous
 62
     3
100
AcDbLine
 10
147.7958893098331
 20
112.7387199750722
 30
0.0
 11
147.7958893098331
 21
119.7387199750722
 31
0.0
  0
LINE
  5
136
330
1F
100
AcDbEntity
  8
JISSEN
  6
Continuous
 62
     3
100
AcDbLine
 10
164.2958893098334
 20
119.7387199750722
 30
0.0
 11
164.2958893098334
 21
112.7387199750722
 31
0.0
  0
LINE
  5
137
330
1F
100
AcDbEntity
  8
JISSEN
  6
Continuous
 62
     3
100
AcDbLine
 10
157.2958893098335
 20
112.7387199750722
 30
0.0
 11
157.2958893098335
 21
119.7387199750722
 31
0.0
  0
LINE
  5
138
330
1F
100
AcDbEntity
  8
JISSEN
  6
Continuous
 62
     3
100
AcDbLine
 10
173.7958893098333
 20
119.7387199750722
 30
0.0
 11
173.7958893098333
 21
112.7387199750722
 31
0.0
  0
LINE
  5
139
330
1F
100
AcDbEntity
  8
JISSEN
  6
Continuous
 62
     3
100
AcDbLine
 10
166.7958893098334
 20
112.7387199750722
 30
0.0
 11
166.7958893098334
 21
119.7387199750722
 31
0.0
  0
LINE
  5
13A
330
1F
100
AcDbEntity
  8
JISSEN
  6
Continuous
 62
     3
100
AcDbLine
 10
173.7958893098333
 20
112.7387199750722
 30
0.0
 11
166.7958893098334
 21
112.7387199750722
 31
0.0
  0
LINE
  5
13B
330
1F
100
AcDbEntity
  8
JISSEN
  6
Continuous
 62
     3
100
AcDbLine
 10
166.7958893098334
 20
109.7387199750722
 30
0.0
 11
173.7958893098333
 21
109.7387199750722
 31
0.0
  0
LINE
  5
13C
330
1F
100
AcDbEntity
  8
JISSEN
  6
Continuous
 62
     3
100
AcDbLine
 10
173.7958893098333
 20
102.7387199750722
 30
0.0
 11
166.7958893098334
 21
102.7387199750722
 31
0.0
  0
LINE
  5
13D
330
1F
100
AcDbEntity
  8
JISSEN
  6
Continuous
 62
     3
100
AcDbLine
 10
167.5917258532352
 20
105.7387199750722
 30
0.0
 11
166.7958893098334
 21
105.7387199750722
 31
0.0
  0
LINE
  5
13E
330
1F
100
AcDbEntity
  8
JISSEN
  6
Continuous
 62
     3
100
AcDbLine
 10
167.5917258532352
 20
106.7387199750722
 30
0.0
 11
166.7958893098334
 21
106.7387199750722
 31
0.0
  0
LINE
  5
13F
330
1F
100
AcDbEntity
  8
JISSEN
  6
Continuous
 62
     3
100
AcDbLine
 10
154.7958893098335
 20
109.7387199750722
 30
0.0
 11
154.7958893098335
 21
102.7387199750722
 31
0.0
  0
LINE
  5
140
330
1F
100
AcDbEntity
  8
JISSEN
  6
Continuous
 62
     3
100
AcDbLine
 10
147.7958893098331
 20
102.7387199750722
 30
0.0
 11
147.7958893098331
 21
109.7387199750722
 31
0.0
  0
LINE
  5
141
330
1F
100
AcDbEntity
  8
JISSEN
  6
Continuous
 62
     3
100
AcDbLine
 10
151.2958893098333
 20
104.7387199750722
 30
0.0
 11
150.9458893098331
 21
104.7387199750722
 31
0.0
  0
LINE
  5
142
330
1F
100
AcDbEntity
  8
JISSEN
  6
Continuous
 62
     3
100
AcDbLine
 10
151.2958893098333
 20
107.7387199750722
 30
0.0
 11
150.9458893098331
 21
107.7387199750722
 31
0.0
  0
LINE
  5
143
330
1F
100
AcDbEntity
  8
JISSEN
  6
Continuous
 62
     3
100
AcDbLine
 10
154.7958893098335
 20
102.7387199750722
 30
0.0
 11
147.7958893098331
 21
102.7387199750722
 31
0.0
  0
LINE
  5
144
330
1F
100
AcDbEntity
  8
JISSEN
  6
Continuous
 62
     3
100
AcDbLine
 10
150.7958893098332
 20
103.5345565184741
 30
0.0
 11
150.7958893098332
 21
102.7387199750722
 31
0.0
  0
LINE
  5
145
330
1F
100
AcDbEntity
  8
JISSEN
  6
Continuous
 62
     3
100
AcDbLine
 10
148.5917258532355
 20
105.7387199750722
 30
0.0
 11
147.7958893098331
 21
105.7387199750722
 31
0.0
  0
LINE
  5
146
330
1F
100
AcDbEntity
  8
JISSEN
  6
Continuous
 62
     3
100
AcDbLine
 10
148.5917258532355
 20
106.7387199750722
 30
0.0
 11
147.7958893098331
 21
106.7387199750722
 31
0.0
  0
LINE
  5
147
330
1F
100
AcDbEntity
  8
JISSEN
  6
Continuous
 62
     3
100
AcDbLine
 10
149.795889309833
 20
106.5887199750722
 30
0.0
 11
149.7958893098335
 21
105.8887199750722
 31
0.0
  0
LINE
  5
148
330
1F
100
AcDbEntity
  8
JISSEN
  6
Continuous
 62
     3
100
AcDbLine
 10
151.7958893098334
 20
103.5345565184741
 30
0.0
 11
151.7958893098334
 21
102.7387199750722
 31
0.0
  0
LINE
  5
149
330
1F
100
AcDbEntity
  8
JISSEN
  6
Continuous
 62
     3
100
AcDbLine
 10
151.2958893098333
 20
107.7387199750722
 30
0.0
 11
151.645889309833
 21
107.7387199750722
 31
0.0
  0
LINE
  5
14A
330
1F
100
AcDbEntity
  8
JISSEN
  6
Continuous
 62
     3
100
AcDbLine
 10
152.7958893098336
 20
106.5887199750722
 30
0.0
 11
152.7958893098331
 21
105.8887199750722
 31
0.0
  0
LINE
  5
14B
330
1F
100
AcDbEntity
  8
JISSEN
  6
Continuous
 62
     3
100
AcDbLine
 10
151.2958893098333
 20
104.7387199750722
 30
0.0
 11
151.645889309833
 21
104.7387199750722
 31
0.0
  0
LINE
  5
14C
330
1F
100
AcDbEntity
  8
JISSEN
  6
Continuous
 62
     3
100
AcDbLine
 10
154.0000527664311
 20
106.7387199750722
 30
0.0
 11
154.7958893098335
 21
106.7387199750722
 31
0.0
  0
LINE
  5
14D
330
1F
100
AcDbEntity
  8
JISSEN
  6
Continuous
 62
     3
100
AcDbLine
 10
154.0000527664311
 20
105.7387199750722
 30
0.0
 11
154.7958893098335
 21
105.7387199750722
 31
0.0
  0
LINE
  5
14E
330
1F
100
AcDbEntity
  8
JISSEN
  6
Continuous
 62
     3
100
AcDbLine
 10
151.2958893098333
 20
114.7387199750722
 30
0.0
 11
150.9458893098334
 21
114.7387199750722
 31
0.0
  0
LINE
  5
14F
330
1F
100
AcDbEntity
  8
JISSEN
  6
Continuous
 62
     3
100
AcDbLine
 10
154.7958893098335
 20
112.7387199750722
 30
0.0
 11
147.7958893098331
 21
112.7387199750722
 31
0.0
  0
LINE
  5
150
330
1F
100
AcDbEntity
  8
JISSEN
  6
Continuous
 62
     3
100
AcDbLine
 10
147.7958893098331
 20
109.7387199750722
 30
0.0
 11
154.7958893098335
 21
109.7387199750722
 31
0.0
  0
LINE
  5
151
330
1F
100
AcDbEntity
  8
JISSEN
  6
Continuous
 62
     3
100
AcDbLine
 10
150.7958893098332
 20
109.7387199750722
 30
0.0
 11
150.7958893098332
 21
108.9428834316702
 31
0.0
  0
LINE
  5
152
330
1F
100
AcDbEntity
  8
JISSEN
  6
Continuous
 62
     3
100
AcDbLine
 10
150.7958893098332
 20
113.5345565184742
 30
0.0
 11
150.7958893098332
 21
112.7387199750722
 31
0.0
  0
LINE
  5
153
330
1F
100
AcDbEntity
  8
JISSEN
  6
Continuous
 62
     3
100
AcDbLine
 10
151.7958893098334
 20
108.9428834316702
 30
0.0
 11
151.7958893098334
 21
109.7387199750722
 31
0.0
  0
LINE
  5
154
330
1F
100
AcDbEntity
  8
JISSEN
  6
Continuous
 62
     3
100
AcDbLine
 10
151.2958893098333
 20
114.7387199750722
 30
0.0
 11
151.6458893098332
 21
114.7387199750722
 31
0.0
  0
LINE
  5
155
330
1F
100
AcDbEntity
  8
JISSEN
  6
Continuous
 62
     3
100
AcDbLine
 10
151.7958893098334
 20
113.5345565184742
 30
0.0
 11
151.7958893098334
 21
112.7387199750722
 31
0.0
  0
LINE
  5
156
330
1F
100
AcDbEntity
  8
JISSEN
  6
Continuous
 62
     3
100
AcDbLine
 10
166.7958893098334
 20
102.7387199750722
 30
0.0
 11
166.7958893098334
 21
109.7387199750722
 31
0.0
  0
LINE
  5
157
330
1F
100
AcDbEntity
  8
JISSEN
  6
Continuous
 62
     3
100
AcDbLine
 10
164.2958893098334
 20
109.7387199750722
 30
0.0
 11
164.2958893098334
 21
102.7387199750722
 31
0.0
  0
LINE
  5
158
330
1F
100
AcDbEntity
  8
JISSEN
  6
Continuous
 62
     3
100
AcDbLine
 10
157.2958893098335
 20
102.7387199750722
 30
0.0
 11
157.2958893098335
 21
109.7387199750722
 31
0.0
  0
LINE
  5
159
330
1F
100
AcDbEntity
  8
JISSEN
  6
Continuous
 62
     3
100
AcDbLine
 10
164.2958893098334
 20
102.7387199750722
 30
0.0
 11
157.2958893098335
 21
102.7387199750722
 31
0.0
  0
LINE
  5
15A
330
1F
100
AcDbEntity
  8
JISSEN
  6
Continuous
 62
     3
100
AcDbLine
 10
160.2958893098331
 20
103.5345565184741
 30
0.0
 11
160.2958893098331
 21
102.7387199750722
 31
0.0
  0
LINE
  5
15B
330
1F
100
AcDbEntity
  8
JISSEN
  6
Continuous
 62
     3
100
AcDbLine
 10
161.2958893098333
 20
103.5345565184741
 30
0.0
 11
161.2958893098333
 21
102.7387199750722
 31
0.0
  0
LINE
  5
15C
330
1F
100
AcDbEntity
  8
JISSEN
  6
Continuous
 62
     3
100
AcDbLine
 10
159.295889309833
 20
106.5887199750722
 30
0.0
 11
159.295889309833
 21
105.8887199750722
 31
0.0
  0
LINE
  5
15D
330
1F
100
AcDbEntity
  8
JISSEN
  6
Continuous
 62
     3
100
AcDbLine
 10
158.0917258532354
 20
105.7387199750722
 30
0.0
 11
157.2958893098335
 21
105.7387199750722
 31
0.0
  0
LINE
  5
15E
330
1F
100
AcDbEntity
  8
JISSEN
  6
Continuous
 62
     3
100
AcDbLine
 10
158.0917258532354
 20
106.7387199750722
 30
0.0
 11
157.2958893098335
 21
106.7387199750722
 31
0.0
  0
LINE
  5
15F
330
1F
100
AcDbEntity
  8
JISSEN
  6
Continuous
 62
     3
100
AcDbLine
 10
160.7958893098332
 20
107.7387199750722
 30
0.0
 11
161.1458893098331
 21
107.7387199750722
 31
0.0
  0
LINE
  5
160
330
1F
100
AcDbEntity
  8
JISSEN
  6
Continuous
 62
     3
100
AcDbLine
 10
160.7958893098332
 20
104.7387199750722
 30
0.0
 11
161.1458893098331
 21
104.7387199750722
 31
0.0
  0
LINE
  5
161
330
1F
100
AcDbEntity
  8
JISSEN
  6
Continuous
 62
     3
100
AcDbLine
 10
160.7958893098332
 20
104.7387199750722
 30
0.0
 11
160.4458893098333
 21
104.7387199750722
 31
0.0
  0
LINE
  5
162
330
1F
100
AcDbEntity
  8
JISSEN
  6
Continuous
 62
     3
100
AcDbLine
 10
160.7958893098332
 20
107.7387199750722
 30
0.0
 11
160.4458893098333
 21
107.7387199750722
 31
0.0
  0
LINE
  5
163
330
1F
100
AcDbEntity
  8
JISSEN
  6
Continuous
 62
     3
100
AcDbLine
 10
162.2958893098334
 20
106.5887199750722
 30
0.0
 11
162.2958893098334
 21
105.8887199750722
 31
0.0
  0
LINE
  5
164
330
1F
100
AcDbEntity
  8
JISSEN
  6
Continuous
 62
     3
100
AcDbLine
 10
163.500052766431
 20
106.7387199750722
 30
0.0
 11
164.2958893098334
 21
106.7387199750722
 31
0.0
  0
LINE
  5
165
330
1F
100
AcDbEntity
  8
JISSEN
  6
Continuous
 62
     3
100
AcDbLine
 10
163.500052766431
 20
105.7387199750722
 30
0.0
 11
164.2958893098334
 21
105.7387199750722
 31
0.0
  0
LINE
  5
166
330
1F
100
AcDbEntity
  8
JISSEN
  6
Continuous
 62
     3
100
AcDbLine
 10
164.2958893098334
 20
112.7387199750722
 30
0.0
 11
157.2958893098335
 21
112.7387199750722
 31
0.0
  0
LINE
  5
167
330
1F
100
AcDbEntity
  8
JISSEN
  6
Continuous
 62
     3
100
AcDbLine
 10
157.2958893098335
 20
109.7387199750722
 30
0.0
 11
164.2958893098334
 21
109.7387199750722
 31
0.0
  0
LINE
  5
168
330
1F
100
AcDbEntity
  8
JISSEN
  6
Continuous
 62
     3
100
AcDbLine
 10
160.2958893098331
 20
109.7387199750722
 30
0.0
 11
160.2958893098331
 21
108.9428834316702
 31
0.0
  0
LINE
  5
169
330
1F
100
AcDbEntity
  8
JISSEN
  6
Continuous
 62
     3
100
AcDbLine
 10
161.2958893098333
 20
108.9428834316702
 30
0.0
 11
161.2958893098333
 21
109.7387199750722
 31
0.0
  0
LINE
  5
16A
330
1F
100
AcDbEntity
  8
JISSEN
  6
Continuous
 62
     3
100
AcDbLine
 10
160.7958893098332
 20
114.7387199750722
 30
0.0
 11
161.1458893098331
 21
114.7387199750722
 31
0.0
  0
LINE
  5
16B
330
1F
100
AcDbEntity
  8
JISSEN
  6
Continuous
 62
     3
100
AcDbLine
 10
160.7958893098332
 20
114.7387199750722
 30
0.0
 11
160.4458893098333
 21
114.7387199750722
 31
0.0
  0
LINE
  5
16C
330
1F
100
AcDbEntity
  8
JISSEN
  6
Continuous
 62
     3
100
AcDbLine
 10
160.2958893098331
 20
113.5345565184742
 30
0.0
 11
160.2958893098331
 21
112.7387199750722
 31
0.0
  0
LINE
  5
16D
330
1F
100
AcDbEntity
  8
JISSEN
  6
Continuous
 62
     3
100
AcDbLine
 10
161.2958893098333
 20
113.5345565184742
 30
0.0
 11
161.2958893098333
 21
112.7387199750722
 31
0.0
  0
LINE
  5
16E
330
1F
100
AcDbEntity
  8
JISSEN
  6
Continuous
 62
     3
100
AcDbLine
 10
173.7958893098333
 20
109.7387199750722
 30
0.0
 11
173.7958893098333
 21
102.7387199750722
 31
0.0
  0
LINE
  5
16F
330
1F
100
AcDbEntity
  8
JISSEN
  6
Continuous
 62
     3
100
AcDbLine
 10
169.7958893098335
 20
103.5345565184741
 30
0.0
 11
169.7958893098335
 21
102.7387199750722
 31
0.0
  0
LINE
  5
170
330
1F
100
AcDbEntity
  8
JISSEN
  6
Continuous
 62
     3
100
AcDbLine
 10
170.7958893098332
 20
103.5345565184741
 30
0.0
 11
170.7958893098332
 21
102.7387199750722
 31
0.0
  0
LINE
  5
171
330
1F
100
AcDbEntity
  8
JISSEN
  6
Continuous
 62
     3
100
AcDbLine
 10
170.2958893098331
 20
104.7387199750722
 30
0.0
 11
169.9458893098334
 21
104.7387199750722
 31
0.0
  0
LINE
  5
172
330
1F
100
AcDbEntity
  8
JISSEN
  6
Continuous
 62
     3
100
AcDbLine
 10
170.2958893098331
 20
107.7387199750722
 30
0.0
 11
169.9458893098334
 21
107.7387199750722
 31
0.0
  0
LINE
  5
173
330
1F
100
AcDbEntity
  8
JISSEN
  6
Continuous
 62
     3
100
AcDbLine
 10
168.7958893098329
 20
106.5887199750722
 30
0.0
 11
168.7958893098329
 21
105.8887199750722
 31
0.0
  0
LINE
  5
174
330
1F
100
AcDbEntity
  8
JISSEN
  6
Continuous
 62
     3
100
AcDbLine
 10
170.2958893098331
 20
107.7387199750722
 30
0.0
 11
170.6458893098333
 21
107.7387199750722
 31
0.0
  0
LINE
  5
175
330
1F
100
AcDbEntity
  8
JISSEN
  6
Continuous
 62
     3
100
AcDbLine
 10
171.7958893098334
 20
106.5887199750722
 30
0.0
 11
171.7958893098334
 21
105.8887199750722
 31
0.0
  0
LINE
  5
176
330
1F
100
AcDbEntity
  8
JISSEN
  6
Continuous
 62
     3
100
AcDbLine
 10
170.2958893098331
 20
104.7387199750722
 30
0.0
 11
170.6458893098333
 21
104.7387199750722
 31
0.0
  0
LINE
  5
177
330
1F
100
AcDbEntity
  8
JISSEN
  6
Continuous
 62
     3
100
AcDbLine
 10
173.0000527664315
 20
106.7387199750722
 30
0.0
 11
173.7958893098333
 21
106.7387199750722
 31
0.0
  0
LINE
  5
178
330
1F
100
AcDbEntity
  8
JISSEN
  6
Continuous
 62
     3
100
AcDbLine
 10
173.0000527664315
 20
105.7387199750722
 30
0.0
 11
173.7958893098333
 21
105.7387199750722
 31
0.0
  0
LINE
  5
179
330
1F
100
AcDbEntity
  8
JISSEN
  6
Continuous
 62
     3
100
AcDbLine
 10
169.7958893098335
 20
109.7387199750722
 30
0.0
 11
169.7958893098335
 21
108.9428834316702
 31
0.0
  0
LINE
  5
17A
330
1F
100
AcDbEntity
  8
JISSEN
  6
Continuous
 62
     3
100
AcDbLine
 10
170.7958893098332
 20
108.9428834316702
 30
0.0
 11
170.7958893098332
 21
109.7387199750722
 31
0.0
  0
LINE
  5
17B
330
1F
100
AcDbEntity
  8
JISSEN
  6
Continuous
 62
     3
100
AcDbLine
 10
170.2958893098331
 20
114.7387199750722
 30
0.0
 11
169.9458893098332
 21
114.7387199750722
 31
0.0
  0
LINE
  5
17C
330
1F
100
AcDbEntity
  8
JISSEN
  6
Continuous
 62
     3
100
AcDbLine
 10
169.7958893098335
 20
113.5345565184742
 30
0.0
 11
169.7958893098335
 21
112.7387199750722
 31
0.0
  0
LINE
  5
17D
330
1F
100
AcDbEntity
  8
JISSEN
  6
Continuous
 62
     3
100
AcDbLine
 10
170.2958893098331
 20
114.7387199750722
 30
0.0
 11
170.6458893098336
 21
114.7387199750722
 31
0.0
  0
LINE
  5
17E
330
1F
100
AcDbEntity
  8
JISSEN
  6
Continuous
 62
     3
100
AcDbLine
 10
170.7958893098332
 20
113.5345565184742
 30
0.0
 11
170.7958893098332
 21
112.7387199750722
 31
0.0
  0
LINE
  5
17F
330
1F
100
AcDbEntity
  8
JISSEN
  6
Continuous
 62
     3
100
AcDbLine
 10
178.2958893098333
 20
107.5887199750722
 30
0.0
 11
178.2958893098333
 21
106.8887199750722
 31
0.0
  0
LINE
  5
180
330
1F
100
AcDbEntity
  8
JISSEN
  6
Continuous
 62
     3
100
AcDbLine
 10
179.7958893098335
 20
105.7387199750722
 30
0.0
 11
179.4458893098336
 21
105.7387199750722
 31
0.0
  0
LINE
  5
181
330
1F
100
AcDbEntity
  8
JISSEN
  6
Continuous
 62
     3
100
AcDbLine
 10
179.7958893098335
 20
105.7387199750722
 30
0.0
 11
180.145889309834
 21
105.7387199750722
 31
0.0
  0
LINE
  5
182
330
1F
100
AcDbEntity
  8
JISSEN
  6
Continuous
 62
     3
100
AcDbLine
 10
181.2958893098343
 20
107.5887199750722
 30
0.0
 11
181.2958893098343
 21
106.8887199750722
 31
0.0
  0
LINE
  5
183
330
1F
100
AcDbEntity
  8
JISSEN
  6
Continuous
 62
     3
100
AcDbLine
 10
179.7958893098335
 20
108.7387199750722
 30
0.0
 11
179.4458893098336
 21
108.7387199750722
 31
0.0
  0
LINE
  5
184
330
1F
100
AcDbEntity
  8
JISSEN
  6
Continuous
 62
     3
100
AcDbLine
 10
179.7958893098335
 20
108.7387199750722
 30
0.0
 11
180.145889309834
 21
108.7387199750722
 31
0.0
  0
LINE
  5
185
330
1F
100
AcDbEntity
  8
JISSEN
  6
Continuous
 62
     3
100
AcDbLine
 10
166.7958893098334
 20
119.7387199750722
 30
0.0
 11
173.7958893098333
 21
119.7387199750722
 31
0.0
  0
LINE
  5
186
330
1F
100
AcDbEntity
  8
JISSEN
  6
Continuous
 62
     3
100
AcDbLine
 10
167.5917258532352
 20
115.7387199750722
 30
0.0
 11
166.7958893098334
 21
115.7387199750722
 31
0.0
  0
LINE
  5
187
330
1F
100
AcDbEntity
  8
JISSEN
  6
Continuous
 62
     3
100
AcDbLine
 10
167.5917258532352
 20
116.7387199750722
 30
0.0
 11
166.7958893098334
 21
116.7387199750722
 31
0.0
  0
LINE
  5
188
330
1F
100
AcDbEntity
  8
JISSEN
  6
Continuous
 62
     3
100
AcDbLine
 10
151.2958893098333
 20
117.7387199750722
 30
0.0
 11
150.9458893098331
 21
117.7387199750722
 31
0.0
  0
LINE
  5
189
330
1F
100
AcDbEntity
  8
JISSEN
  6
Continuous
 62
     3
100
AcDbLine
 10
147.7958893098331
 20
119.7387199750722
 30
0.0
 11
154.7958893098335
 21
119.7387199750722
 31
0.0
  0
LINE
  5
18A
330
1F
100
AcDbEntity
  8
JISSEN
  6
Continuous
 62
     3
100
AcDbLine
 10
150.7958893098332
 20
119.7387199750722
 30
0.0
 11
150.7958893098332
 21
118.9428834316702
 31
0.0
  0
LINE
  5
18B
330
1F
100
AcDbEntity
  8
JISSEN
  6
Continuous
 62
     3
100
AcDbLine
 10
148.5917258532355
 20
115.7387199750722
 30
0.0
 11
147.7958893098331
 21
115.7387199750722
 31
0.0
  0
LINE
  5
18C
330
1F
100
AcDbEntity
  8
JISSEN
  6
Continuous
 62
     3
100
AcDbLine
 10
148.5917258532355
 20
116.7387199750722
 30
0.0
 11
147.7958893098331
 21
116.7387199750722
 31
0.0
  0
LINE
  5
18D
330
1F
100
AcDbEntity
  8
JISSEN
  6
Continuous
 62
     3
100
AcDbLine
 10
149.795889309833
 20
116.5887199750722
 30
0.0
 11
149.7958893098331
 21
115.8887199750722
 31
0.0
  0
LINE
  5
18E
330
1F
100
AcDbEntity
  8
JISSEN
  6
Continuous
 62
     3
100
AcDbLine
 10
151.7958893098334
 20
118.9428834316702
 30
0.0
 11
151.7958893098334
 21
119.7387199750722
 31
0.0
  0
LINE
  5
18F
330
1F
100
AcDbEntity
  8
JISSEN
  6
Continuous
 62
     3
100
AcDbLine
 10
151.2958893098333
 20
117.7387199750722
 30
0.0
 11
151.645889309833
 21
117.7387199750722
 31
0.0
  0
LINE
  5
190
330
1F
100
AcDbEntity
  8
JISSEN
  6
Continuous
 62
     3
100
AcDbLine
 10
152.7958893098336
 20
116.5887199750722
 30
0.0
 11
152.7958893098335
 21
115.8887199750722
 31
0.0
  0
LINE
  5
191
330
1F
100
AcDbEntity
  8
JISSEN
  6
Continuous
 62
     3
100
AcDbLine
 10
154.0000527664311
 20
116.7387199750722
 30
0.0
 11
154.7958893098335
 21
116.7387199750722
 31
0.0
  0
LINE
  5
192
330
1F
100
AcDbEntity
  8
JISSEN
  6
Continuous
 62
     3
100
AcDbLine
 10
154.0000527664311
 20
115.7387199750722
 30
0.0
 11
154.7958893098335
 21
115.7387199750722
 31
0.0
  0
LINE
  5
193
330
1F
100
AcDbEntity
  8
JISSEN
  6
Continuous
 62
     3
100
AcDbLine
 10
157.2958893098335
 20
119.7387199750722
 30
0.0
 11
164.2958893098334
 21
119.7387199750722
 31
0.0
  0
LINE
  5
194
330
1F
100
AcDbEntity
  8
JISSEN
  6
Continuous
 62
     3
100
AcDbLine
 10
160.2958893098331
 20
119.7387199750722
 30
0.0
 11
160.2958893098331
 21
118.9428834316702
 31
0.0
  0
LINE
  5
195
330
1F
100
AcDbEntity
  8
JISSEN
  6
Continuous
 62
     3
100
AcDbLine
 10
161.2958893098333
 20
118.9428834316702
 30
0.0
 11
161.2958893098333
 21
119.7387199750722
 31
0.0
  0
LINE
  5
196
330
1F
100
AcDbEntity
  8
JISSEN
  6
Continuous
 62
     3
100
AcDbLine
 10
159.295889309833
 20
116.5887199750722
 30
0.0
 11
159.295889309833
 21
115.8887199750722
 31
0.0
  0
LINE
  5
197
330
1F
100
AcDbEntity
  8
JISSEN
  6
Continuous
 62
     3
100
AcDbLine
 10
158.0917258532354
 20
115.7387199750722
 30
0.0
 11
157.2958893098335
 21
115.7387199750722
 31
0.0
  0
LINE
  5
198
330
1F
100
AcDbEntity
  8
JISSEN
  6
Continuous
 62
     3
100
AcDbLine
 10
158.0917258532354
 20
116.7387199750722
 30
0.0
 11
157.2958893098335
 21
116.7387199750722
 31
0.0
  0
LINE
  5
199
330
1F
100
AcDbEntity
  8
JISSEN
  6
Continuous
 62
     3
100
AcDbLine
 10
160.7958893098332
 20
117.7387199750722
 30
0.0
 11
161.1458893098331
 21
117.7387199750722
 31
0.0
  0
LINE
  5
19A
330
1F
100
AcDbEntity
  8
JISSEN
  6
Continuous
 62
     3
100
AcDbLine
 10
160.7958893098332
 20
117.7387199750722
 30
0.0
 11
160.4458893098333
 21
117.7387199750722
 31
0.0
  0
LINE
  5
19B
330
1F
100
AcDbEntity
  8
JISSEN
  6
Continuous
 62
     3
100
AcDbLine
 10
162.2958893098334
 20
116.5887199750722
 30
0.0
 11
162.2958893098334
 21
115.8887199750722
 31
0.0
  0
LINE
  5
19C
330
1F
100
AcDbEntity
  8
JISSEN
  6
Continuous
 62
     3
100
AcDbLine
 10
163.500052766431
 20
116.7387199750722
 30
0.0
 11
164.2958893098334
 21
116.7387199750722
 31
0.0
  0
LINE
  5
19D
330
1F
100
AcDbEntity
  8
JISSEN
  6
Continuous
 62
     3
100
AcDbLine
 10
163.500052766431
 20
115.7387199750722
 30
0.0
 11
164.2958893098334
 21
115.7387199750722
 31
0.0
  0
LINE
  5
19E
330
1F
100
AcDbEntity
  8
JISSEN
  6
Continuous
 62
     3
100
AcDbLine
 10
169.7958893098335
 20
119.7387199750722
 30
0.0
 11
169.7958893098335
 21
118.9428834316702
 31
0.0
  0
LINE
  5
19F
330
1F
100
AcDbEntity
  8
JISSEN
  6
Continuous
 62
     3
100
AcDbLine
 10
170.7958893098332
 20
118.9428834316702
 30
0.0
 11
170.7958893098332
 21
119.7387199750722
 31
0.0
  0
LINE
  5
1A0
330
1F
100
AcDbEntity
  8
JISSEN
  6
Continuous
 62
     3
100
AcDbLine
 10
170.2958893098331
 20
117.7387199750722
 30
0.0
 11
169.9458893098334
 21
117.7387199750722
 31
0.0
  0
LINE
  5
1A1
330
1F
100
AcDbEntity
  8
JISSEN
  6
Continuous
 62
     3
100
AcDbLine
 10
168.7958893098329
 20
116.5887199750722
 30
0.0
 11
168.7958893098329
 21
115.8887199750722
 31
0.0
  0
LINE
  5
1A2
330
1F
100
AcDbEntity
  8
JISSEN
  6
Continuous
 62
     3
100
AcDbLine
 10
170.2958893098331
 20
117.7387199750722
 30
0.0
 11
170.6458893098333
 21
117.7387199750722
 31
0.0
  0
LINE
  5
1A3
330
1F
100
AcDbEntity
  8
JISSEN
  6
Continuous
 62
     3
100
AcDbLine
 10
171.7958893098334
 20
116.5887199750722
 30
0.0
 11
171.7958893098339
 21
115.8887199750722
 31
0.0
  0
LINE
  5
1A4
330
1F
100
AcDbEntity
  8
JISSEN
  6
Continuous
 62
     3
100
AcDbLine
 10
173.0000527664315
 20
116.7387199750722
 30
0.0
 11
173.7958893098333
 21
116.7387199750722
 31
0.0
  0
LINE
  5
1A5
330
1F
100
AcDbEntity
  8
JISSEN
  6
Continuous
 62
     3
100
AcDbLine
 10
173.0000527664315
 20
115.7387199750722
 30
0.0
 11
173.7958893098333
 21
115.7387199750722
 31
0.0
  0
LINE
  5
1A6
330
1F
100
AcDbEntity
  8
JISSEN
  6
Continuous
 62
     7
100
AcDbLine
 10
226.2531281750286
 20
122.7921581548282
 30
0.0
 11
235.3340719839876
 21
123.1553959071872
 31
0.0
  0
LINE
  5
1A7
330
1F
100
AcDbEntity
  8
JISSEN
  6
Continuous
 62
     7
100
AcDbLine
 10
236.2930962133766
 20
99.8137568763629
 30
0.0
 11
226.2531281750276
 21
100.2153555978968
 31
0.0
  0
LINE
  5
1A8
330
1F
100
AcDbEntity
  8
JISSEN
  6
Continuous
 62
     7
100
AcDbLine
 10
237.7930962133776
 20
97.7537568763624
 30
0.0
 11
223.7597813831446
 21
98.2215340373703
 31
0.0
  0
LINE
  5
1A9
330
1F
100
AcDbEntity
  8
JISSEN
  6
Continuous
 62
     7
100
AcDbLine
 10
223.7597813831446
 20
124.7859797153552
 30
0.0
 11
235.2930962133776
 21
125.1704235430292
 31
0.0
  0
LINE
  5
1AA
330
1F
100
AcDbEntity
  8
JISSEN
  6
Continuous
 62
     7
100
AcDbLine
 10
225.2930962133776
 20
101.2145565566185
 30
0.0
 11
225.2930962133776
 21
121.7929571961072
 31
0.0
  0
LINE
  5
1AB
330
1F
100
AcDbEntity
  8
JISSEN
  6
Continuous
 62
     7
100
AcDbLine
 10
222.7930962133776
 20
99.2209789443494
 30
0.0
 11
222.7930962133776
 21
123.7865348083762
 31
0.0
  0
LINE
  5
1AC
330
1F
100
AcDbEntity
  8
JISSEN
  6
Continuous
 62
     7
100
AcDbLine
 10
226.3930962133776
 20
136.2387199750722
 30
0.0
 11
224.6930962133776
 21
136.2387199750722
 31
0.0
  0
LINE
  5
1AD
330
1F
100
AcDbEntity
  8
JISSEN
  6
Continuous
 62
     7
100
AcDbLine
 10
224.6930962133776
 20
141.2387199750722
 30
0.0
 11
226.3930962133776
 21
141.2387199750722
 31
0.0
  0
LINE
  5
1AE
330
1F
100
AcDbEntity
  8
JISSEN
  6
Continuous
 62
     7
100
AcDbLine
 10
231.6930962133766
 20
147.7387199750722
 30
0.0
 11
231.6930962133766
 21
129.7387199750722
 31
0.0
  0
LINE
  5
1AF
330
1F
100
AcDbEntity
  8
JISSEN
  6
Continuous
 62
     7
100
AcDbLine
 10
233.9930962133776
 20
147.7387199750722
 30
0.0
 11
233.9930962133776
 21
127.9387199750722
 31
0.0
  0
LINE
  5
1B0
330
1F
100
AcDbEntity
  8
JISSEN
  6
Continuous
 62
     7
100
AcDbLine
 10
237.1930962133766
 20
147.5387199750722
 30
0.0
 11
237.1930962133776
 21
128.5222048360812
 31
0.0
  0
LINE
  5
1B1
330
1F
100
AcDbEntity
  8
JISSEN
  6
Continuous
 62
     7
100
AcDbLine
 10
237.2930962133776
 20
121.6401205127262
 30
0.0
 11
237.2930962133776
 21
97.7704235430291
 31
0.0
  0
LINE
  5
1B2
330
1F
100
AcDbEntity
  8
JISSEN
  6
Continuous
 62
     7
100
AcDbLine
 10
236.2930962133766
 20
97.43871997507181
 30
0.0
 11
236.2930962133766
 21
89.438719975072
 31
0.0
  0
LINE
  5
1B3
330
1F
100
AcDbEntity
  8
JISSEN
  6
Continuous
 62
     7
100
AcDbLine
 10
236.2930962133766
 20
89.438719975072
 30
0.0
 11
237.7930962133776
 21
89.438719975072
 31
0.0
  0
LINE
  5
1B4
330
1F
100
AcDbEntity
  8
JISSEN
  6
Continuous
 62
     7
100
AcDbLine
 10
236.2930962133766
 20
97.8037568763624
 30
0.0
 11
236.2930962133766
 21
101.5037568763624
 31
0.0
  0
LINE
  5
1B5
330
1F
100
AcDbEntity
  8
JISSEN
  6
Continuous
 62
     7
100
AcDbLine
 10
237.7930962133776
 20
97.43871997507181
 30
0.0
 11
236.2930962133766
 21
97.43871997507181
 31
0.0
  0
LINE
  5
1B6
330
1F
100
AcDbEntity
  8
JISSEN
  6
Continuous
 62
     7
100
AcDbLine
 10
230.7930962133766
 20
102.690202406162
 30
0.0
 11
230.7930962133766
 21
120.3173113465632
 31
0.0
  0
LINE
  5
1B7
330
1F
100
AcDbEntity
  8
JISSEN
  6
Continuous
 62
     7
100
AcDbLine
 10
231.2255396110096
 20
102.1947873221397
 30
0.0
 11
236.2930962133766
 21
101.5037568763624
 31
0.0
  0
LINE
  5
1B8
330
1F
100
AcDbEntity
  8
JISSEN
  6
Continuous
 62
     7
100
AcDbLine
 10
230.7930962133766
 20
103.0037568763628
 30
0.0
 11
230.7930962133766
 21
103.2537568763625
 31
0.0
  0
LINE
  5
1B9
330
1F
100
AcDbEntity
  8
JISSEN
  6
Continuous
 62
     3
100
AcDbLine
 10
228.7930962133776
 20
108.1887199750722
 30
0.0
 11
228.7930962133776
 21
106.6887199750722
 31
0.0
  0
LINE
  5
1BA
330
1F
100
AcDbEntity
  8
JISSEN
  6
Continuous
 62
     7
100
AcDbLine
 10
231.2255396110096
 20
120.8127264305862
 30
0.0
 11
237.7930962133776
 21
121.7083023309082
 31
0.0
  0
LINE
  5
1BB
330
1F
100
AcDbEntity
  8
JISSEN
  6
Continuous
 62
     7
100
AcDbLine
 10
231.6930962133766
 20
129.7387199750722
 30
0.0
 11
233.9930962133776
 21
129.7387199750722
 31
0.0
  0
LINE
  5
1BC
330
1F
100
AcDbEntity
  8
JISSEN
  6
Continuous
 62
     7
100
AcDbLine
 10
233.9930962133776
 20
127.9387199750722
 30
0.0
 11
235.4270708095926
 21
127.9387199750722
 31
0.0
  0
LINE
  5
1BD
330
1F
100
AcDbEntity
  8
JISSEN
  6
Continuous
 62
     7
100
AcDbLine
 10
230.3930962133776
 20
143.3387199750722
 30
0.0
 11
230.3930962133776
 21
134.1387199750722
 31
0.0
  0
LINE
  5
1BE
330
1F
100
AcDbEntity
  8
JISSEN
  6
Continuous
 62
     7
100
AcDbLine
 10
230.3930962133776
 20
134.1387199750722
 30
0.0
 11
231.6930962133766
 21
134.1387199750722
 31
0.0
  0
LINE
  5
1BF
330
1F
100
AcDbEntity
  8
JISSEN
  6
Continuous
 62
     7
100
AcDbLine
 10
231.6930962133766
 20
143.3387199750722
 30
0.0
 11
230.3930962133776
 21
143.3387199750722
 31
0.0
  0
LINE
  5
1C0
330
1F
100
AcDbEntity
  8
JISSEN
  6
Continuous
 62
     7
100
AcDbLine
 10
233.9930962133776
 20
147.7387199750722
 30
0.0
 11
231.6930962133766
 21
147.7387199750722
 31
0.0
  0
LINE
  5
1C1
330
1F
100
AcDbEntity
  8
JISSEN
  6
Continuous
 62
     7
100
AcDbLine
 10
237.1930962133766
 20
147.5387199750722
 30
0.0
 11
233.9930962133776
 21
147.5387199750722
 31
0.0
  0
LINE
  5
1C2
330
1F
100
AcDbEntity
  8
NITEN
  6
PHANTOM
 62
   140
100
AcDbLine
 10
230.6930962133776
 20
147.4638462409192
 30
0.0
 11
230.6930962133776
 21
148.4387199750722
 31
0.0
  0
LINE
  5
1C3
330
1F
100
AcDbEntity
  8
JISSEN
  6
Continuous
 62
     7
100
AcDbLine
 10
240.6930962133776
 20
88.4387199750721
 30
0.0
 11
240.6930962133776
 21
148.4387199750722
 31
0.0
  0
LINE
  5
1C4
330
1F
100
AcDbEntity
  8
NITEN
  6
PHANTOM
 62
   140
100
AcDbLine
 10
219.1930962133776
 20
143.7567394597322
 30
0.0
 11
219.1930962133776
 21
90.43871997507205
 31
0.0
  0
LINE
  5
1C5
330
1F
100
AcDbEntity
  8
NITEN
  6
PHANTOM
 62
   140
100
AcDbLine
 10
216.8930965099406
 20
110.8387199750722
 30
0.0
 11
216.8930967606426
 21
94.438719975072
 31
0.0
  0
LINE
  5
1C6
330
1F
100
AcDbEntity
  8
NITEN
  6
PHANTOM
 62
   140
100
AcDbLine
 10
222.8930962133776
 20
84.938719975072
 30
0.0
 11
236.5930962133776
 21
84.938719975072
 31
0.0
  0
LINE
  5
1C7
330
1F
100
AcDbEntity
  8
NITEN
  6
PHANTOM
 62
   140
100
AcDbLine
 10
221.1930962133776
 20
86.438719975072
 30
0.0
 11
236.5930962133776
 21
86.43871997507202
 31
0.0
  0
LINE
  5
1C8
330
1F
100
AcDbEntity
  8
NITEN
  6
PHANTOM
 62
   140
100
AcDbLine
 10
221.1930962133776
 20
88.438719975072
 30
0.0
 11
236.5930962133777
 21
88.43871997507192
 31
0.0
  0
LINE
  5
1C9
330
1F
100
AcDbEntity
  8
NITEN
  6
PHANTOM
 62
   140
100
AcDbLine
 10
222.3930962133776
 20
86.438719975072
 30
0.0
 11
222.3930962133776
 21
85.43871997507191
 31
0.0
  0
LINE
  5
1CA
330
1F
100
AcDbEntity
  8
TENSEN
  6
DASHED
 62
   140
100
AcDbLine
 10
225.8930962133776
 20
87.938719975072
 30
0.0
 11
225.8930962133776
 21
85.43871997507191
 31
0.0
  0
LINE
  5
1CB
330
1F
100
AcDbEntity
  8
NITEN
  6
PHANTOM
 62
   140
100
AcDbLine
 10
216.8930967606426
 20
94.438719975072
 30
0.0
 11
217.1930967606426
 21
94.438719975072
 31
0.0
  0
LINE
  5
1CC
330
1F
100
AcDbEntity
  8
NITEN
  6
PHANTOM
 62
   140
100
AcDbLine
 10
236.5930962133776
 20
90.63871997507191
 30
0.0
 11
236.5930962133776
 21
84.938719975072
 31
0.0
  0
LINE
  5
1CD
330
1F
100
AcDbEntity
  8
NITEN
  6
PHANTOM
 62
   140
100
AcDbLine
 10
236.5930962133776
 20
90.63871997507191
 30
0.0
 11
240.6930962133776
 21
90.63871997507191
 31
0.0
  0
LINE
  5
1CE
330
1F
100
AcDbEntity
  8
NITEN
  6
PHANTOM
 62
   140
100
AcDbLine
 10
222.9002029945646
 20
147.4638462409192
 30
0.0
 11
230.6930962133776
 21
147.4638462409192
 31
0.0
  0
LINE
  5
1CF
330
1F
100
AcDbEntity
  8
NITEN
  6
PHANTOM
 62
   140
100
AcDbLine
 10
216.8930965099406
 20
110.8387199750722
 30
0.0
 11
217.1930965099406
 21
110.8387199750722
 31
0.0
  0
LINE
  5
1D0
330
1F
100
AcDbEntity
  8
NITEN
  6
PHANTOM
 62
   140
100
AcDbLine
 10
217.0430962133776
 20
124.6387199750722
 30
0.0
 11
217.1930962989836
 21
124.6387199750722
 31
0.0
  0
LINE
  5
1D1
330
1F
100
AcDbEntity
  8
NITEN
  6
PHANTOM
 62
   140
100
AcDbLine
 10
217.0430962133776
 20
125.8387199750722
 30
0.0
 11
217.1930962806396
 21
125.8387199750722
 31
0.0
  0
LINE
  5
1D2
330
1F
100
AcDbEntity
  8
NITEN
  6
PHANTOM
 62
   140
100
AcDbLine
 10
217.0430962133776
 20
125.8387199750722
 30
0.0
 11
217.0430962133776
 21
124.6387199750722
 31
0.0
  0
LINE
  5
1D3
330
1F
100
AcDbEntity
  8
NITEN
  6
PHANTOM
 62
   140
100
AcDbLine
 10
217.1930962133776
 20
144.2970464233962
 30
0.0
 11
217.1930962133776
 21
90.438719975072
 31
0.0
  0
LINE
  5
1D4
330
1F
100
AcDbEntity
  8
NITEN
  6
PHANTOM
 62
   140
100
AcDbLine
 10
217.0430962133776
 20
136.4887199750722
 30
0.0
 11
217.0430962133776
 21
130.1821499583932
 31
0.0
  0
LINE
  5
1D5
330
1F
100
AcDbEntity
  8
NITEN
  6
PHANTOM
 62
   140
100
AcDbLine
 10
217.0430962133776
 20
130.1821499583932
 30
0.0
 11
217.1946975789566
 21
130.1821499583932
 31
0.0
  0
LINE
  5
1D6
330
1F
100
AcDbEntity
  8
NITEN
  6
PHANTOM
 62
   140
100
AcDbLine
 10
217.0430962133776
 20
136.4887199750722
 30
0.0
 11
217.1930962133776
 21
136.4887199750722
 31
0.0
  0
LINE
  5
1D7
330
1F
100
AcDbEntity
  8
NITEN
  6
PHANTOM
 62
   140
100
AcDbLine
 10
222.5466496039706
 20
147.3173996315123
 30
0.0
 11
219.3395428227846
 21
144.1102928503262
 31
0.0
  0
LINE
  5
1D8
330
1F
100
AcDbEntity
  8
NITEN
  6
PHANTOM
 62
   140
100
AcDbLine
 10
240.6930962133776
 20
149.4387199750722
 30
0.0
 11
222.3347697650536
 21
149.4387199750722
 31
0.0
  0
LINE
  5
1D9
330
1F
100
AcDbEntity
  8
JISSEN
  6
PHANTOM
 62
   140
100
AcDbLine
 10
185.7958893098326
 20
30.33764558326022
 30
0.0
 11
183.7958893098336
 21
30.33764558326022
 31
0.0
  0
LINE
  5
1DA
330
1F
100
AcDbEntity
  8
JISSEN
  6
PHANTOM
 62
   140
100
AcDbLine
 10
135.795889309833
 20
30.33764558326022
 30
0.0
 11
135.795889309833
 21
50.33764558326021
 31
0.0
  0
LINE
  5
1DB
330
1F
100
AcDbEntity
  8
JISSEN
  6
PHANTOM
 62
   140
100
AcDbLine
 10
139.795889309833
 20
54.33764558326021
 30
0.0
 11
181.795889309833
 21
54.33764558326021
 31
0.0
  0
LINE
  5
1DC
330
1F
100
AcDbEntity
  8
JISSEN
  6
PHANTOM
 62
   140
100
AcDbLine
 10
153.7958893098328
 20
48.2376455832602
 30
0.0
 11
167.7958893098331
 21
48.2376455832602
 31
0.0
  0
LINE
  5
1DD
330
1F
100
AcDbEntity
  8
JISSEN
  6
PHANTOM
 62
   140
100
AcDbLine
 10
153.795889309833
 20
45.33764558326021
 30
0.0
 11
167.795889309833
 21
45.33764558326021
 31
0.0
  0
LINE
  5
1DE
330
1F
100
AcDbEntity
  8
JISSEN
  6
PHANTOM
 62
   140
100
AcDbLine
 10
173.7958893098331
 20
42.23764558326022
 30
0.0
 11
173.7958893098331
 21
34.43764558326022
 31
0.0
  0
LINE
  5
1DF
330
1F
100
AcDbEntity
  8
JISSEN
  6
PHANTOM
 62
   140
100
AcDbLine
 10
170.795889309833
 20
42.33764558326021
 30
0.0
 11
170.795889309833
 21
35.93764558326022
 31
0.0
  0
LINE
  5
1E0
330
1F
100
AcDbEntity
  8
JISSEN
  6
PHANTOM
 62
   140
100
AcDbLine
 10
185.7958893098326
 20
50.33764558326021
 30
0.0
 11
185.7958893098326
 21
30.33764558326022
 31
0.0
  0
ARC
  5
1E1
330
1F
100
AcDbEntity
  8
1
  6
Continuous
 62
     7
100
AcDbCircle
 10
292.3908405243325
 20
219.3902823973006
 30
0.0
 40
2.219999999999999
100
AcDbArc
 50
-90.0
 51
0.0
  0
ARC
  5
1E2
330
1F
100
AcDbEntity
  8
1
  6
Continuous
 62
     7
100
AcDbCircle
 10
292.3908405243325
 20
223.8902823973006
 30
0.0
 40
2.220000000000027
100
AcDbArc
 50
0.0
 51
90.0
  0
ARC
  5
1E3
330
1F
100
AcDbEntity
  8
1
  6
Continuous
 62
     7
100
AcDbCircle
 10
270.3908405243325
 20
247.1402823973007
 30
0.0
 40
3.0
100
AcDbArc
 50
0.0
 51
90.0
  0
ARC
  5
1E4
330
1F
100
AcDbEntity
  8
1
  6
Continuous
 62
     7
100
AcDbCircle
 10
270.3908405243325
 20
196.1402823973006
 30
0.0
 40
3.0
100
AcDbArc
 50
-90.0
 51
0.0
  0
ARC
  5
1E5
330
1F
100
AcDbEntity
  8
1
  6
Continuous
 62
     7
100
AcDbCircle
 10
70.39084052433239
 20
247.1402823973007
 30
0.0
 40
2.999999999999915
100
AcDbArc
 50
90.0
 51
180.0
  0
ARC
  5
1E6
330
1F
100
AcDbEntity
  8
1
  6
Continuous
 62
     7
100
AcDbCircle
 10
70.39084052433239
 20
196.1402823973006
 30
0.0
 40
3.0
100
AcDbArc
 50
180.0
 51
-90.0
  0
ARC
  5
1E7
330
1F
100
AcDbEntity
  8
1
  6
Continuous
 62
     7
100
AcDbCircle
 10
270.3908405243325
 20
247.1402823973007
 30
0.0
 40
3.0
100
AcDbArc
 50
0.0
 51
90.0
  0
ARC
  5
1E8
330
1F
100
AcDbEntity
  8
1
  6
Continuous
 62
     7
100
AcDbCircle
 10
270.3908405243325
 20
196.1402823973006
 30
0.0
 40
3.0
100
AcDbArc
 50
-90.0
 51
0.0
  0
LINE
  5
1E9
330
1F
100
AcDbEntity
  8
JISSEN
  6
Continuous
 62
     7
100
AcDbLine
 10
37.47788908765674
 20
217.168146442301
 30
0.0
 11
37.47788909579158
 21
217.168146449577
 31
0.0
  0
ARC
  5
1EA
330
1F
100
AcDbEntity
  8
JISSEN
  6
Continuous
 62
     7
100
AcDbCircle
 10
33.47788908765674
 20
221.6402823973006
 30
0.0
 40
6.000000000000016
100
AcDbArc
 50
48.18968510422154
 51
180.0
  0
ARC
  5
1EB
330
1F
100
AcDbEntity
  8
JISSEN
  6
Continuous
 62
     7
100
AcDbCircle
 10
33.47788908765674
 20
221.6402823973006
 30
0.0
 40
6.000000000000032
100
AcDbArc
 50
180.0
 51
-48.18968510422154
  0
LINE
  5
1EC
330
1F
100
AcDbEntity
  8
JISSEN
  6
Continuous
 62
     7
100
AcDbLine
 10
37.47788909579158
 20
226.1124183450241
 30
0.0
 11
37.47788908765674
 21
226.1124183523002
 31
0.0
  0
LINE
  5
1ED
330
1F
100
AcDbEntity
  8
JISSEN
  6
Continuous
 62
     7
100
AcDbLine
 10
370.0978890876569
 20
226.1124183523002
 30
0.0
 11
370.0978890795221
 21
226.1124183450241
 31
0.0
  0
ARC
  5
1EE
330
1F
100
AcDbEntity
  8
JISSEN
  6
Continuous
 62
     7
100
AcDbCircle
 10
374.0978890876568
 20
221.6402823973006
 30
0.0
 40
5.999999999999978
100
AcDbArc
 50
-131.8103148957781
 51
0.0
  0
ARC
  5
1EF
330
1F
100
AcDbEntity
  8
JISSEN
  6
Continuous
 62
     7
100
AcDbCircle
 10
374.0978890876568
 20
221.6402823973006
 30
0.0
 40
6.000000000000057
100
AcDbArc
 50
0.0
 51
131.8103148957781
  0
LINE
  5
1F0
330
1F
100
AcDbEntity
  8
JISSEN
  6
Continuous
 62
     7
100
AcDbLine
 10
370.0978890795221
 20
217.168146449577
 30
0.0
 11
370.0978890876569
 21
217.168146442301
 31
0.0
  0
ARC
  5
1F1
330
1F
100
AcDbEntity
  8
1
  6
Continuous
 62
     7
100
AcDbCircle
 10
232.1698052196854
 20
140.7387199750722
 30
0.0
 40
5.776709006307836
100
AcDbArc
 50
159.7438419995852
 51
-159.7438419995852
  0
ARC
  5
1F2
330
1F
100
AcDbEntity
  8
1
  6
Continuous
 62
     7
100
AcDbCircle
 10
232.1698052196854
 20
136.7387199750722
 30
0.0
 40
5.776709006307836
100
AcDbArc
 50
159.7438419995852
 51
-159.7438419995852
  0
ARC
  5
1F3
330
1F
100
AcDbEntity
  8
JISSEN
  6
Continuous
 62
     7
100
AcDbCircle
 10
160.7958893098332
 20
139.2387199750722
 30
0.0
 40
6.05000000000005
100
AcDbArc
 50
137.9775693708297
 51
42.02243062917103
  0
ARC
  5
1F4
330
1F
100
AcDbEntity
  8
JISSEN
  6
Continuous
 62
     7
100
AcDbCircle
 10
178.7958893098332
 20
93.2387199750721
 30
0.0
 40
5.0
100
AcDbArc
 50
-90.0
 51
0.0
  0
ARC
  5
1F5
330
1F
100
AcDbEntity
  8
JISSEN
  6
Continuous
 62
     7
100
AcDbCircle
 10
142.7958893098332
 20
93.2387199750721
 30
0.0
 40
5.0
100
AcDbArc
 50
180.0
 51
-90.0
  0
ARC
  5
1F6
330
1F
100
AcDbEntity
  8
JISSEN
  6
Continuous
 62
     7
100
AcDbCircle
 10
172.2958893098332
 20
138.7387199750722
 30
0.0
 40
11.5000000000004
100
AcDbArc
 50
0.0
 51
55.69884700000127
  0
ARC
  5
1F7
330
1F
100
AcDbEntity
  8
JISSEN
  6
Continuous
 62
     7
100
AcDbCircle
 10
172.7958893098332
 20
138.5387199750722
 30
0.0
 40
10.80000000000001
100
AcDbArc
 50
-90.0
 51
54.56905500000104
  0
ARC
  5
1F8
330
1F
100
AcDbEntity
  8
JISSEN
  6
Continuous
 62
     7
100
AcDbCircle
 10
172.7958893098332
 20
138.5387199750722
 30
0.0
 40
9.0
100
AcDbArc
 50
-90.0
 51
90.0
  0
ARC
  5
1F9
330
1F
100
AcDbEntity
  8
JISSEN
  6
Continuous
 62
     7
100
AcDbCircle
 10
148.7958893098332
 20
138.5387199750722
 30
0.0
 40
9.0
100
AcDbArc
 50
90.0
 51
-90.0
  0
ARC
  5
1FA
330
1F
100
AcDbEntity
  8
JISSEN
  6
Continuous
 62
     7
100
AcDbCircle
 10
148.7958893098332
 20
138.5387199750722
 30
0.0
 40
10.80000000000028
100
AcDbArc
 50
125.430944999999
 51
-90.0
  0
ARC
  5
1FB
330
1F
100
AcDbEntity
  8
JISSEN
  6
Continuous
 62
     7
100
AcDbCircle
 10
149.2958893098332
 20
138.7387199750722
 30
0.0
 40
11.50000000000034
100
AcDbArc
 50
124.3011529999992
 51
180.0
  0
ARC
  5
1FC
330
1F
100
AcDbEntity
  8
JISSEN
  6
Continuous
 62
     7
100
AcDbCircle
 10
236.2930962133776
 20
127.4387199750722
 30
0.0
 40
0.9999999999999858
100
AcDbArc
 50
90.0
 51
180.0
  0
ARC
  5
1FD
330
1F
100
AcDbEntity
  8
JISSEN
  6
Continuous
 62
     7
100
AcDbCircle
 10
236.2930962133776
 20
123.4387199750722
 30
0.0
 40
1.0
100
AcDbArc
 50
180.0
 51
-90.0
  0
ARC
  5
1FE
330
1F
100
AcDbEntity
  8
JISSEN
  6
Continuous
 62
     7
100
AcDbCircle
 10
237.4930962133776
 20
122.1387199750722
 30
0.0
 40
0.299999999999983
100
AcDbArc
 50
0.0
 51
90.0
  0
ARC
  5
1FF
330
1F
100
AcDbEntity
  8
JISSEN
  6
Continuous
 62
     7
100
AcDbCircle
 10
236.7930962133776
 20
129.4387199750722
 30
0.0
 40
1.0
100
AcDbArc
 50
-90.0
 51
0.0
  0
ARC
  5
200
330
1F
100
AcDbEntity
  8
JISSEN
  6
Continuous
 62
     7
100
AcDbCircle
 10
156.0458893098332
 20
123.9887199750722
 30
0.0
 40
1.0
100
AcDbArc
 50
90.0
 51
180.0
  0
ARC
  5
201
330
1F
100
AcDbEntity
  8
JISSEN
  6
Continuous
 62
     7
100
AcDbCircle
 10
156.0458893098332
 20
123.9887199750722
 30
0.0
 40
1.0
100
AcDbArc
 50
0.0
 51
90.0
  0
ARC
  5
202
330
1F
100
AcDbEntity
  8
JISSEN
  6
Continuous
 62
     7
100
AcDbCircle
 10
165.5458893098331
 20
123.9887199750722
 30
0.0
 40
1.0
100
AcDbArc
 50
90.0
 51
180.0
  0
ARC
  5
203
330
1F
100
AcDbEntity
  8
JISSEN
  6
Continuous
 62
     7
100
AcDbCircle
 10
165.5458893098331
 20
123.9887199750722
 30
0.0
 40
1.000000000000114
100
AcDbArc
 50
0.0
 51
90.0
  0
ARC
  5
204
330
1F
100
AcDbEntity
  8
JISSEN
  6
Continuous
 62
     7
100
AcDbCircle
 10
175.0458893098332
 20
121.9887199750722
 30
0.0
 40
1.0
100
AcDbArc
 50
90.0
 51
180.0
  0
ARC
  5
205
330
1F
100
AcDbEntity
  8
JISSEN
  6
Continuous
 62
     7
100
AcDbCircle
 10
175.0458893098332
 20
121.9887199750722
 30
0.0
 40
1.0
100
AcDbArc
 50
0.0
 51
90.0
  0
ARC
  5
206
330
1F
100
AcDbEntity
  8
JISSEN
  6
Continuous
 62
     7
100
AcDbCircle
 10
175.0458893098332
 20
100.4887199750721
 30
0.0
 40
1.000000000000114
100
AcDbArc
 50
180.0
 51
-90.0
  0
ARC
  5
207
330
1F
100
AcDbEntity
  8
JISSEN
  6
Continuous
 62
     7
100
AcDbCircle
 10
175.0458893098332
 20
100.4887199750721
 30
0.0
 40
1.0
100
AcDbArc
 50
-90.0
 51
0.0
  0
ARC
  5
208
330
1F
100
AcDbEntity
  8
JISSEN
  6
Continuous
 62
     7
100
AcDbCircle
 10
165.5458893098331
 20
98.4887199750721
 30
0.0
 40
1.0
100
AcDbArc
 50
-90.0
 51
0.0
  0
ARC
  5
209
330
1F
100
AcDbEntity
  8
JISSEN
  6
Continuous
 62
     7
100
AcDbCircle
 10
165.5458893098331
 20
98.4887199750721
 30
0.0
 40
0.9999999999998863
100
AcDbArc
 50
180.0
 51
-90.0
  0
ARC
  5
20A
330
1F
100
AcDbEntity
  8
JISSEN
  6
Continuous
 62
     7
100
AcDbCircle
 10
156.0458893098332
 20
98.4887199750721
 30
0.0
 40
1.0
100
AcDbArc
 50
-90.0
 51
0.0
  0
ARC
  5
20B
330
1F
100
AcDbEntity
  8
JISSEN
  6
Continuous
 62
     7
100
AcDbCircle
 10
156.0458893098332
 20
98.4887199750721
 30
0.0
 40
1.0
100
AcDbArc
 50
180.0
 51
-90.0
  0
ARC
  5
20C
330
1F
100
AcDbEntity
  8
JISSEN
  6
Continuous
 62
     7
100
AcDbCircle
 10
146.5458893098332
 20
100.4887199750721
 30
0.0
 40
1.0
100
AcDbArc
 50
-90.0
 51
0.0
  0
ARC
  5
20D
330
1F
100
AcDbEntity
  8
JISSEN
  6
Continuous
 62
     7
100
AcDbCircle
 10
146.5458893098332
 20
100.4887199750721
 30
0.0
 40
1.0
100
AcDbArc
 50
180.0
 51
-90.0
  0
ARC
  5
20E
330
1F
100
AcDbEntity
  8
JISSEN
  6
Continuous
 62
     7
100
AcDbCircle
 10
146.5458893098332
 20
121.9887199750722
 30
0.0
 40
1.0
100
AcDbArc
 50
90.0
 51
180.0
  0
ARC
  5
20F
330
1F
100
AcDbEntity
  8
JISSEN
  6
Continuous
 62
     7
100
AcDbCircle
 10
146.5458893098332
 20
121.9887199750722
 30
0.0
 40
1.0
100
AcDbArc
 50
0.0
 51
90.0
  0
ARC
  5
210
330
1F
100
AcDbEntity
  8
JISSEN
  6
Continuous
 62
     7
100
AcDbCircle
 10
147.5458893098332
 20
111.2387199750722
 30
0.0
 40
1.0
100
AcDbArc
 50
-90.0
 51
90.0
  0
ARC
  5
211
330
1F
100
AcDbEntity
  8
JISSEN
  6
Continuous
 62
     7
100
AcDbCircle
 10
155.0458893098332
 20
111.2387199750722
 30
0.0
 40
1.0
100
AcDbArc
 50
90.0
 51
-90.0
  0
ARC
  5
212
330
1F
100
AcDbEntity
  8
JISSEN
  6
Continuous
 62
     7
100
AcDbCircle
 10
157.0458893098332
 20
111.2387199750722
 30
0.0
 40
1.0
100
AcDbArc
 50
-90.0
 51
90.0
  0
ARC
  5
213
330
1F
100
AcDbEntity
  8
JISSEN
  6
Continuous
 62
     7
100
AcDbCircle
 10
164.5458893098332
 20
111.2387199750722
 30
0.0
 40
1.0
100
AcDbArc
 50
90.0
 51
-90.0
  0
ARC
  5
214
330
1F
100
AcDbEntity
  8
JISSEN
  6
Continuous
 62
     7
100
AcDbCircle
 10
166.5458893098332
 20
111.2387199750722
 30
0.0
 40
1.0
100
AcDbArc
 50
-90.0
 51
90.0
  0
ARC
  5
215
330
1F
100
AcDbEntity
  8
JISSEN
  6
Continuous
 62
     7
100
AcDbCircle
 10
174.0458893098332
 20
111.2387199750722
 30
0.0
 40
1.0
100
AcDbArc
 50
90.0
 51
-90.00000000000651
  0
ARC
  5
216
330
1F
100
AcDbEntity
  8
JISSEN
  6
Continuous
 62
     7
100
AcDbCircle
 10
139.7958893098332
 20
120.2387199750722
 30
0.0
 40
1.5
100
AcDbArc
 50
90.0
 51
180.0
  0
ARC
  5
217
330
1F
100
AcDbEntity
  8
JISSEN
  6
Continuous
 62
     7
100
AcDbCircle
 10
139.7958893098332
 20
102.2387199750721
 30
0.0
 40
1.5
100
AcDbArc
 50
180.0
 51
-90.0
  0
ARC
  5
218
330
1F
100
AcDbEntity
  8
JISSEN
  6
Continuous
 62
     7
100
AcDbCircle
 10
181.7958893098332
 20
120.2387199750722
 30
0.0
 40
1.500000000000398
100
AcDbArc
 50
0.0
 51
90.0
  0
ARC
  5
219
330
1F
100
AcDbEntity
  8
JISSEN
  6
Continuous
 62
     7
100
AcDbCircle
 10
181.7958893098332
 20
102.2387199750721
 30
0.0
 40
1.5
100
AcDbArc
 50
-90.0
 51
0.0
  0
ARC
  5
21A
330
1F
100
AcDbEntity
  8
JISSEN
  6
Continuous
 62
     7
100
AcDbCircle
 10
139.2958893098332
 20
119.9887199750722
 30
0.0
 40
0.5
100
AcDbArc
 50
90.0
 51
180.0
  0
ARC
  5
21B
330
1F
100
AcDbEntity
  8
JISSEN
  6
Continuous
 62
     7
100
AcDbCircle
 10
139.2958893098332
 20
102.4887199750721
 30
0.0
 40
0.4999999999998863
100
AcDbArc
 50
180.0
 51
-90.0
  0
ARC
  5
21C
330
1F
100
AcDbEntity
  8
JISSEN
  6
Continuous
 62
     7
100
AcDbCircle
 10
182.2958893098336
 20
102.4887199750721
 30
0.0
 40
0.5
100
AcDbArc
 50
-90.0
 51
0.0
  0
ARC
  5
21D
330
1F
100
AcDbEntity
  8
JISSEN
  6
Continuous
 62
     7
100
AcDbCircle
 10
182.2958893098336
 20
119.9887199750722
 30
0.0
 40
0.5
100
AcDbArc
 50
0.0
 51
90.0
  0
ARC
  5
21E
330
1F
100
AcDbEntity
  8
NITEN
  6
PHANTOM
 62
   140
100
AcDbCircle
 10
178.7958893098332
 20
93.2387199750721
 30
0.0
 40
7.0
100
AcDbArc
 50
-90.0
 51
0.0
  0
ARC
  5
21F
330
1F
100
AcDbEntity
  8
NITEN
  6
PHANTOM
 62
   140
100
AcDbCircle
 10
142.7958893098332
 20
93.2387199750721
 30
0.0
 40
7.0
100
AcDbArc
 50
180.0
 51
-90.0
  0
ARC
  5
220
330
1F
100
AcDbEntity
  8
NITEN
  6
PHANTOM
 62
   140
100
AcDbCircle
 10
147.5458893098331
 20
85.238719975072
 30
0.0
 40
0.5
100
AcDbArc
 50
180.0
 51
-90.0
  0
ARC
  5
221
330
1F
100
AcDbEntity
  8
NITEN
  6
PHANTOM
 62
   140
100
AcDbCircle
 10
174.0458893098331
 20
85.238719975072
 30
0.0
 40
0.5
100
AcDbArc
 50
-90.0
 51
0.0
  0
ARC
  5
222
330
1F
100
AcDbEntity
  8
NITEN
  6
PHANTOM
 62
   140
100
AcDbCircle
 10
145.7958893098332
 20
139.2387199750722
 30
0.0
 40
10.0
100
AcDbArc
 50
90.0
 51
180.0
  0
ARC
  5
223
330
1F
100
AcDbEntity
  8
JISSEN
  6
Continuous
 62
     3
100
AcDbCircle
 10
143.0798049813334
 20
116.5226356465722
 30
0.0
 40
0.9585879816150338
100
AcDbArc
 50
166.9724583394327
 51
-76.97245833942061
  0
ARC
  5
224
330
1F
100
AcDbEntity
  8
JISSEN
  6
Continuous
 62
     3
100
AcDbCircle
 10
140.5119736383334
 20
116.5226356465722
 30
0.0
 40
0.9585879816149785
100
AcDbArc
 50
-103.0275416605794
 51
13.0275416605673
  0
ARC
  5
225
330
1F
100
AcDbEntity
  8
JISSEN
  6
Continuous
 62
     3
100
AcDbCircle
 10
140.5119736383334
 20
113.9548043035722
 30
0.0
 40
0.9585879816150338
100
AcDbArc
 50
-13.0275416605673
 51
103.0275416605794
  0
ARC
  5
226
330
1F
100
AcDbEntity
  8
JISSEN
  6
Continuous
 62
     3
100
AcDbCircle
 10
143.0798049813334
 20
113.9548043035722
 30
0.0
 40
0.9585879816149785
100
AcDbArc
 50
76.97245833942061
 51
-166.9724583394327
  0
ARC
  5
227
330
1F
100
AcDbEntity
  8
NITEN
  6
PHANTOM
 62
   140
100
AcDbCircle
 10
175.7958893098331
 20
139.2387199750722
 30
0.0
 40
10.00000000000051
100
AcDbArc
 50
0.0
 51
90.0
  0
ARC
  5
228
330
1F
100
AcDbEntity
  8
JISSEN
  6
Continuous
 62
     3
100
AcDbCircle
 10
150.0119736383333
 20
114.9548043035722
 30
0.0
 40
0.9585879816150338
100
AcDbArc
 50
-13.0275416605673
 51
103.0275416605811
  0
ARC
  5
229
330
1F
100
AcDbEntity
  8
JISSEN
  6
Continuous
 62
     3
100
AcDbCircle
 10
152.5798049813333
 20
114.9548043035722
 30
0.0
 40
0.9585879816149849
100
AcDbArc
 50
76.97245833941895
 51
-166.9724583394327
  0
ARC
  5
22A
330
1F
100
AcDbEntity
  8
JISSEN
  6
Continuous
 62
     3
100
AcDbCircle
 10
169.011973638333
 20
114.9548043035722
 30
0.0
 40
0.9585879816151446
100
AcDbArc
 50
-13.02754166056577
 51
103.0275416605744
  0
ARC
  5
22B
330
1F
100
AcDbEntity
  8
JISSEN
  6
Continuous
 62
     3
100
AcDbCircle
 10
171.5798049813337
 20
114.9548043035722
 30
0.0
 40
0.9585879816149849
100
AcDbArc
 50
76.97245833941895
 51
-166.9724583394327
  0
ARC
  5
22C
330
1F
100
AcDbEntity
  8
JISSEN
  6
Continuous
 62
     3
100
AcDbCircle
 10
159.5119736383331
 20
114.9548043035722
 30
0.0
 40
0.9585879816151168
100
AcDbArc
 50
-13.02754166056615
 51
103.0275416605744
  0
ARC
  5
22D
330
1F
100
AcDbEntity
  8
JISSEN
  6
Continuous
 62
     3
100
AcDbCircle
 10
162.0798049813332
 20
114.9548043035722
 30
0.0
 40
0.9585879816149785
100
AcDbArc
 50
76.97245833942061
 51
-166.9724583394327
  0
ARC
  5
22E
330
1F
100
AcDbEntity
  8
JISSEN
  6
Continuous
 62
     3
100
AcDbCircle
 10
150.0119736383333
 20
107.5226356465722
 30
0.0
 40
0.9585879816150041
100
AcDbArc
 50
-103.027541660586
 51
13.02754166057151
  0
ARC
  5
22F
330
1F
100
AcDbEntity
  8
JISSEN
  6
Continuous
 62
     3
100
AcDbCircle
 10
150.0119736383333
 20
104.9548043035722
 30
0.0
 40
0.9585879816147293
100
AcDbArc
 50
-13.02754166057151
 51
103.0275416605562
  0
ARC
  5
230
330
1F
100
AcDbEntity
  8
JISSEN
  6
Continuous
 62
     3
100
AcDbCircle
 10
152.5798049813333
 20
107.5226356465722
 30
0.0
 40
0.9585879816152276
100
AcDbArc
 50
166.9724583394354
 51
-76.97245833941398
  0
ARC
  5
231
330
1F
100
AcDbEntity
  8
JISSEN
  6
Continuous
 62
     3
100
AcDbCircle
 10
152.5798049813333
 20
104.9548043035722
 30
0.0
 40
0.9585879816148888
100
AcDbArc
 50
76.97245833944378
 51
-166.9724583394354
  0
ARC
  5
232
330
1F
100
AcDbEntity
  8
JISSEN
  6
Continuous
 62
     3
100
AcDbCircle
 10
162.0798049813332
 20
107.5226356465722
 30
0.0
 40
0.9585879816150338
100
AcDbArc
 50
166.9724583394327
 51
-76.97245833942061
  0
ARC
  5
233
330
1F
100
AcDbEntity
  8
JISSEN
  6
Continuous
 62
     3
100
AcDbCircle
 10
162.0798049813332
 20
104.9548043035722
 30
0.0
 40
0.9585879816149785
100
AcDbArc
 50
76.97245833942061
 51
-166.9724583394327
  0
ARC
  5
234
330
1F
100
AcDbEntity
  8
JISSEN
  6
Continuous
 62
     3
100
AcDbCircle
 10
159.5119736383331
 20
107.5226356465722
 30
0.0
 40
0.9585879816149593
100
AcDbArc
 50
-103.0275416605744
 51
13.02754166056615
  0
ARC
  5
235
330
1F
100
AcDbEntity
  8
JISSEN
  6
Continuous
 62
     3
100
AcDbCircle
 10
159.5119736383331
 20
104.9548043035722
 30
0.0
 40
0.9585879816151168
100
AcDbArc
 50
-13.02754166056615
 51
103.0275416605744
  0
ARC
  5
236
330
1F
100
AcDbEntity
  8
JISSEN
  6
Continuous
 62
     3
100
AcDbCircle
 10
169.011973638333
 20
107.5226356465722
 30
0.0
 40
0.9585879816149593
100
AcDbArc
 50
-103.0275416605744
 51
13.02754166056309
  0
ARC
  5
237
330
1F
100
AcDbEntity
  8
JISSEN
  6
Continuous
 62
     3
100
AcDbCircle
 10
169.011973638333
 20
104.9548043035722
 30
0.0
 40
0.9585879816153383
100
AcDbArc
 50
-13.02754166056309
 51
103.0275416605744
  0
ARC
  5
238
330
1F
100
AcDbEntity
  8
JISSEN
  6
Continuous
 62
     3
100
AcDbCircle
 10
171.5798049813337
 20
107.5226356465722
 30
0.0
 40
0.9585879816153107
100
AcDbArc
 50
166.9724583394365
 51
-76.97245833944874
  0
ARC
  5
239
330
1F
100
AcDbEntity
  8
JISSEN
  6
Continuous
 62
     3
100
AcDbCircle
 10
171.5798049813337
 20
104.9548043035722
 30
0.0
 40
0.9585879816148696
100
AcDbArc
 50
76.97245833944874
 51
-166.9724583394365
  0
ARC
  5
23A
330
1F
100
AcDbEntity
  8
JISSEN
  6
Continuous
 62
     3
100
AcDbCircle
 10
181.0798049813341
 20
108.5226356465722
 30
0.0
 40
0.9585879816150338
100
AcDbArc
 50
166.9724583394327
 51
-76.97245833941895
  0
ARC
  5
23B
330
1F
100
AcDbEntity
  8
JISSEN
  6
Continuous
 62
     3
100
AcDbCircle
 10
178.5119736383335
 20
108.5226356465722
 30
0.0
 40
0.9585879816149785
100
AcDbArc
 50
-103.0275416605794
 51
13.0275416605673
  0
ARC
  5
23C
330
1F
100
AcDbEntity
  8
JISSEN
  6
Continuous
 62
     3
100
AcDbCircle
 10
181.0798049813341
 20
105.9548043035722
 30
0.0
 40
0.9585879816149849
100
AcDbArc
 50
76.97245833941895
 51
-166.9724583394327
  0
ARC
  5
23D
330
1F
100
AcDbEntity
  8
JISSEN
  6
Continuous
 62
     3
100
AcDbCircle
 10
178.5119736383335
 20
105.9548043035722
 30
0.0
 40
0.9585879816150338
100
AcDbArc
 50
-13.0275416605673
 51
103.0275416605794
  0
ARC
  5
23E
330
1F
100
AcDbEntity
  8
JISSEN
  6
Continuous
 62
     3
100
AcDbCircle
 10
150.0119736383333
 20
117.5226356465722
 30
0.0
 40
0.9585879816150041
100
AcDbArc
 50
-103.027541660586
 51
13.02754166057151
  0
ARC
  5
23F
330
1F
100
AcDbEntity
  8
JISSEN
  6
Continuous
 62
     3
100
AcDbCircle
 10
152.5798049813333
 20
117.5226356465722
 30
0.0
 40
0.9585879816152276
100
AcDbArc
 50
166.9724583394354
 51
-76.97245833941398
  0
ARC
  5
240
330
1F
100
AcDbEntity
  8
JISSEN
  6
Continuous
 62
     3
100
AcDbCircle
 10
162.0798049813332
 20
117.5226356465722
 30
0.0
 40
0.9585879816150338
100
AcDbArc
 50
166.9724583394327
 51
-76.97245833942061
  0
ARC
  5
241
330
1F
100
AcDbEntity
  8
JISSEN
  6
Continuous
 62
     3
100
AcDbCircle
 10
159.5119736383331
 20
117.5226356465722
 30
0.0
 40
0.9585879816149593
100
AcDbArc
 50
-103.0275416605744
 51
13.02754166056615
  0
ARC
  5
242
330
1F
100
AcDbEntity
  8
JISSEN
  6
Continuous
 62
     3
100
AcDbCircle
 10
169.011973638333
 20
117.5226356465722
 30
0.0
 40
0.9585879816149593
100
AcDbArc
 50
-103.0275416605744
 51
13.02754166056309
  0
ARC
  5
243
330
1F
100
AcDbEntity
  8
JISSEN
  6
Continuous
 62
     3
100
AcDbCircle
 10
171.5798049813337
 20
117.5226356465722
 30
0.0
 40
0.9585879816153107
100
AcDbArc
 50
166.9724583394365
 51
-76.97245833944874
  0
ARC
  5
244
330
1F
100
AcDbEntity
  8
JISSEN
  6
Continuous
 62
     7
100
AcDbCircle
 10
226.2930962133766
 20
101.2145565566185
 30
0.0
 40
0.9999999999990052
100
AcDbArc
 50
180.0
 51
-92.29061004264622
  0
ARC
  5
245
330
1F
100
AcDbEntity
  8
JISSEN
  6
Continuous
 62
     7
100
AcDbCircle
 10
223.7930962133766
 20
99.2209789443494
 30
0.0
 40
0.9999999999990052
100
AcDbArc
 50
180.0
 51
-91.90915243296
  0
ARC
  5
246
330
1F
100
AcDbEntity
  8
JISSEN
  6
Continuous
 62
     7
100
AcDbCircle
 10
226.2930962133766
 20
121.7929571961072
 30
0.0
 40
0.9999999999991815
100
AcDbArc
 50
92.29061004259086
 51
180.0
  0
ARC
  5
247
330
1F
100
AcDbEntity
  8
JISSEN
  6
Continuous
 62
     7
100
AcDbCircle
 10
223.7930962133766
 20
123.7865348083762
 30
0.0
 40
0.9999999999998182
100
AcDbArc
 50
91.9091524329602
 51
180.0
  0
ARC
  5
248
330
1F
100
AcDbEntity
  8
JISSEN
  6
Continuous
 62
     3
100
AcDbCircle
 10
230.7930962133776
 20
108.1887199750722
 30
0.0
 40
2.0
100
AcDbArc
 50
90.0
 51
180.0
  0
ARC
  5
249
330
1F
100
AcDbEntity
  8
JISSEN
  6
Continuous
 62
     3
100
AcDbCircle
 10
230.7930962133776
 20
106.6887199750722
 30
0.0
 40
2.0
100
AcDbArc
 50
180.0
 51
-90.0
  0
ARC
  5
24A
330
1F
100
AcDbEntity
  8
JISSEN
  6
Continuous
 62
     7
100
AcDbCircle
 10
231.2930962133766
 20
102.690202406162
 30
0.0
 40
0.5
100
AcDbArc
 50
180.0
 51
-97.76516601846267
  0
ARC
  5
24B
330
1F
100
AcDbEntity
  8
JISSEN
  6
Continuous
 62
     7
100
AcDbCircle
 10
231.2930962133766
 20
120.3173113465632
 30
0.0
 40
0.5000000000008842
100
AcDbArc
 50
97.76516601845188
 51
180.0
  0
ARC
  5
24C
330
1F
100
AcDbEntity
  8
NITEN
  6
PHANTOM
 62
   140
100
AcDbCircle
 10
221.1930962133776
 20
90.438719975072
 30
0.0
 40
4.0
100
AcDbArc
 50
180.0
 51
-90.0
  0
ARC
  5
24D
330
1F
100
AcDbEntity
  8
TENSEN
  6
DASHED
 62
   140
100
AcDbCircle
 10
225.3930962133776
 20
87.938719975072
 30
0.0
 40
0.5
100
AcDbArc
 50
0.0
 51
90.0
  0
ARC
  5
24E
330
1F
100
AcDbEntity
  8
NITEN
  6
PHANTOM
 62
   140
100
AcDbCircle
 10
222.8930962133776
 20
85.43871997507191
 30
0.0
 40
0.5
100
AcDbArc
 50
180.0
 51
-90.0
  0
ARC
  5
24F
330
1F
100
AcDbEntity
  8
TENSEN
  6
DASHED
 62
   140
100
AcDbCircle
 10
225.3930962133776
 20
85.43871997507191
 30
0.0
 40
0.5
100
AcDbArc
 50
-90.0
 51
0.0
  0
ARC
  5
250
330
1F
100
AcDbEntity
  8
NITEN
  6
PHANTOM
 62
   140
100
AcDbCircle
 10
230.0008602774216
 20
136.6309559110282
 30
0.0
 40
15.0000000000002
100
AcDbArc
 50
121.9173841468861
 51
148.0826158531171
  0
ARC
  5
251
330
1F
100
AcDbEntity
  8
NITEN
  6
PHANTOM
 62
   140
100
AcDbCircle
 10
222.3347697650536
 20
148.9387199750722
 30
0.0
 40
0.5
100
AcDbArc
 50
90.0
 51
121.9173841469372
  0
ARC
  5
252
330
1F
100
AcDbEntity
  8
NITEN
  6
PHANTOM
 62
   140
100
AcDbCircle
 10
217.6930962133776
 20
144.2970464233962
 30
0.0
 40
0.4999999999999334
100
AcDbArc
 50
148.0826158531606
 51
180.0
  0
ARC
  5
253
330
1F
100
AcDbEntity
  8
NITEN
  6
PHANTOM
 62
   140
100
AcDbCircle
 10
222.9002029945646
 20
146.9638462409192
 30
0.0
 40
0.5
100
AcDbArc
 50
90.0
 51
135.0000000000737
  0
ARC
  5
254
330
1F
100
AcDbEntity
  8
NITEN
  6
PHANTOM
 62
   140
100
AcDbCircle
 10
219.6930962133776
 20
143.7567394597322
 30
0.0
 40
0.5000000000003256
100
AcDbArc
 50
134.9999999999171
 51
180.0
  0
ARC
  5
255
330
1F
100
AcDbEntity
  8
NITEN
  6
PHANTOM
 62
   140
100
AcDbCircle
 10
221.1930962133776
 20
90.438719975072
 30
0.0
 40
2.0
100
AcDbArc
 50
179.9999999999988
 51
-90.0
  0
ARC
  5
256
330
1F
100
AcDbEntity
  8
JISSEN
  6
PHANTOM
 62
   140
100
AcDbCircle
 10
139.795889309833
 20
50.33764558326021
 30
0.0
 40
4.0
100
AcDbArc
 50
90.0
 51
180.0
  0
ARC
  5
257
330
1F
100
AcDbEntity
  8
JISSEN
  6
PHANTOM
 62
   140
100
AcDbCircle
 10
153.7958893098328
 20
42.23764558326022
 30
0.0
 40
5.999999999999986
100
AcDbArc
 50
90.0
 51
180.0
  0
ARC
  5
258
330
1F
100
AcDbEntity
  8
JISSEN
  6
PHANTOM
 62
   140
100
AcDbCircle
 10
153.795889309833
 20
42.33764558326021
 30
0.0
 40
3.0
100
AcDbArc
 50
90.0
 51
180.0
  0
ARC
  5
259
330
1F
100
AcDbEntity
  8
JISSEN
  6
PHANTOM
 62
   140
100
AcDbCircle
 10
167.795889309833
 20
42.33764558326021
 30
0.0
 40
3.0
100
AcDbArc
 50
0.0
 51
90.0
  0
ARC
  5
25A
330
1F
100
AcDbEntity
  8
JISSEN
  6
PHANTOM
 62
   140
100
AcDbCircle
 10
167.7958893098331
 20
42.23764558326022
 30
0.0
 40
6.0
100
AcDbArc
 50
0.0
 51
90.0
  0
ARC
  5
25B
330
1F
100
AcDbEntity
  8
JISSEN
  6
PHANTOM
 62
   140
100
AcDbCircle
 10
181.795889309833
 20
50.33764558326021
 30
0.0
 40
3.999999999999602
100
AcDbArc
 50
0.0
 51
90.0
  0
CIRCLE
  5
25C
330
1F
100
AcDbEntity
  8
JISSEN
  6
Continuous
 62
     7
100
AcDbCircle
 10
177.7958893098332
 20
94.2387199750721
 30
0.0
 40
2.650000000000006
  0
CIRCLE
  5
25D
330
1F
100
AcDbEntity
  8
JISSEN
  6
Continuous
 62
     7
100
AcDbCircle
 10
143.7958893098332
 20
94.2387199750721
 30
0.0
 40
2.650000000000006
  0
CIRCLE
  5
25E
330
1F
100
AcDbEntity
  8
JISSEN
  6
Continuous
 62
     7
100
AcDbCircle
 10
146.7958893098332
 20
138.5387199750722
 30
0.0
 40
4.0
  0
CIRCLE
  5
25F
330
1F
100
AcDbEntity
  8
SAISEN
  6
Continuous
 62
     7
100
AcDbCircle
 10
146.7958893098332
 20
138.5387199750722
 30
0.0
 40
2.5
  0
CIRCLE
  5
260
330
1F
100
AcDbEntity
  8
JISSEN
  6
Continuous
 62
     3
100
AcDbCircle
 10
146.7958893098332
 20
138.5387199750722
 30
0.0
 40
2.099999999999994
  0
CIRCLE
  5
261
330
1F
100
AcDbEntity
  8
JISSEN
  6
Continuous
 62
     7
100
AcDbCircle
 10
174.7958893098332
 20
138.5387199750722
 30
0.0
 40
4.0
  0
CIRCLE
  5
262
330
1F
100
AcDbEntity
  8
JISSEN
  6
Continuous
 62
     3
100
AcDbCircle
 10
174.7958893098332
 20
138.5387199750722
 30
0.0
 40
2.099999999999994
  0
CIRCLE
  5
263
330
1F
100
AcDbEntity
  8
SAISEN
  6
Continuous
 62
     7
100
AcDbCircle
 10
174.7958893098332
 20
138.5387199750722
 30
0.0
 40
2.5
  0
CIRCLE
  5
264
330
1F
100
AcDbEntity
  8
JISSEN
  6
Continuous
 62
     3
100
AcDbCircle
 10
141.7958893098334
 20
115.2387199750722
 30
0.0
 40
2.75
  0
CIRCLE
  5
265
330
1F
100
AcDbEntity
  8
JISSEN
  6
Continuous
 62
     7
100
AcDbCircle
 10
141.7958893098334
 20
107.2387199750722
 30
0.0
 40
1.650000000000006
  0
CIRCLE
  5
266
330
1F
100
AcDbEntity
  8
JISSEN
  6
Continuous
 62
     7
100
AcDbCircle
 10
179.795889309833
 20
115.2387199750722
 30
0.0
 40
1.650000000000006
  0
CIRCLE
  5
267
330
1F
100
AcDbEntity
  8
JISSEN
  6
Continuous
 62
     3
100
AcDbCircle
 10
151.2958893098333
 20
116.2387199750722
 30
0.0
 40
2.75
  0
CIRCLE
  5
268
330
1F
100
AcDbEntity
  8
JISSEN
  6
Continuous
 62
     3
100
AcDbCircle
 10
170.2958893098331
 20
116.2387199750722
 30
0.0
 40
2.75
  0
CIRCLE
  5
269
330
1F
100
AcDbEntity
  8
JISSEN
  6
Continuous
 62
     3
100
AcDbCircle
 10
160.7958893098332
 20
116.2387199750722
 30
0.0
 40
2.75
  0
CIRCLE
  5
26A
330
1F
100
AcDbEntity
  8
JISSEN
  6
Continuous
 62
     3
100
AcDbCircle
 10
151.2958893098333
 20
106.2387199750722
 30
0.0
 40
2.75
  0
CIRCLE
  5
26B
330
1F
100
AcDbEntity
  8
JISSEN
  6
Continuous
 62
     3
100
AcDbCircle
 10
160.7958893098332
 20
106.2387199750722
 30
0.0
 40
2.75
  0
CIRCLE
  5
26C
330
1F
100
AcDbEntity
  8
JISSEN
  6
Continuous
 62
     3
100
AcDbCircle
 10
179.7958893098335
 20
107.2387199750722
 30
0.0
 40
2.750000000000085
  0
CIRCLE
  5
26D
330
1F
100
AcDbEntity
  8
JISSEN
  6
Continuous
 62
     3
100
AcDbCircle
 10
170.2958893098331
 20
106.2387199750722
 30
0.0
 40
2.75
  0
ARC
  5
26E
330
1F
100
AcDbEntity
  8
1
  6
PHANTOM
 62
   140
100
AcDbCircle
 10
172.295889309833
 20
35.93764558326022
 30
0.0
 40
1.5
100
AcDbArc
 50
180.0
 51
-90.0
  0
ARC
  5
26F
330
1F
100
AcDbEntity
  8
1
  6
PHANTOM
 62
   140
100
AcDbCircle
 10
149.295889309833
 20
35.93764558326022
 30
0.0
 40
1.5
100
AcDbArc
 50
-90.0
 51
0.0
  0
MTEXT
  5
270
330
1F
100
AcDbEntity
  8
1
 62
     2
100
AcDbMText
 10
259.7752255361734
 20
85.08553910336053
 30
0.0
 40
3.2
 41
0.0
 71
     1
 72
     1
  1
適用機種\PDM570AS\PDM570BP\PDM570AU
  7
CONVERTER_3
 73
     1
 44
1.20048019207683
  0
MTEXT
  5
272
330
1F
100
AcDbEntity
  8
1
 62
     2
100
AcDbMText
 10
297.3841693614355
 20
15.0
 30
0.0
 40
3.2
 41
0.0
 71
     4
 72
     1
  1
本体組立図 DM570 ローラ幅 200 ～ 1000 mm　取付金具付
  7
CONVERTER_6
 73
     1
 44
0.60024009603842
  0
MTEXT
  5
273
330
1F
100
AcDbEntity
  8
1
 62
     2
100
AcDbMText
 10
349.5014157404764
 20
4.61234347048301
 30
0.0
 40
3.2
 41
0.0
 71
     4
 72
     1
  1
W_DM570_S_010
  7
CONVERTER_1
 73
     1
 44
0.60024009603842
  0
MTEXT
  5
274
330
1F
100
AcDbEntity
  8
1
 62
     2
100
AcDbMText
 10
232.5491066386065
 20
15.0
 30
0.0
 40
3.2
 41
0.0
 71
     4
 72
     1
  1
マルチベヤシリーズ
  7
CONVERTER_3
 73
     1
 44
0.60024009603842
  0
MTEXT
  5
275
330
1F
100
AcDbEntity
  8
1
 62
     2
100
AcDbMText
 10
233.812332410118
 20
5.0
 30
0.0
 40
3.2
 41
0.0
 71
     4
 72
     1
  1
モータローラ
  7
CONVERTER_3
 73
     1
 44
0.60024009603842
  0
MTEXT
  5
276
330
1F
100
AcDbEntity
  8
1
 62
     2
100
AcDbMText
 10
168.9047361015815
 20
12.5
 30
0.0
 40
3.2
 41
0.0
 71
     4
 72
     1
  1
2011.8.26
  7
CONVERTER_1
 73
     1
 44
0.60024009603842
  0
TEXT
  5
277
330
1F
100
AcDbEntity
  8
1
 62
     2
100
AcDbText
 10
148.2934168157422
 20
156.712460012152
 30
0.0
 40
5.0
  1
取付金具
 41
0.89
  7
CONVERTER_3
100
AcDbText
  0
DIMENSION
  5
28A
330
1F
100
AcDbEntity
  8
1
100
AcDbDimension
  2
*D02
 10
27.47788908765671
 20
203.6402823973006
 30
0.0
 11
32.31910554561714
 21
207.2636931404947
 31
0.0
 70
    32
  1
<>
 71
     5
 42
-1.0
 53
0.00013888888889
  3
ME10_DIM_0
100
AcDbAlignedDimension
 13
37.47788908765674
 23
217.1681463973006
 33
0.0
 14
27.47788908765671
 24
221.6402823973006
 34
0.0
100
AcDbRotatedDimension
  0
DIMENSION
  5
297
330
1F
100
AcDbEntity
  8
1
100
AcDbDimension
  2
*D14
 10
15.47788908765671
 20
227.6402823973006
 30
0.0
 11
10.99799642218213
 21
221.6069847326237
 31
0.0
 70
    32
  1
<>
 71
     5
 42
-1.0
 53
90.0
  3
ME10_DIM_1
100
AcDbAlignedDimension
 13
33.47788908765674
 23
215.6402823973006
 33
0.0
 14
33.47788908765674
 24
227.6402823973006
 34
0.0
 50
90.0
100
AcDbRotatedDimension
  0
DIMENSION
  5
2A4
330
1F
100
AcDbEntity
  8
1
100
AcDbDimension
  2
*D25
 10
128.392307692308
 20
193.1402823973006
 30
0.0
 11
126.092307692308
 21
221.6402823973006
 31
0.0
 70
    32
  1
<>
 71
     5
 42
-1.0
 53
90.0
  3
ME10_DIM_2
100
AcDbAlignedDimension
 13
70.39084052433239
 23
250.1402823973006
 33
0.0
 14
70.39084052433239
 24
193.1402823973006
 34
0.0
 50
90.0
100
AcDbRotatedDimension
  0
DIMENSION
  5
2B1
330
1F
100
AcDbEntity
  8
1
100
AcDbDimension
  2
*D36
 10
380.097889087657
 20
203.6402823973006
 30
0.0
 11
375.2566726296965
 21
207.2636931404947
 31
0.0
 70
    32
  1
<>
 71
     5
 42
-1.0
 53
0.00013888888889
  3
ME10_DIM_3
100
AcDbAlignedDimension
 13
370.0978890876569
 23
217.1681463973006
 33
0.0
 14
380.0978890876569
 24
221.6402823973006
 34
0.0
100
AcDbRotatedDimension
  0
DIMENSION
  5
2BE
330
1F
100
AcDbEntity
  8
1
100
AcDbDimension
  2
*D47
 10
358.0978890876569
 20
227.6402823973006
 30
0.0
 11
355.4978890876569
 21
221.011238093818
 31
0.0
 70
    32
  1
<>
 71
     5
 42
-1.0
 53
90.0
  3
ME10_DIM_4
100
AcDbAlignedDimension
 13
374.0978890876568
 23
215.6402823973006
 33
0.0
 14
374.0978890876568
 24
227.6402823973006
 34
0.0
 50
90.0
100
AcDbRotatedDimension
  0
DIMENSION
  5
2CB
330
1F
100
AcDbEntity
  8
1
100
AcDbDimension
  2
*D58
 10
197.7958893098336
 20
94.2387199750721
 30
0.0
 11
195.1958893098336
 21
117.892155897662
 31
0.0
 70
    32
  1
<>
 71
     5
 42
-1.0
 53
90.0
  3
ME10_DIM_5
100
AcDbAlignedDimension
 13
168.527812177003
 23
139.2387199750722
 33
0.0
 14
181.7958893098332
 24
94.2387199750721
 34
0.0
 50
90.0
100
AcDbRotatedDimension
  0
DIMENSION
  5
2DA
330
1F
100
AcDbEntity
  8
1
100
AcDbDimension
  2
*D69
 10
237.7930962133776
 20
72.93871997507199
 30
0.0
 11
229.995715599728
 21
76.18715518649761
 31
0.0
 70
    32
  1
<>
 71
     5
 42
-1.0
 53
0.00013888888889
  3
ME10_DIM_6
100
AcDbAlignedDimension
 13
240.6930962133776
 23
88.4387199750721
 33
0.0
 14
237.7930962133776
 24
88.4387199750721
 34
0.0
100
AcDbRotatedDimension
  0
DIMENSION
  5
2E7
330
1F
100
AcDbEntity
  8
1
100
AcDbDimension
  2
*D710
 10
217.1930962133776
 20
62.938719975072
 30
0.0
 11
228.887486225023
 21
65.238719975072
 31
0.0
 70
    32
  1
<>
 71
     5
 42
-1.0
 53
0.00013888888889
  3
ME10_DIM_7
100
AcDbAlignedDimension
 13
240.6930962133776
 23
88.4387199750721
 33
0.0
 14
217.1930962133776
 24
90.438719975072
 34
0.0
100
AcDbRotatedDimension
  0
DIMENSION
  5
2F4
330
1F
100
AcDbEntity
  8
1
100
AcDbDimension
  2
*D811
 10
135.7958893098332
 20
62.738719975072
 30
0.0
 11
159.670276810676
 21
65.038719975072
 31
0.0
 70
    32
  1
<>
 71
     5
 42
-1.0
 53
0.00013888888889
  3
ME10_DIM_8
100
AcDbAlignedDimension
 13
185.7958893098336
 23
93.2387199750721
 33
0.0
 14
135.7958893098332
 24
93.2387199750721
 34
0.0
100
AcDbRotatedDimension
  0
DIMENSION
  5
301
330
1F
100
AcDbEntity
  8
1
100
AcDbDimension
  2
*D912
 10
143.7958893098332
 20
72.738719975072
 30
0.0
 11
160.506506364452
 21
75.038719975072
 31
0.0
 70
    32
  1
<>
 71
     5
 42
-1.0
 53
0.00013888888889
  3
ME10_DIM_9
100
AcDbAlignedDimension
 13
177.7958893098332
 23
90.2387199750721
 33
0.0
 14
143.7958893098332
 24
90.2387199750721
 34
0.0
100
AcDbRotatedDimension
  0
DIMENSION
  5
30E
330
1F
100
AcDbEntity
  8
1
100
AcDbDimension
  2
*D1013
 10
113.7958893098332
 20
84.73871997507199
 30
0.0
 11
111.2558893098332
 21
116.341529779594
 31
0.0
 70
    32
  1
<>
 71
     5
 42
-1.0
 53
90.0
  3
ME10_DIM_10
100
AcDbAlignedDimension
 13
145.7958893098332
 23
149.2387199750722
 33
0.0
 14
147.5458893098331
 24
84.738719975072
 34
0.0
 50
90.0
100
AcDbRotatedDimension
  0
DIMENSION
  5
31B
330
1F
100
AcDbEntity
  8
1
100
AcDbDimension
  2
*D1114
 10
50.39084052433241
 20
181.1402823973006
 30
0.0
 11
55.5401360930219
 21
183.4402823973006
 31
0.0
 70
    32
  1
<>
 71
     5
 42
-1.0
 53
0.00013888888889
  3
ME10_DIM_11
100
AcDbAlignedDimension
 13
65.39084052433239
 23
212.6402823973006
 33
0.0
 14
50.39084052433241
 24
216.6402823973006
 34
0.0
100
AcDbRotatedDimension
  0
DIMENSION
  5
328
330
1F
100
AcDbEntity
  8
1
100
AcDbDimension
  2
*D1215
 10
292.3908405243325
 20
181.1402823973006
 30
0.0
 11
317.3908405243325
 21
183.4402823973006
 31
0.0
 70
    32
  1
<>
 71
     5
 42
-1.0
 53
0.00013888888889
  3
ME10_DIM_12
100
AcDbAlignedDimension
 13
342.3908405243325
 23
220.1402823973006
 33
0.0
 14
292.3908405243325
 24
216.6402823973006
 34
0.0
100
AcDbRotatedDimension
  0
DIMENSION
  5
335
330
1F
100
AcDbEntity
  8
1
100
AcDbDimension
  2
*D1316
 10
275.3908405243325
 20
181.1402823973006
 30
0.0
 11
283.8908405243325
 21
183.4402823973006
 31
0.0
 70
    32
  1
<>
 71
     5
 42
-1.0
 53
0.00013888888889
  3
ME10_DIM_13
100
AcDbAlignedDimension
 13
292.3908405243325
 23
216.6402823973006
 33
0.0
 14
275.3908405243325
 24
212.6402823973006
 34
0.0
100
AcDbRotatedDimension
  0
DIMENSION
  5
344
330
1F
100
AcDbEntity
  8
1
100
AcDbDimension
  2
*D1417
 10
270.3908405243325
 20
181.1402823973006
 30
0.0
 11
272.8908405243325
 21
183.4402823973006
 31
0.0
 70
    32
  1
<>
 71
     5
 42
-1.0
 53
0.00013888888889
  3
ME10_DIM_14
100
AcDbAlignedDimension
 13
275.3908405243325
 23
212.6402823973006
 33
0.0
 14
270.3908405243325
 24
193.1402823973006
 34
0.0
100
AcDbRotatedDimension
  0
DIMENSION
  5
351
330
1F
100
AcDbEntity
  8
1
100
AcDbDimension
  2
*D1518
 10
70.39084052433239
 20
181.1402823973006
 30
0.0
 11
170.3908405243324
 21
183.4402823973006
 31
0.0
 70
    32
  1
<>
 71
     5
 42
-1.0
 53
0.00013888888889
  3
ME10_DIM_15
100
AcDbAlignedDimension
 13
270.3908405243325
 23
193.1402823973006
 33
0.0
 14
70.39084052433239
 24
193.1402823973006
 34
0.0
100
AcDbRotatedDimension
  0
DIMENSION
  5
360
330
1F
100
AcDbEntity
  8
1
100
AcDbDimension
  2
*D1619
 10
65.39084052433239
 20
181.1402823973006
 30
0.0
 11
67.89084052433239
 21
183.4402823973006
 31
0.0
 70
    32
  1
<>
 71
     5
 42
-1.0
 53
0.00013888888889
  3
ME10_DIM_16
100
AcDbAlignedDimension
 13
70.39084052433239
 23
193.1402823973006
 33
0.0
 14
65.39084052433239
 24
212.6402823973006
 34
0.0
100
AcDbRotatedDimension
  0
DIMENSION
  5
36D
330
1F
100
AcDbEntity
  8
1
100
AcDbDimension
  2
*D1720
 10
123.7958893098332
 20
84.738719975072
 30
0.0
 11
121.4958893098332
 21
110.526681836839
 31
0.0
 70
    32
  1
<>
 71
     5
 42
-1.0
 53
90.0
  3
ME10_DIM_17
100
AcDbAlignedDimension
 13
153.115633144304
 23
139.2387199750722
 33
0.0
 14
147.5458893098331
 24
84.738719975072
 34
0.0
 50
90.0
100
AcDbRotatedDimension
  0
DIMENSION
  5
37A
330
1F
100
AcDbEntity
  8
1
100
AcDbDimension
  2
*D1821
 10
123.7958893098332
 20
139.2387199750722
 30
0.0
 11
121.4958893098332
 21
143.477486845783
 31
0.0
 70
    32
  1
<>
 71
     5
 42
-1.0
 53
90.0
  3
ME10_DIM_18
100
AcDbAlignedDimension
 13
145.7958893098332
 23
149.2387199750722
 33
0.0
 14
153.115633144304
 24
139.2387199750722
 34
0.0
 50
90.0
100
AcDbRotatedDimension
  0
INSERT
  5
383
330
1F
100
AcDbEntity
  8
1
100
AcDbBlockReference
  2
*D1922
 10
0.0
 20
0.0
 30
0.0
  0
ENDSEC
  0
SECTION
  2
OBJECTS
  0
DICTIONARY
  5
C
330
0
100
AcDbDictionary
281
     1
  3
ACAD_GROUP
350
D
  3
ACAD_LAYOUT
350
1A
  3
ACAD_MLINESTYLE
350
17
  3
ACAD_PLOTSETTINGS
350
19
  3
ACAD_PLOTSTYLENAME
350
E
  0
DICTIONARY
  5
D
102
{ACAD_REACTORS
330
C
102
}
330
C
100
AcDbDictionary
281
     1
  0
DICTIONARY
  5
1A
102
{ACAD_REACTORS
330
C
102
}
330
C
100
AcDbDictionary
281
     1
  3
Layout1
350
1E
  3
Layout2
350
26
  3
Model
350
22
  0
DICTIONARY
  5
17
102
{ACAD_REACTORS
330
C
102
}
330
C
100
AcDbDictionary
281
     1
  3
Standard
350
18
  0
DICTIONARY
  5
19
102
{ACAD_REACTORS
330
C
102
}
330
C
100
AcDbDictionary
281
     1
  0
ACDBDICTIONARYWDFLT
  5
E
102
{ACAD_REACTORS
330
C
102
}
330
C
100
AcDbDictionary
281
     1
  3
Normal
350
F
100
AcDbDictionaryWithDefault
340
F
  0
LAYOUT
  5
1E
102
{ACAD_REACTORS
330
1A
102
}
330
1A
100
AcDbPlotSettings
  1

  2

  4

  6

 40
0.0
 41
0.0
 42
0.0
 43
0.0
 44
0.0
 45
0.0
 46
0.0
 47
0.0
 48
0.0
 49
0.0
140
0.0
141
0.0
142
1.0
143
1.0
 70
   688
 72
     0
 73
     0
 74
     5
  7

 75
    16
147
1.0
148
0.0
149
0.0
100
AcDbLayout
  1
Layout1
 70
     1
 71
     1
 10
0.0
 20
0.0
 11
0.0
 21
0.0
 12
0.0
 22
0.0
 32
0.0
 14
0.0
 24
0.0
 34
0.0
 15
0.0
 25
0.0
 35
0.0
146
0.0
 13
0.0
 23
0.0
 33
0.0
 16
1.0
 26
0.0
 36
0.0
 17
0.0
 27
1.0
 37
0.0
 76
     0
330
1B
  0
LAYOUT
  5
26
102
{ACAD_REACTORS
330
1A
102
}
330
1A
100
AcDbPlotSettings
  1

  2

  4

  6

 40
0.0
 41
0.0
 42
0.0
 43
0.0
 44
0.0
 45
0.0
 46
0.0
 47
0.0
 48
0.0
 49
0.0
140
0.0
141
0.0
142
1.0
143
1.0
 70
   688
 72
     0
 73
     0
 74
     5
  7

 75
    16
147
1.0
148
0.0
149
0.0
100
AcDbLayout
  1
Layout2
 70
     1
 71
     2
 10
0.0
 20
0.0
 11
0.0
 21
0.0
 12
0.0
 22
0.0
 32
0.0
 14
0.0
 24
0.0
 34
0.0
 15
0.0
 25
0.0
 35
0.0
146
0.0
 13
0.0
 23
0.0
 33
0.0
 16
1.0
 26
0.0
 36
0.0
 17
0.0
 27
1.0
 37
0.0
 76
     0
330
23
  0
LAYOUT
  5
22
102
{ACAD_REACTORS
330
1A
102
}
330
1A
100
AcDbPlotSettings
  1

  2

  4

  6

 40
0.0
 41
0.0
 42
0.0
 43
0.0
 44
0.0
 45
0.0
 46
0.0
 47
0.0
 48
0.0
 49
0.0
140
0.0
141
0.0
142
1.0
143
1.0
 70
  1712
 72
     0
 73
     0
 74
     0
  7

 75
     0
147
1.0
148
0.0
149
0.0
100
AcDbLayout
  1
Model
 70
     1
 71
     0
 10
0.0
 20
0.0
 11
0.0
 21
0.0
 12
0.0
 22
0.0
 32
0.0
 14
0.0
 24
-2.25615332095569
 34
0.0
 15
394.0
 25
268.0
 35
0.0
146
0.0
 13
0.0
 23
0.0
 33
0.0
 16
1.0
 26
0.0
 36
0.0
 17
0.0
 27
1.0
 37
0.0
 76
     0
330
1F
  0
MLINESTYLE
  5
18
102
{ACAD_REACTORS
330
17
102
}
330
17
100
AcDbMlineStyle
  2
Standard
 70
     0
  3

 62
   256
 51
90.0
 52
90.0
 71
     2
 49
0.5
 62
   256
  6
BYLAYER
 49
-0.5
 62
   256
  6
BYLAYER
  0
ACDBPLACEHOLDER
  5
F
102
{ACAD_REACTORS
330
E
102
}
330
E
  0
ENDSEC
  0
EOF
