  0
SECTION
  2
HEADER
  9
$ACADVER
  1
AC1015
  9
$ACADMAINTVER
 70
     6
  9
$DWGCODEPAGE
  3
DOS932
  9
$INSBASE
 10
0.0
 20
0.0
 30
0.0
  9
$EXTMIN
 10
0.0
 20
-2.25615332095569
 30
0.0
  9
$EXTMAX
 10
394.0
 20
268.0
 30
0.0
  9
$LIMMIN
 10
0.0
 20
0.0
  9
$LIMMAX
 10
12.0
 20
9.0
  9
$ORTHOMODE
 70
     0
  9
$REGENMODE
 70
     1
  9
$FILLMODE
 70
     1
  9
$QTEXTMODE
 70
     0
  9
$MIRRTEXT
 70
     1
  9
$LTSCALE
 40
1.0
  9
$ATTMODE
 70
     1
  9
$TEXTSIZE
 40
0.2
  9
$TRACEWID
 40
0.05
  9
$TEXTSTYLE
  7
Standard
  9
$CLAYER
  8
0
  9
$CELTYPE
  6
ByLayer
  9
$CECOLOR
 62
   256
  9
$CELTSCALE
 40
1.0
  9
$DISPSILH
 70
     0
  9
$DIMSCALE
 40
1.0
  9
$DIMASZ
 40
0.18
  9
$DIMEXO
 40
0.0625
  9
$DIMDLI
 40
0.38
  9
$DIMRND
 40
0.0
  9
$DIMDLE
 40
0.0
  9
$DIMEXE
 40
0.18
  9
$DIMTP
 40
0.0
  9
$DIMTM
 40
0.0
  9
$DIMTXT
 40
0.18
  9
$DIMCEN
 40
0.09
  9
$DIMTSZ
 40
0.0
  9
$DIMTOL
 70
     0
  9
$DIMLIM
 70
     0
  9
$DIMTIH
 70
     1
  9
$DIMTOH
 70
     1
  9
$DIMSE1
 70
     0
  9
$DIMSE2
 70
     0
  9
$DIMTAD
 70
     0
  9
$DIMZIN
 70
     0
  9
$DIMBLK
  1

  9
$DIMASO
 70
     1
  9
$DIMSHO
 70
     1
  9
$DIMPOST
  1

  9
$DIMAPOST
  1

  9
$DIMALT
 70
     0
  9
$DIMALTD
 70
     2
  9
$DIMALTF
 40
25.4
  9
$DIMLFAC
 40
1.0
  9
$DIMTOFL
 70
     0
  9
$DIMTVP
 40
0.0
  9
$DIMTIX
 70
     0
  9
$DIMSOXD
 70
     0
  9
$DIMSAH
 70
     0
  9
$DIMBLK1
  1

  9
$DIMBLK2
  1

  9
$DIMSTYLE
  2
Standard
  9
$DIMCLRD
 70
     0
  9
$DIMCLRE
 70
     0
  9
$DIMCLRT
 70
     0
  9
$DIMTFAC
 40
1.0
  9
$DIMGAP
 40
0.09
  9
$DIMJUST
 70
     0
  9
$DIMSD1
 70
     0
  9
$DIMSD2
 70
     0
  9
$DIMTOLJ
 70
     1
  9
$DIMTZIN
 70
     0
  9
$DIMALTZ
 70
     0
  9
$DIMALTTZ
 70
     0
  9
$DIMUPT
 70
     0
  9
$DIMDEC
 70
     4
  9
$DIMTDEC
 70
     4
  9
$DIMALTU
 70
     2
  9
$DIMALTTD
 70
     2
  9
$DIMTXSTY
  7
Standard
  9
$DIMAUNIT
 70
     0
  9
$DIMADEC
 70
     0
  9
$DIMALTRND
 40
0.0
  9
$DIMAZIN
 70
     0
  9
$DIMDSEP
 70
    46
  9
$DIMATFIT
 70
     3
  9
$DIMFRAC
 70
     0
  9
$DIMLDRBLK
  1

  9
$DIMLUNIT
 70
     2
  9
$DIMLWD
 70
    -2
  9
$DIMLWE
 70
    -2
  9
$DIMTMOVE
 70
     0
  9
$LUNITS
 70
     2
  9
$LUPREC
 70
     4
  9
$SKETCHINC
 40
0.1
  9
$FILLETRAD
 40
0.5
  9
$AUNITS
 70
     0
  9
$AUPREC
 70
     0
  9
$MENU
  1
.
  9
$ELEVATION
 40
0.0
  9
$PELEVATION
 40
0.0
  9
$THICKNESS
 40
0.0
  9
$LIMCHECK
 70
     0
  9
$CHAMFERA
 40
0.5
  9
$CHAMFERB
 40
0.5
  9
$CHAMFERC
 40
1.0
  9
$CHAMFERD
 40
0.0
  9
$SKPOLY
 70
     0
  9
$TDCREATE
 40
2455804.544655278
  9
$TDUCREATE
 40
2455804.169655278
  9
$TDUPDATE
 40
2455804.54465529
  9
$TDUUPDATE
 40
2455804.16965529
  9
$TDINDWG
 40
0.0000000116
  9
$TDUSRTIMER
 40
0.0000000116
  9
$USRTIMER
 70
     1
  9
$ANGBASE
 50
0.0
  9
$ANGDIR
 70
     0
  9
$PDMODE
 70
     0
  9
$PDSIZE
 40
0.0
  9
$PLINEWID
 40
0.0
  9
$SPLFRAME
 70
     0
  9
$SPLINETYPE
 70
     6
  9
$SPLINESEGS
 70
     8
  9
$HANDSEED
  5
39E
  9
$SURFTAB1
 70
     6
  9
$SURFTAB2
 70
     6
  9
$SURFTYPE
 70
     6
  9
$SURFU
 70
     6
  9
$SURFV
 70
     6
  9
$UCSBASE
  2

  9
$UCSNAME
  2

  9
$UCSORG
 10
0.0
 20
0.0
 30
0.0
  9
$UCSXDIR
 10
1.0
 20
0.0
 30
0.0
  9
$UCSYDIR
 10
0.0
 20
1.0
 30
0.0
  9
$UCSORTHOREF
  2

  9
$UCSORTHOVIEW
 70
     0
  9
$UCSORGTOP
 10
0.0
 20
0.0
 30
0.0
  9
$UCSORGBOTTOM
 10
0.0
 20
0.0
 30
0.0
  9
$UCSORGLEFT
 10
0.0
 20
0.0
 30
0.0
  9
$UCSORGRIGHT
 10
0.0
 20
0.0
 30
0.0
  9
$UCSORGFRONT
 10
0.0
 20
0.0
 30
0.0
  9
$UCSORGBACK
 10
0.0
 20
0.0
 30
0.0
  9
$PUCSBASE
  2

  9
$PUCSNAME
  2

  9
$PUCSORG
 10
0.0
 20
0.0
 30
0.0
  9
$PUCSXDIR
 10
1.0
 20
0.0
 30
0.0
  9
$PUCSYDIR
 10
0.0
 20
1.0
 30
0.0
  9
$PUCSORTHOREF
  2

  9
$PUCSORTHOVIEW
 70
     0
  9
$PUCSORGTOP
 10
0.0
 20
0.0
 30
0.0
  9
$PUCSORGBOTTOM
 10
0.0
 20
0.0
 30
0.0
  9
$PUCSORGLEFT
 10
0.0
 20
0.0
 30
0.0
  9
$PUCSORGRIGHT
 10
0.0
 20
0.0
 30
0.0
  9
$PUCSORGFRONT
 10
0.0
 20
0.0
 30
0.0
  9
$PUCSORGBACK
 10
0.0
 20
0.0
 30
0.0
  9
$USERI1
 70
     0
  9
$USERI2
 70
     0
  9
$USERI3
 70
     0
  9
$USERI4
 70
     0
  9
$USERI5
 70
     0
  9
$USERR1
 40
14.0
  9
$USERR2
 40
0.0
  9
$USERR3
 40
0.0
  9
$USERR4
 40
0.0
  9
$USERR5
 40
0.0
  9
$WORLDVIEW
 70
     1
  9
$SHADEDGE
 70
     3
  9
$SHADEDIF
 70
    70
  9
$TILEMODE
 70
     1
  9
$MAXACTVP
 70
    64
  9
$PINSBASE
 10
0.0
 20
0.0
 30
0.0
  9
$PLIMCHECK
 70
     0
  9
$PEXTMIN
 10
1.00000000000000E+20
 20
1.00000000000000E+20
 30
1.00000000000000E+20
  9
$PEXTMAX
 10
-1.00000000000000E+20
 20
-1.00000000000000E+20
 30
-1.00000000000000E+20
  9
$PLIMMIN
 10
0.0
 20
0.0
  9
$PLIMMAX
 10
12.0
 20
9.0
  9
$UNITMODE
 70
     0
  9
$VISRETAIN
 70
     1
  9
$PLINEGEN
 70
     0
  9
$PSLTSCALE
 70
     1
  9
$TREEDEPTH
 70
  3020
  9
$CMLSTYLE
  2
Standard
  9
$CMLJUST
 70
     0
  9
$CMLSCALE
 40
1.0
  9
$PROXYGRAPHICS
 70
     1
  9
$MEASUREMENT
 70
     1
  9
$CELWEIGHT
370
    -1
  9
$ENDCAPS
280
     0
  9
$JOINSTYLE
280
     0
  9
$LWDISPLAY
290
     0
  9
$INSUNITS
 70
     1
  9
$HYPERLINKBASE
  1

  9
$STYLESHEET
  1

  9
$XEDIT
290
     1
  9
$CEPSNTYPE
380
     0
  9
$PSTYLEMODE
290
     1
  9
$FINGERPRINTGUID
  2
{80195AE4-3DC9-4062-AE89-5373A1E7D992}
  9
$VERSIONGUID
  2
{FAEB1C32-E019-11D5-929B-00C0DF256EC4}
  9
$EXTNAMES
290
     1
  9
$PSVPSCALE
 40
0.0
  9
$OLESTARTUP
290
     0
  0
ENDSEC
  0
SECTION
  2
CLASSES
  0
CLASS
  1
ACDBDICTIONARYWDFLT
  2
AcDbDictionaryWithDefault
  3
ObjectDBX Classes
 90
        0
280
     0
281
     0
  0
CLASS
  1

  2
exOdDbCircle
  3

 90
        0
280
     0
281
     1
  0
CLASS
  1
ACDBPLACEHOLDER
  2
AcDbPlaceHolder
  3
ObjectDBX Classes
 90
        0
280
     0
281
     0
  0
CLASS
  1
LAYOUT
  2
AcDbLayout
  3
ObjectDBX Classes
 90
        0
280
     0
281
     0
  0
ENDSEC
  0
SECTION
  2
TABLES
  0
TABLE
  2
VPORT
  5
8
330
0
100
AcDbSymbolTable
 70
     1
  0
VPORT
  5
29
330
8
100
AcDbSymbolTableRecord
100
AcDbViewportTableRecord
  2
*Active
 70
     0
 10
0.0
 20
0.0
 11
1.0
 21
1.0
 12
197.0
 22
132.8719233395221
 13
0.0
 23
0.0
 14
0.5
 24
0.5
 15
0.5
 25
0.5
 16
0.0
 26
0.0
 36
1.0
 17
0.0
 27
0.0
 37
0.0
 40
297.2817686530513
 41
1.60267857142857
 42
50.0
 43
0.0
 44
0.0
 50
0.0
 51
0.0
 71
     0
 72
   100
 73
     1
 74
     3
 75
     0
 76
     0
 77
     0
 78
     0
281
     0
 65
     1
110
0.0
120
0.0
130
0.0
111
1.0
121
0.0
131
0.0
112
0.0
122
1.0
132
0.0
 79
     0
146
0.0
  0
ENDTAB
  0
TABLE
  2
LTYPE
  5
5
330
0
100
AcDbSymbolTable
 70
     8
  0
LTYPE
  5
14
330
5
100
AcDbSymbolTableRecord
100
AcDbLinetypeTableRecord
  2
ByBlock
 70
     0
  3

 72
    65
 73
     0
 40
0.0
  0
LTYPE
  5
15
330
5
100
AcDbSymbolTableRecord
100
AcDbLinetypeTableRecord
  2
ByLayer
 70
     0
  3

 72
    65
 73
     0
 40
0.0
  0
LTYPE
  5
16
330
5
100
AcDbSymbolTableRecord
100
AcDbLinetypeTableRecord
  2
Continuous
 70
     0
  3
Solid line
 72
    65
 73
     0
 40
0.0
  0
LTYPE
  5
2A
330
5
100
AcDbSymbolTableRecord
100
AcDbLinetypeTableRecord
  2
DASHED
 70
     0
  3
Dashed
 72
    65
 73
     2
 40
15.0
 49
7.0
 74
     0
 49
-8.0
 74
     0
  0
LTYPE
  5
2B
330
5
100
AcDbSymbolTableRecord
100
AcDbLinetypeTableRecord
  2
DOTTED
 70
     0
  3
Dotted
 72
    65
 73
     2
 40
1.0
 49
0.0
 74
     0
 49
-1.0
 74
     0
  0
LTYPE
  5
2C
330
5
100
AcDbSymbolTableRecord
100
AcDbLinetypeTableRecord
  2
DOT_CENTER
 70
     0
  3
Dot_Center
 72
    65
 73
     4
 40
14.0
 49
12.0
 74
     0
 49
-1.0
 74
     0
 49
0.0
 74
     0
 49
-1.0
 74
     0
  0
LTYPE
  5
2D
330
5
100
AcDbSymbolTableRecord
100
AcDbLinetypeTableRecord
  2
LONG_DASHED
 70
     0
  3
Long_Dashed
 72
    65
 73
     2
 40
15.0
 49
10.0
 74
     0
 49
-5.0
 74
     0
  0
LTYPE
  5
2E
330
5
100
AcDbSymbolTableRecord
100
AcDbLinetypeTableRecord
  2
DASH_CENTER
 70
     0
  3
Dash_Center
 72
    65
 73
     4
 40
14.0
 49
11.0
 74
     0
 49
-1.0
 74
     0
 49
1.0
 74
     0
 49
-1.0
 74
     0
  0
LTYPE
  5
2F
330
5
100
AcDbSymbolTableRecord
100
AcDbLinetypeTableRecord
  2
PHANTOM
 70
     0
  3
Phantom
 72
    65
 73
     6
 40
13.0
 49
10.0
 74
     0
 49
-1.0
 74
     0
 49
0.0
 74
     0
 49
-1.0
 74
     0
 49
0.0
 74
     0
 49
-1.0
 74
     0
  0
LTYPE
  5
30
330
5
100
AcDbSymbolTableRecord
100
AcDbLinetypeTableRecord
  2
CENTER_DASH_DASH
 70
     0
  3
Center_Dash_Dash
 72
    65
 73
     6
 40
14.0
 49
9.0
 74
     0
 49
-1.0
 74
     0
 49
1.0
 74
     0
 49
-1.0
 74
     0
 49
1.0
 74
     0
 49
-1.0
 74
     0
  0
ENDTAB
  0
TABLE
  2
LAYER
  5
2
330
0
100
AcDbSymbolTable
 70
     7
  0
LAYER
  5
10
330
2
100
AcDbSymbolTableRecord
100
AcDbLayerTableRecord
  2
0
 70
     0
 62
     7
  6
Continuous
370
    -3
390
F
  0
LAYER
  5
31
330
2
100
AcDbSymbolTableRecord
100
AcDbLayerTableRecord
  2
1
 70
     0
 62
     7
  6
Continuous
370
    -3
390
F
  0
LAYER
  5
32
330
2
100
AcDbSymbolTableRecord
100
AcDbLayerTableRecord
  2
ITTEN
 70
     0
 62
     7
  6
Continuous
370
    -3
390
F
  0
LAYER
  5
33
330
2
100
AcDbSymbolTableRecord
100
AcDbLayerTableRecord
  2
JISSEN
 70
     0
 62
     7
  6
Continuous
370
    -3
390
F
  0
LAYER
  5
34
330
2
100
AcDbSymbolTableRecord
100
AcDbLayerTableRecord
  2
NITEN
 70
     0
 62
     7
  6
Continuous
370
    -3
390
F
  0
LAYER
  5
35
330
2
100
AcDbSymbolTableRecord
100
AcDbLayerTableRecord
  2
SAISEN
 70
     0
 62
     7
  6
Continuous
370
    -3
390
F
  0
LAYER
  5
36
330
2
100
AcDbSymbolTableRecord
100
AcDbLayerTableRecord
  2
SUNPOU
 70
     0
 62
     7
  6
Continuous
370
    -3
390
F
  0
ENDTAB
  0
TABLE
  2
STYLE
  5
3
330
0
100
AcDbSymbolTable
 70
     7
  0
STYLE
  5
11
330
3
100
AcDbSymbolTableRecord
100
AcDbTextStyleTableRecord
  2
Standard
 70
     0
 40
0.0
 41
1.0
 50
0.0
 71
     0
 42
0.2
  3
txt
  4

  0
STYLE
  5
55
330
3
100
AcDbSymbolTableRecord
100
AcDbTextStyleTableRecord
  2
CONVERTER_1
 70
     0
 40
0.0
 41
0.9
 50
0.0
 71
     0
 42
0.2
  3
txt.shx
  4

  0
STYLE
  5
58
330
3
100
AcDbSymbolTableRecord
100
AcDbTextStyleTableRecord
  2
CONVERTER_2
 70
     0
 40
0.0
 41
1.068
 50
0.0
 71
     0
 42
0.2
  3
msmincho.ttc
  4

1001
ACAD
1000
MS Mincho
1071
    32785
  0
STYLE
  5
5B
330
3
100
AcDbSymbolTableRecord
100
AcDbTextStyleTableRecord
  2
CONVERTER_3
 70
     0
 40
0.0
 41
0.89
 50
0.0
 71
     0
 42
0.2
  3
MSMINCHO.TTC
  4

1001
ACAD
1000
MS Mincho
1071
    32785
  0
STYLE
  5
5E
330
3
100
AcDbSymbolTableRecord
100
AcDbTextStyleTableRecord
  2
CONVERTER_4
 70
     0
 40
0.0
 41
0.801
 50
0.0
 71
     0
 42
0.2
  3
msmincho.ttc
  4

1001
ACAD
1000
MS Mincho
1071
    32785
  0
STYLE
  5
62
330
3
100
AcDbSymbolTableRecord
100
AcDbTextStyleTableRecord
  2
CONVERTER_5
 70
     0
 40
0.0
 41
0.9025
 50
0.0
 71
     0
 42
0.2
  3
complex.shx
  4

  0
STYLE
  5
285
330
3
100
AcDbSymbolTableRecord
100
AcDbTextStyleTableRecord
  2
CONVERTER_6
 70
     0
 40
0.0
 41
0.712
 50
0.0
 71
     0
 42
0.2
  3
msmincho.ttc
  4

1001
ACAD
1000
MS Mincho
1071
    32785
  0
ENDTAB
  0
TABLE
  2
VIEW
  5
6
330
0
100
AcDbSymbolTable
 70
     0
  0
ENDTAB
  0
TABLE
  2
UCS
  5
7
330
0
100
AcDbSymbolTable
 70
     0
  0
ENDTAB
  0
TABLE
  2
APPID
  5
9
330
0
100
AcDbSymbolTable
 70
     1
  0
APPID
  5
12
330
9
100
AcDbSymbolTableRecord
100
AcDbRegAppTableRecord
  2
ACAD
 70
     0
  0
ENDTAB
  0
TABLE
  2
DIMSTYLE
  5
A
330
0
100
AcDbSymbolTable
 70
    21
100
AcDbDimStyleTable
  0
DIMSTYLE
105
27
330
A
100
AcDbSymbolTableRecord
100
AcDbDimStyleTableRecord
  2
Standard
 70
     0
340
11
  0
DIMSTYLE
105
29B
102
{ACAD_REACTORS
330
29C
102
}
330
A
100
AcDbSymbolTableRecord
100
AcDbDimStyleTableRecord
  2
ME10_DIM_0
 70
     0
  3
φ<>
 41
3.2
 42
1.0
 44
1.0
 73
     0
 74
     0
 77
     1
 78
     8
140
3.2
147
1.0
172
     1
173
     1
176
     2
177
     2
178
     2
271
     2
340
5B
343
295
344
295
  0
DIMSTYLE
105
2A8
102
{ACAD_REACTORS
330
2A9
102
}
330
A
100
AcDbSymbolTableRecord
100
AcDbDimStyleTableRecord
  2
ME10_DIM_1
 70
     0
 41
3.2
 42
1.0
 44
1.0
 73
     0
 74
     0
 77
     1
 78
     8
140
3.2
147
1.0
172
     1
173
     1
176
     2
177
     2
178
     2
271
     2
340
55
343
295
344
295
  0
DIMSTYLE
105
2B5
102
{ACAD_REACTORS
330
2B6
102
}
330
A
100
AcDbSymbolTableRecord
100
AcDbDimStyleTableRecord
  2
ME10_DIM_2
 70
     0
 41
3.2
 42
1.0
 44
1.0
 73
     0
 74
     0
 77
     1
 78
     8
140
3.2
147
1.0
172
     1
173
     1
176
     2
177
     2
178
     2
271
     2
340
55
343
295
344
295
  0
DIMSTYLE
105
2C2
102
{ACAD_REACTORS
330
2C3
102
}
330
A
100
AcDbSymbolTableRecord
100
AcDbDimStyleTableRecord
  2
ME10_DIM_3
 70
     0
 41
3.2
 42
1.0
 44
1.0
 73
     0
 74
     0
 77
     1
 78
     8
140
3.2
147
1.0
172
     1
173
     1
176
     2
177
     2
178
     2
271
     2
340
55
343
295
344
295
  0
DIMSTYLE
105
2CF
102
{ACAD_REACTORS
330
2D0
102
}
330
A
100
AcDbSymbolTableRecord
100
AcDbDimStyleTableRecord
  2
ME10_DIM_4
 70
     0
 41
3.2
 42
1.0
 44
1.0
 73
     0
 74
     0
 77
     1
 78
     8
140
3.2
147
1.0
172
     1
173
     1
176
     2
177
     2
178
     2
271
     2
340
55
343
295
344
295
  0
DIMSTYLE
105
2DC
102
{ACAD_REACTORS
330
2DD
102
}
330
A
100
AcDbSymbolTableRecord
100
AcDbDimStyleTableRecord
  2
ME10_DIM_5
 70
     0
 41
3.2
 42
1.0
 44
1.0
 73
     0
 74
     0
 77
     1
 78
     8
140
3.2
147
1.0
172
     1
173
     1
176
     2
177
     2
178
     2
271
     2
340
55
343
295
344
295
  0
DIMSTYLE
105
2E9
102
{ACAD_REACTORS
330
2EA
102
}
330
A
100
AcDbSymbolTableRecord
100
AcDbDimStyleTableRecord
  2
ME10_DIM_6
 70
     0
 41
3.2
 42
1.0
 44
1.0
 73
     0
 74
     0
 77
     1
 78
     8
140
3.2
147
1.0
172
     1
173
     1
176
     2
177
     2
178
     2
271
     2
340
55
343
295
344
295
  0
DIMSTYLE
105
2F8
102
{ACAD_REACTORS
330
2F9
102
}
330
A
100
AcDbSymbolTableRecord
100
AcDbDimStyleTableRecord
  2
ME10_DIM_7
 70
     0
  3
ｔ<>
 41
3.2
 42
1.0
 44
1.0
 73
     0
 74
     0
 77
     1
 78
     8
140
3.2
147
1.0
172
     1
173
     1
176
     2
177
     2
178
     2
271
     2
340
5B
343
295
344
295
  0
DIMSTYLE
105
305
102
{ACAD_REACTORS
330
306
102
}
330
A
100
AcDbSymbolTableRecord
100
AcDbDimStyleTableRecord
  2
ME10_DIM_8
 70
     0
  3
φ<>
 41
3.2
 42
1.0
 44
1.0
 73
     0
 74
     0
 77
     1
 78
     8
140
3.2
147
1.0
172
     1
173
     1
176
     2
177
     2
178
     2
271
     2
340
5B
343
295
344
295
  0
DIMSTYLE
105
314
102
{ACAD_REACTORS
330
315
102
}
330
A
100
AcDbSymbolTableRecord
100
AcDbDimStyleTableRecord
  2
ME10_DIM_9
 70
     0
 41
3.2
 42
1.0
 44
1.0
 73
     0
 74
     0
 77
     1
 78
     8
140
3.2
147
1.0
172
     1
173
     1
176
     2
177
     2
178
     2
271
     2
340
55
343
295
344
295
  0
DIMSTYLE
105
321
102
{ACAD_REACTORS
330
322
102
}
330
A
100
AcDbSymbolTableRecord
100
AcDbDimStyleTableRecord
  2
ME10_DIM_10
 70
     0
  3
φ<>
 41
3.2
 42
1.0
 44
1.0
 73
     0
 74
     0
 77
     1
 78
     8
140
3.2
147
1.0
172
     1
173
     1
176
     2
177
     2
178
     2
271
     2
340
5B
343
295
344
295
  0
DIMSTYLE
105
32E
102
{ACAD_REACTORS
330
32F
102
}
330
A
100
AcDbSymbolTableRecord
100
AcDbDimStyleTableRecord
  2
ME10_DIM_11
 70
     0
 41
3.2
 42
1.0
 44
1.0
 73
     0
 74
     0
 77
     1
 78
     8
140
3.2
147
0.7
172
     1
173
     1
176
     2
177
     2
178
     2
271
     2
340
55
343
295
344
295
  0
DIMSTYLE
105
33B
102
{ACAD_REACTORS
330
33C
102
}
330
A
100
AcDbSymbolTableRecord
100
AcDbDimStyleTableRecord
  2
ME10_DIM_12
 70
     0
 41
3.2
 42
1.0
 44
1.0
 73
     0
 74
     0
 77
     1
 78
     8
140
3.2
147
1.0
172
     1
173
     1
176
     2
177
     2
178
     2
271
     2
340
55
343
295
344
295
  0
DIMSTYLE
105
348
102
{ACAD_REACTORS
330
349
102
}
330
A
100
AcDbSymbolTableRecord
100
AcDbDimStyleTableRecord
  2
ME10_DIM_13
 70
     0
 41
3.2
 42
1.0
 44
1.0
 73
     0
 74
     0
 77
     1
 78
     8
140
3.2
147
1.0
172
     1
173
     1
176
     2
177
     2
178
     2
271
     2
340
55
343
295
344
295
  0
DIMSTYLE
105
355
102
{ACAD_REACTORS
330
356
102
}
330
A
100
AcDbSymbolTableRecord
100
AcDbDimStyleTableRecord
  2
ME10_DIM_14
 70
     0
 41
3.2
 42
1.0
 44
1.0
 73
     0
 74
     0
 77
     1
 78
     8
140
3.2
147
1.0
172
     1
173
     1
176
     2
177
     2
178
     2
271
     2
340
55
343
295
344
295
  0
DIMSTYLE
105
364
102
{ACAD_REACTORS
330
365
102
}
330
A
100
AcDbSymbolTableRecord
100
AcDbDimStyleTableRecord
  2
ME10_DIM_15
 70
     0
 41
3.2
 42
1.0
 44
1.0
 73
     0
 74
     0
 77
     1
 78
     8
140
3.2
147
1.0
172
     1
173
     1
176
     2
177
     2
178
     2
271
     2
340
55
343
295
344
295
  0
DIMSTYLE
105
371
102
{ACAD_REACTORS
330
372
102
}
330
A
100
AcDbSymbolTableRecord
100
AcDbDimStyleTableRecord
  2
ME10_DIM_16
 70
     0
  3
　(ローラ幅）
 41
3.2
 42
1.0
 44
1.0
 73
     0
 74
     0
 77
     1
 78
     8
140
3.2
147
1.0
172
     1
173
     1
176
     2
177
     2
178
     2
271
     2
340
5B
343
295
344
295
  0
DIMSTYLE
105
380
102
{ACAD_REACTORS
330
381
102
}
330
A
100
AcDbSymbolTableRecord
100
AcDbDimStyleTableRecord
  2
ME10_DIM_17
 70
     0
 41
3.2
 42
1.0
 44
1.0
 73
     0
 74
     0
 77
     1
 78
     8
140
3.2
147
1.0
172
     1
173
     1
176
     2
177
     2
178
     2
271
     2
340
55
343
295
344
295
  0
DIMSTYLE
105
38F
102
{ACAD_REACTORS
330
390
102
}
330
A
100
AcDbSymbolTableRecord
100
AcDbDimStyleTableRecord
  2
ME10_DIM_18
 70
     0
 41
3.2
 42
1.0
 44
1.0
 73
     0
 74
     0
 77
     1
 78
     8
140
3.2
147
1.0
172
     1
173
     1
176
     2
177
     2
178
     2
271
     2
340
55
343
295
344
295
  0
DIMSTYLE
105
39C
102
{ACAD_REACTORS
330
39D
102
}
330
A
100
AcDbSymbolTableRecord
100
AcDbDimStyleTableRecord
  2
ME10_DIM_19
 70
     0
 41
3.2
 42
1.0
 44
1.0
 73
     0
 74
     0
 77
     1
 78
     8
140
3.2
147
1.0
172
     1
173
     1
176
     2
177
     2
178
     2
271
     2
340
55
343
295
344
295
  0
ENDTAB
  0
TABLE
  2
BLOCK_RECORD
  5
1
330
0
100
AcDbSymbolTable
 70
    23
  0
BLOCK_RECORD
  5
1F
330
1
100
AcDbSymbolTableRecord
100
AcDbBlockTableRecord
  2
*Model_Space
340
22
  0
BLOCK_RECORD
  5
1B
330
1
100
AcDbSymbolTableRecord
100
AcDbBlockTableRecord
  2
*Paper_Space
340
1E
  0
BLOCK_RECORD
  5
23
330
1
100
AcDbSymbolTableRecord
100
AcDbBlockTableRecord
  2
*Paper_Space0
340
26
  0
BLOCK_RECORD
  5
37
330
1
100
AcDbSymbolTableRecord
100
AcDbBlockTableRecord
  2
Zuwaku-A3-web
340
0
102
{BLKREFS
331
3A
102
}
  0
BLOCK_RECORD
  5
28A
330
1
100
AcDbSymbolTableRecord
100
AcDbBlockTableRecord
  2
*D02
340
0
  0
BLOCK_RECORD
  5
295
330
1
100
AcDbSymbolTableRecord
100
AcDbBlockTableRecord
  2
_Open30
340
0
  0
BLOCK_RECORD
  5
29D
330
1
100
AcDbSymbolTableRecord
100
AcDbBlockTableRecord
  2
*D14
340
0
  0
BLOCK_RECORD
  5
2AA
330
1
100
AcDbSymbolTableRecord
100
AcDbBlockTableRecord
  2
*D25
340
0
  0
BLOCK_RECORD
  5
2B7
330
1
100
AcDbSymbolTableRecord
100
AcDbBlockTableRecord
  2
*D36
340
0
  0
BLOCK_RECORD
  5
2C4
330
1
100
AcDbSymbolTableRecord
100
AcDbBlockTableRecord
  2
*D47
340
0
  0
BLOCK_RECORD
  5
2D1
330
1
100
AcDbSymbolTableRecord
100
AcDbBlockTableRecord
  2
*D58
340
0
  0
BLOCK_RECORD
  5
2DE
330
1
100
AcDbSymbolTableRecord
100
AcDbBlockTableRecord
  2
*D69
340
0
  0
BLOCK_RECORD
  5
2EB
330
1
100
AcDbSymbolTableRecord
100
AcDbBlockTableRecord
  2
*D710
340
0
  0
BLOCK_RECORD
  5
2FA
330
1
100
AcDbSymbolTableRecord
100
AcDbBlockTableRecord
  2
*D811
340
0
  0
BLOCK_RECORD
  5
307
330
1
100
AcDbSymbolTableRecord
100
AcDbBlockTableRecord
  2
*D912
340
0
  0
BLOCK_RECORD
  5
316
330
1
100
AcDbSymbolTableRecord
100
AcDbBlockTableRecord
  2
*D1013
340
0
  0
BLOCK_RECORD
  5
323
330
1
100
AcDbSymbolTableRecord
100
AcDbBlockTableRecord
  2
*D1114
340
0
  0
BLOCK_RECORD
  5
330
330
1
100
AcDbSymbolTableRecord
100
AcDbBlockTableRecord
  2
*D1215
340
0
  0
BLOCK_RECORD
  5
33D
330
1
100
AcDbSymbolTableRecord
100
AcDbBlockTableRecord
  2
*D1316
340
0
  0
BLOCK_RECORD
  5
34A
330
1
100
AcDbSymbolTableRecord
100
AcDbBlockTableRecord
  2
*D1417
340
0
  0
BLOCK_RECORD
  5
357
330
1
100
AcDbSymbolTableRecord
100
AcDbBlockTableRecord
  2
*D1518
340
0
  0
BLOCK_RECORD
  5
366
330
1
100
AcDbSymbolTableRecord
100
AcDbBlockTableRecord
  2
*D1619
340
0
  0
BLOCK_RECORD
  5
373
330
1
100
AcDbSymbolTableRecord
100
AcDbBlockTableRecord
  2
*D1720
340
0
  0
BLOCK_RECORD
  5
382
330
1
100
AcDbSymbolTableRecord
100
AcDbBlockTableRecord
  2
*D1821
340
0
  0
BLOCK_RECORD
  5
391
330
1
100
AcDbSymbolTableRecord
100
AcDbBlockTableRecord
  2
*D1922
340
0
  0
ENDTAB
  0
ENDSEC
  0
SECTION
  2
BLOCKS
  0
BLOCK
  5
20
330
1F
100
AcDbEntity
  8
0
100
AcDbBlockBegin
  2
*Model_Space
 70
     0
 71
     0
 10
0.0
 20
0.0
 30
0.0
  3
*Model_Space
  1

  0
ENDBLK
  5
21
330
1F
100
AcDbEntity
  8
0
100
AcDbBlockEnd
  0
BLOCK
  5
1C
330
1B
100
AcDbEntity
 67
     1
  8
0
100
AcDbBlockBegin
  2
*Paper_Space
 70
     0
 71
     0
 10
0.0
 20
0.0
 30
0.0
  3
*Paper_Space
  1

  0
ENDBLK
  5
1D
330
1B
100
AcDbEntity
 67
     1
  8
0
100
AcDbBlockEnd
  0
BLOCK
  5
24
330
23
100
AcDbEntity
  8
0
100
AcDbBlockBegin
  2
*Paper_Space0
 70
     0
 71
     0
 10
0.0
 20
0.0
 30
0.0
  3
*Paper_Space0
  1

  0
ENDBLK
  5
25
330
23
100
AcDbEntity
  8
0
100
AcDbBlockEnd
  0
BLOCK
  5
38
330
37
100
AcDbEntity
  8
0
100
AcDbBlockBegin
  2
Zuwaku-A3-web
 70
     0
 71
     0
 10
196.9999999999998
 20
134.0
 30
0.0
  3
Zuwaku-A3-web
  1

  0
POINT
  5
3B
330
37
100
AcDbEntity
  8
1
 62
     3
 60
     1
100
AcDbPoint
 10
162.5
 20
20.0
 30
0.0
  0
POINT
  5
3C
330
37
100
AcDbEntity
  8
1
 62
     3
 60
     1
100
AcDbPoint
 10
202.0
 20
15.0
 30
0.0
  0
POINT
  5
3D
330
37
100
AcDbEntity
  8
1
 62
     3
 60
     1
100
AcDbPoint
 10
162.5
 20
15.0
 30
0.0
  0
POINT
  5
3E
330
37
100
AcDbEntity
  8
1
 62
     3
 60
     1
100
AcDbPoint
 10
9.5
 20
12.5
 30
0.0
  0
POINT
  5
3F
330
37
100
AcDbEntity
  8
1
 62
     3
 60
     1
100
AcDbPoint
 10
2.5
 20
12.5
 30
0.0
  0
POINT
  5
40
330
37
100
AcDbEntity
  8
1
 62
     3
 60
     1
100
AcDbPoint
 10
0.0
 20
0.0
 30
0.0
  0
LINE
  5
41
330
37
100
AcDbEntity
  8
1
  6
Continuous
 62
     4
100
AcDbLine
 10
189.4945771572093
 20
2.13397584248199
 30
0.0
 11
195.2266254722454
 21
7.866024157518
 31
0.0
  0
LINE
  5
42
330
37
100
AcDbEntity
  8
1
  6
Continuous
 62
     7
100
AcDbLine
 10
0.0
 20
0.0
 30
0.0
 11
394.0
 21
0.0
 31
0.0
  0
LINE
  5
43
330
37
100
AcDbEntity
  8
1
  6
Continuous
 62
     4
100
AcDbLine
 10
162.5
 20
15.0
 30
0.0
 11
202.0
 21
15.0
 31
0.0
  0
LINE
  5
44
330
37
100
AcDbEntity
  8
1
  6
Continuous
 62
     3
100
AcDbLine
 10
9.5
 20
12.5
 30
0.0
 11
6.0
 21
19.0
 31
0.0
  0
LINE
  5
45
330
37
100
AcDbEntity
  8
1
  6
Continuous
 62
     3
100
AcDbLine
 10
2.5
 20
12.5
 30
0.0
 11
9.5
 21
12.5
 31
0.0
  0
LINE
  5
46
330
37
100
AcDbEntity
  8
1
  6
Continuous
 62
     3
100
AcDbLine
 10
6.0
 20
19.0
 30
0.0
 11
2.5
 21
12.5
 31
0.0
  0
LINE
  5
47
330
37
100
AcDbEntity
  8
1
  6
Continuous
 62
     4
100
AcDbLine
 10
12.0
 20
20.0
 30
0.0
 11
12.0
 21
0.0
 31
0.0
  0
LINE
  5
48
330
37
100
AcDbEntity
  8
1
  6
Continuous
 62
     4
100
AcDbLine
 10
0.0
 20
10.0
 30
0.0
 11
394.0
 21
10.0
 31
0.0
  0
LINE
  5
49
330
37
100
AcDbEntity
  8
1
  6
Continuous
 62
     7
100
AcDbLine
 10
393.9999999999996
 20
268.0
 30
0.0
 11
0.0
 21
268.0
 31
0.0
  0
LINE
  5
4A
330
37
100
AcDbEntity
  8
1
  6
Continuous
 62
     7
100
AcDbLine
 10
394.0
 20
0.0
 30
0.0
 11
393.9999999999996
 21
268.0
 31
0.0
  0
LINE
  5
4B
330
37
100
AcDbEntity
  8
1
  6
Continuous
 62
     4
100
AcDbLine
 10
202.0
 20
0.0
 30
0.0
 11
202.0
 21
20.0
 31
0.0
  0
LINE
  5
4C
330
37
100
AcDbEntity
  8
1
  6
Continuous
 62
     4
100
AcDbLine
 10
162.5
 20
0.0
 30
0.0
 11
162.5
 21
20.0
 31
0.0
  0
LINE
  5
4D
330
37
100
AcDbEntity
  8
1
  6
Continuous
 62
     4
100
AcDbLine
 10
283.0
 20
20.0
 30
0.0
 11
283.0
 21
0.0
 31
0.0
  0
LINE
  5
4E
330
37
100
AcDbEntity
  8
1
  6
Continuous
 62
     4
100
AcDbLine
 10
227.0
 20
20.0
 30
0.0
 11
227.0
 21
0.0
 31
0.0
  0
LINE
  5
4F
330
37
100
AcDbEntity
  8
1
  6
Continuous
 62
     4
100
AcDbLine
 10
170.5
 20
10.0
 30
0.0
 11
170.5
 21
0.0
 31
0.0
  0
LINE
  5
50
330
37
100
AcDbEntity
  8
1
  6
Continuous
 62
     4
100
AcDbLine
 10
66.0
 20
20.0
 30
0.0
 11
66.0
 21
0.0
 31
0.0
  0
LINE
  5
51
330
37
100
AcDbEntity
  8
1
  6
Continuous
 62
     7
100
AcDbLine
 10
0.0
 20
268.0
 30
0.0
 11
0.0
 21
0.0
 31
0.0
  0
LINE
  5
52
330
37
100
AcDbEntity
  8
1
  6
Continuous
 62
     4
100
AcDbLine
 10
173.7445771572093
 20
2.13397584248199
 30
0.0
 11
179.4766254722454
 21
7.866024157518
 31
0.0
  0
LINE
  5
53
330
37
100
AcDbEntity
  8
1
  6
Continuous
 62
     4
100
AcDbLine
 10
394.0
 20
20.0
 30
0.0
 11
0.0
 21
20.0
 31
0.0
  0
LINE
  5
54
330
37
100
AcDbEntity
  8
1
  6
Continuous
 62
     4
100
AcDbLine
 10
295.0
 20
20.0
 30
0.0
 11
295.0
 21
0.0
 31
0.0
  0
MTEXT
  5
56
330
37
100
AcDbEntity
  8
1
 62
     2
100
AcDbMText
 10
180.9766254722454
 20
3.75
 30
0.0
 40
4.0
 41
0.0
 71
     5
 72
     1
  1
1
  7
CONVERTER_1
 73
     1
 44
0.60024009603842
  0
MTEXT
  5
57
330
37
100
AcDbEntity
  8
1
 62
     2
100
AcDbMText
 10
173.183432867907
 20
6.25
 30
0.0
 40
4.0
 41
0.0
 71
     5
 72
     1
  1
1
  7
CONVERTER_1
 73
     1
 44
0.60024009603842
  0
MTEXT
  5
59
330
37
100
AcDbEntity
  8
1
 62
     2
100
AcDbMText
 10
289.0
 20
2.75
 30
0.0
 40
3.5
 41
0.0
 71
     5
 72
     1
  1
番号
  7
CONVERTER_2
 73
     1
 44
0.78031212484994
  0
MTEXT
  5
5A
330
37
100
AcDbEntity
  8
1
 62
     2
100
AcDbMText
 10
166.5
 20
2.75
 30
0.0
 40
3.5
 41
0.0
 71
     5
 72
     1
  1
度
  7
CONVERTER_2
 73
     1
 44
0.78031212484994
  0
MTEXT
  5
5C
330
37
100
AcDbEntity
  8
1
 62
     2
100
AcDbMText
 10
5.67807803017169
 20
2.75
 30
0.0
 40
3.5
 41
0.0
 71
     5
 72
     1
  1
番号
  7
CONVERTER_3
 73
     1
 44
0.78031212484994
  0
MTEXT
  5
5D
330
37
100
AcDbEntity
  8
1
 62
     7
100
AcDbMText
 10
114.25
 20
15.0
 30
0.0
 40
5.0
 41
0.0
 71
     5
 72
     1
  1
技術情報サービス
  7
CONVERTER_3
 73
     1
 44
1.20048019207683
  0
MTEXT
  5
5F
330
37
100
AcDbEntity
  8
1
 62
     2
100
AcDbMText
 10
214.5
 20
15.0
 30
0.0
 40
4.0
 41
0.0
 71
     5
 72
     1
  1
シリーズ名
  7
CONVERTER_4
 73
     1
 44
1.32052821128451
  0
MTEXT
  5
60
330
37
100
AcDbEntity
  8
1
 62
     2
100
AcDbMText
 10
214.5
 20
5.0
 30
0.0
 40
4.0
 41
0.0
 71
     5
 72
     1
  1
機　種
  7
CONVERTER_3
 73
     1
 44
1.32052821128451
  0
MTEXT
  5
61
330
37
100
AcDbEntity
  8
1
 62
     2
100
AcDbMText
 10
189.75
 20
6.5
 30
0.0
 40
4.0
 41
0.0
 71
     5
 72
     1
  1
1
  7
CONVERTER_1
 73
     1
 44
1.32052821128451
  0
MTEXT
  5
63
330
37
100
AcDbEntity
  8
1
 62
     7
100
AcDbMText
 10
114.25
 20
5.0
 30
0.0
 40
4.0
 41
0.0
 71
     5
 72
     1
  1
MARUYASU KIKAI CO.,LTD.
  7
CONVERTER_5
 73
     1
 44
1.32052821128451
  0
MTEXT
  5
64
330
37
100
AcDbEntity
  8
1
 62
     2
100
AcDbMText
 10
6.0
 20
7.25
 30
0.0
 40
3.5
 41
0.0
 71
     5
 72
     1
  1
改訂
  7
CONVERTER_3
 73
     1
 44
0.78031212484994
  0
MTEXT
  5
65
330
37
100
AcDbEntity
  8
1
 62
     2
100
AcDbMText
 10
39.0
 20
5.0
 30
0.0
 40
3.5
 41
0.0
 71
     5
 72
     1
  1
改　 訂　 記　 事
  7
CONVERTER_3
 73
     1
 44
1.32052821128451
  0
MTEXT
  5
66
330
37
100
AcDbEntity
  8
1
 62
     2
100
AcDbMText
 10
166.5
 20
7.25
 30
0.0
 40
3.5
 41
0.0
 71
     5
 72
     1
  1
尺
  7
CONVERTER_2
 73
     1
 44
0.78031212484994
  0
MTEXT
  5
67
330
37
100
AcDbEntity
  8
1
 62
     2
100
AcDbMText
 10
182.25
 20
17.5
 30
0.0
 40
3.5
 41
0.0
 71
     5
 72
     1
  1
年　　月　　日
  7
CONVERTER_3
 73
     1
 44
0.78031212484994
  0
MTEXT
  5
68
330
37
100
AcDbEntity
  8
1
 62
     2
100
AcDbMText
 10
289.0
 20
7.25
 30
0.0
 40
3.5
 41
0.0
 71
     5
 72
     1
  1
図面
  7
CONVERTER_2
 73
     1
 44
0.78031212484994
  0
MTEXT
  5
69
330
37
100
AcDbEntity
  8
1
 62
     2
100
AcDbMText
 10
289.0
 20
15.0
 30
0.0
 40
4.0
 41
0.0
 71
     5
 72
     1
  1
図名
  7
CONVERTER_3
 73
     1
 44
1.32052821128451
  0
MTEXT
  5
6A
330
37
100
AcDbEntity
  8
1
 62
     4
100
AcDbMText
 10
393.4565543923691
 20
-0.25615332095569
 30
0.0
 40
2.0
 41
0.0
 71
     3
 72
     1
  1
A3
  7
CONVERTER_1
 73
     1
 44
1.32052821128451
  0
ENDBLK
  5
39
330
37
100
AcDbEntity
  8
0
100
AcDbBlockEnd
  0
BLOCK
  5
293
330
28A
100
AcDbEntity
  8
0
100
AcDbBlockBegin
  2
*D02
 70
     1
 71
     0
 10
0.0
 20
0.0
 30
0.0
  3
*D02
  1

  0
LINE
  5
28B
330
28A
100
AcDbEntity
  8
1
  6
Continuous
 62
     2
100
AcDbLine
 10
118.061632169408
 20
183.0778507000849
 30
0.0
 11
118.061632169408
 21
225.7778507000849
 31
0.0
  0
LINE
  5
28C
330
28A
100
AcDbEntity
  8
1
  6
Continuous
 62
     2
100
AcDbLine
 10
71.78788908765677
 20
183.0778507000849
 30
0.0
 11
119.061632169408
 21
183.0778507000849
 31
0.0
  0
LINE
  5
28D
330
28A
100
AcDbEntity
  8
1
  6
Continuous
 62
     2
100
AcDbLine
 10
71.78788908765677
 20
225.7778507000849
 30
0.0
 11
119.061632169408
 21
225.7778507000849
 31
0.0
  0
LINE
  5
28E
330
28A
100
AcDbEntity
  8
1
 62
     2
100
AcDbLine
 10
118.061632169408
 20
183.0778507000849
 30
0.0
 11
117.2041947536284
 21
186.2778507000849
 31
0.0
  0
LINE
  5
28F
330
28A
100
AcDbEntity
  8
1
 62
     2
100
AcDbLine
 10
118.061632169408
 20
183.0778507000849
 30
0.0
 11
118.9190695851876
 21
186.2778507000849
 31
0.0
  0
LINE
  5
290
330
28A
100
AcDbEntity
  8
1
 62
     2
100
AcDbLine
 10
118.061632169408
 20
225.7778507000849
 30
0.0
 11
118.9190695851876
 21
222.577850700085
 31
0.0
  0
LINE
  5
291
330
28A
100
AcDbEntity
  8
1
 62
     2
100
AcDbLine
 10
118.061632169408
 20
225.7778507000849
 30
0.0
 11
117.2041947536284
 21
222.577850700085
 31
0.0
  0
MTEXT
  5
292
330
28A
100
AcDbEntity
  8
1
 62
     2
100
AcDbMText
 10
117.061632169408
 20
198.4946123989781
 30
0.0
 40
3.2
 41
0.0
 71
     7
 72
     1
  1
\C2;φ\C2;42.7
  7
CONVERTER_3
 11
0.0
 21
1.0
 31
0.0
 73
     1
 44
0.60024009603842
  0
ENDBLK
  5
294
330
28A
100
AcDbEntity
  8
0
100
AcDbBlockEnd
  0
BLOCK
  5
296
330
295
100
AcDbEntity
  8
0
100
AcDbBlockBegin
  2
_Open30
 70
     0
 71
     0
 10
0.0
 20
0.0
 30
0.0
  3
_Open30
  1

  0
LINE
  5
298
330
295
100
AcDbEntity
  8
0
  6
ByBlock
 62
     0
370
    -2
100
AcDbLine
 10
-1.0
 20
0.267949
 30
0.0
 11
0.0
 21
0.0
 31
0.0
  0
LINE
  5
299
330
295
100
AcDbEntity
  8
0
  6
ByBlock
 62
     0
370
    -2
100
AcDbLine
 10
0.0
 20
0.0
 30
0.0
 11
-1.0
 21
-0.267949
 31
0.0
  0
LINE
  5
29A
330
295
100
AcDbEntity
  8
0
  6
ByBlock
 62
     0
370
    -2
100
AcDbLine
 10
0.0
 20
0.0
 30
0.0
 11
-1.0
 21
0.0
 31
0.0
  0
ENDBLK
  5
297
330
295
100
AcDbEntity
  8
0
100
AcDbBlockEnd
  0
BLOCK
  5
2A6
330
29D
100
AcDbEntity
  8
0
100
AcDbBlockBegin
  2
*D14
 70
     1
 71
     0
 10
0.0
 20
0.0
 30
0.0
  3
*D14
  1

  0
LINE
  5
29E
330
29D
100
AcDbEntity
  8
1
  6
Continuous
 62
     2
100
AcDbLine
 10
66.65800778533112
 20
123.5479622854843
 30
0.0
 11
66.65800778533112
 21
79.54796228548429
 31
0.0
  0
LINE
  5
29F
330
29D
100
AcDbEntity
  8
1
  6
Continuous
 62
     2
100
AcDbLine
 10
113.6580077853311
 20
123.5479622854843
 30
0.0
 11
65.65800778533112
 21
123.5479622854843
 31
0.0
  0
LINE
  5
2A0
330
29D
100
AcDbEntity
  8
1
  6
Continuous
 62
     2
100
AcDbLine
 10
102.6580077853311
 20
79.54796228548429
 30
0.0
 11
65.65800778533112
 21
79.54796228548429
 31
0.0
  0
LINE
  5
2A1
330
29D
100
AcDbEntity
  8
1
 62
     2
100
AcDbLine
 10
66.65800778533112
 20
123.5479622854843
 30
0.0
 11
67.51544520111071
 21
120.3479622854843
 31
0.0
  0
LINE
  5
2A2
330
29D
100
AcDbEntity
  8
1
 62
     2
100
AcDbLine
 10
66.65800778533112
 20
123.5479622854843
 30
0.0
 11
65.80057036955154
 21
120.3479622854843
 31
0.0
  0
LINE
  5
2A3
330
29D
100
AcDbEntity
  8
1
 62
     2
100
AcDbLine
 10
66.65800778533112
 20
79.54796228548429
 30
0.0
 11
65.80057036955154
 21
82.74796228548429
 31
0.0
  0
LINE
  5
2A4
330
29D
100
AcDbEntity
  8
1
 62
     2
100
AcDbLine
 10
66.65800778533112
 20
79.54796228548429
 30
0.0
 11
67.51544520111071
 21
82.74796228548429
 31
0.0
  0
MTEXT
  5
2A5
330
29D
100
AcDbEntity
  8
1
 62
     2
100
AcDbMText
 10
65.65800778533109
 20
101.1698927319007
 30
0.0
 40
3.2
 41
0.0
 71
     7
 72
     1
  1
44
  7
CONVERTER_1
 11
0.0
 21
1.0
 31
0.0
 73
     1
 44
0.60024009603842
  0
ENDBLK
  5
2A7
330
29D
100
AcDbEntity
  8
0
100
AcDbBlockEnd
  0
BLOCK
  5
2B3
330
2AA
100
AcDbEntity
  8
0
100
AcDbBlockBegin
  2
*D25
 70
     1
 71
     0
 10
0.0
 20
0.0
 30
0.0
  3
*D25
  1

  0
LINE
  5
2AB
330
2AA
100
AcDbEntity
  8
1
  6
Continuous
 62
     2
100
AcDbLine
 10
169.6580077853311
 20
115.5479622854843
 30
0.0
 11
169.6580077853311
 21
90.54796228548429
 31
0.0
  0
LINE
  5
2AC
330
2AA
100
AcDbEntity
  8
1
  6
Continuous
 62
     2
100
AcDbLine
 10
148.2410127853311
 20
115.5479622854843
 30
0.0
 11
170.6580077853311
 21
115.5479622854843
 31
0.0
  0
LINE
  5
2AD
330
2AA
100
AcDbEntity
  8
1
  6
Continuous
 62
     2
100
AcDbLine
 10
144.5580077853311
 20
90.54796228548429
 30
0.0
 11
170.6580077853311
 21
90.54796228548429
 31
0.0
  0
LINE
  5
2AE
330
2AA
100
AcDbEntity
  8
1
 62
     2
100
AcDbLine
 10
169.6580077853311
 20
115.5479622854843
 30
0.0
 11
170.5154452011107
 21
112.3479622854843
 31
0.0
  0
LINE
  5
2AF
330
2AA
100
AcDbEntity
  8
1
 62
     2
100
AcDbLine
 10
169.6580077853311
 20
115.5479622854843
 30
0.0
 11
168.8005703695515
 21
112.3479622854843
 31
0.0
  0
LINE
  5
2B0
330
2AA
100
AcDbEntity
  8
1
 62
     2
100
AcDbLine
 10
169.6580077853311
 20
90.54796228548429
 30
0.0
 11
168.8005703695515
 21
93.74796228548429
 31
0.0
  0
LINE
  5
2B1
330
2AA
100
AcDbEntity
  8
1
 62
     2
100
AcDbLine
 10
169.6580077853311
 20
90.54796228548429
 30
0.0
 11
170.5154452011107
 21
93.74796228548429
 31
0.0
  0
MTEXT
  5
2B2
330
2AA
100
AcDbEntity
  8
1
 62
     2
100
AcDbMText
 10
168.6580077853311
 20
99.18058836316169
 30
0.0
 40
3.2
 41
0.0
 71
     7
 72
     1
  1
25
  7
CONVERTER_1
 11
0.0
 21
1.0
 31
0.0
 73
     1
 44
0.60024009603842
  0
ENDBLK
  5
2B4
330
2AA
100
AcDbEntity
  8
0
100
AcDbBlockEnd
  0
BLOCK
  5
2C0
330
2B7
100
AcDbEntity
  8
0
100
AcDbBlockBegin
  2
*D36
 70
     1
 71
     0
 10
0.0
 20
0.0
 30
0.0
  3
*D36
  1

  0
LINE
  5
2B8
330
2B7
100
AcDbEntity
  8
1
  6
Continuous
 62
     2
100
AcDbLine
 10
108.1580077853312
 20
67.54796228548429
 30
0.0
 11
138.1580077853312
 21
67.54796228548429
 31
0.0
  0
LINE
  5
2B9
330
2B7
100
AcDbEntity
  8
1
  6
Continuous
 62
     2
100
AcDbLine
 10
108.1580077853312
 20
82.14796228548428
 30
0.0
 11
108.1580077853312
 21
66.54796228548429
 31
0.0
  0
LINE
  5
2BA
330
2B7
100
AcDbEntity
  8
1
  6
Continuous
 62
     2
100
AcDbLine
 10
138.1580077853312
 20
82.14796228548428
 30
0.0
 11
138.1580077853312
 21
66.54796228548429
 31
0.0
  0
LINE
  5
2BB
330
2B7
100
AcDbEntity
  8
1
 62
     2
100
AcDbLine
 10
108.1580077853312
 20
67.54796228548429
 30
0.0
 11
111.3580077853312
 21
68.40539970126388
 31
0.0
  0
LINE
  5
2BC
330
2B7
100
AcDbEntity
  8
1
 62
     2
100
AcDbLine
 10
108.1580077853312
 20
67.54796228548429
 30
0.0
 11
111.3580077853312
 21
66.6905248697047
 31
0.0
  0
LINE
  5
2BD
330
2B7
100
AcDbEntity
  8
1
 62
     2
100
AcDbLine
 10
138.1580077853312
 20
67.54796228548429
 30
0.0
 11
134.9580077853312
 21
66.6905248697047
 31
0.0
  0
LINE
  5
2BE
330
2B7
100
AcDbEntity
  8
1
 62
     2
100
AcDbLine
 10
138.1580077853312
 20
67.54796228548429
 30
0.0
 11
134.9580077853312
 21
68.40539970126389
 31
0.0
  0
MTEXT
  5
2BF
330
2B7
100
AcDbEntity
  8
1
 62
     2
100
AcDbMText
 10
122.5367240641442
 20
68.54796228548429
 30
0.0
 40
3.2
 41
0.0
 71
     7
 72
     1
  1
30
  7
CONVERTER_1
 11
0.9999999999970621
 21
2.424068405545307E-6
 31
0.0
 73
     1
 44
0.60024009603842
  0
ENDBLK
  5
2C1
330
2B7
100
AcDbEntity
  8
0
100
AcDbBlockEnd
  0
BLOCK
  5
2CD
330
2C4
100
AcDbEntity
  8
0
100
AcDbBlockBegin
  2
*D47
 70
     1
 71
     0
 10
0.0
 20
0.0
 30
0.0
  3
*D47
  1

  0
LINE
  5
2C5
330
2C4
100
AcDbEntity
  8
1
  6
Continuous
 62
     2
100
AcDbLine
 10
98.65800778533121
 20
57.54796228548429
 30
0.0
 11
147.6580077853312
 21
57.54796228548429
 31
0.0
  0
LINE
  5
2C6
330
2C4
100
AcDbEntity
  8
1
  6
Continuous
 62
     2
100
AcDbLine
 10
98.65800778533121
 20
83.54796228548429
 30
0.0
 11
98.65800778533121
 21
56.54796228548429
 31
0.0
  0
LINE
  5
2C7
330
2C4
100
AcDbEntity
  8
1
  6
Continuous
 62
     2
100
AcDbLine
 10
147.6580077853312
 20
83.54796228548429
 30
0.0
 11
147.6580077853312
 21
56.54796228548429
 31
0.0
  0
LINE
  5
2C8
330
2C4
100
AcDbEntity
  8
1
 62
     2
100
AcDbLine
 10
98.65800778533121
 20
57.54796228548429
 30
0.0
 11
101.8580077853312
 21
58.40539970126388
 31
0.0
  0
LINE
  5
2C9
330
2C4
100
AcDbEntity
  8
1
 62
     2
100
AcDbLine
 10
98.65800778533121
 20
57.54796228548429
 30
0.0
 11
101.8580077853312
 21
56.6905248697047
 31
0.0
  0
LINE
  5
2CA
330
2C4
100
AcDbEntity
  8
1
 62
     2
100
AcDbLine
 10
147.6580077853312
 20
57.54796228548429
 30
0.0
 11
144.4580077853312
 21
56.6905248697047
 31
0.0
  0
LINE
  5
2CB
330
2C4
100
AcDbEntity
  8
1
 62
     2
100
AcDbLine
 10
147.6580077853312
 20
57.54796228548429
 30
0.0
 11
144.4580077853312
 21
58.40539970126388
 31
0.0
  0
MTEXT
  5
2CC
330
2C4
100
AcDbEntity
  8
1
 62
     2
100
AcDbMText
 10
121.8427806797002
 20
59.02796228548429
 30
0.0
 40
3.2
 41
0.0
 71
     7
 72
     1
  1
49
  7
CONVERTER_1
 11
0.9999999999970621
 21
2.424068405545307E-6
 31
0.0
 73
     1
 44
0.60024009603842
  0
ENDBLK
  5
2CE
330
2C4
100
AcDbEntity
  8
0
100
AcDbBlockEnd
  0
BLOCK
  5
2DA
330
2D1
100
AcDbEntity
  8
0
100
AcDbBlockBegin
  2
*D58
 70
     1
 71
     0
 10
0.0
 20
0.0
 30
0.0
  3
*D58
  1

  0
LINE
  5
2D2
330
2D1
100
AcDbEntity
  8
1
  6
Continuous
 62
     2
100
AcDbLine
 10
88.65800778533119
 20
47.54796228548429
 30
0.0
 11
157.6580077853312
 21
47.54796228548429
 31
0.0
  0
LINE
  5
2D3
330
2D1
100
AcDbEntity
  8
1
  6
Continuous
 62
     2
100
AcDbLine
 10
88.65800778533119
 20
88.3479622854843
 30
0.0
 11
88.65800778533119
 21
46.54796228548429
 31
0.0
  0
LINE
  5
2D4
330
2D1
100
AcDbEntity
  8
1
  6
Continuous
 62
     2
100
AcDbLine
 10
157.6580077853312
 20
88.3479622854843
 30
0.0
 11
157.6580077853312
 21
46.54796228548429
 31
0.0
  0
LINE
  5
2D5
330
2D1
100
AcDbEntity
  8
1
 62
     2
100
AcDbLine
 10
88.65800778533119
 20
47.54796228548429
 30
0.0
 11
91.8580077853312
 21
48.40539970126388
 31
0.0
  0
LINE
  5
2D6
330
2D1
100
AcDbEntity
  8
1
 62
     2
100
AcDbLine
 10
88.65800778533119
 20
47.54796228548429
 30
0.0
 11
91.8580077853312
 21
46.6905248697047
 31
0.0
  0
LINE
  5
2D7
330
2D1
100
AcDbEntity
  8
1
 62
     2
100
AcDbLine
 10
157.6580077853312
 20
47.54796228548429
 30
0.0
 11
154.4580077853312
 21
46.6905248697047
 31
0.0
  0
LINE
  5
2D8
330
2D1
100
AcDbEntity
  8
1
 62
     2
100
AcDbLine
 10
157.6580077853312
 20
47.54796228548429
 30
0.0
 11
154.4580077853312
 21
48.40539970126388
 31
0.0
  0
MTEXT
  5
2D9
330
2D1
100
AcDbEntity
  8
1
 62
     2
100
AcDbMText
 10
122.3054096026632
 20
49.02796228548429
 30
0.0
 40
3.2
 41
0.0
 71
     7
 72
     1
  1
69
  7
CONVERTER_1
 11
0.9999999999970621
 21
2.424068405545307E-6
 31
0.0
 73
     1
 44
0.60024009603842
  0
ENDBLK
  5
2DB
330
2D1
100
AcDbEntity
  8
0
100
AcDbBlockEnd
  0
BLOCK
  5
2E7
330
2DE
100
AcDbEntity
  8
0
100
AcDbBlockBegin
  2
*D69
 70
     1
 71
     0
 10
0.0
 20
0.0
 30
0.0
  3
*D69
  1

  0
LINE
  5
2DF
330
2DE
100
AcDbEntity
  8
1
  6
Continuous
 62
     2
100
AcDbLine
 10
227.6900297853312
 20
57.54796228548429
 30
0.0
 11
253.2900297853312
 21
57.54796228548429
 31
0.0
  0
LINE
  5
2E0
330
2DE
100
AcDbEntity
  8
1
  6
Continuous
 62
     2
100
AcDbLine
 10
227.6900297853312
 20
81.34002028548429
 30
0.0
 11
227.6900297853312
 21
56.54796228548429
 31
0.0
  0
LINE
  5
2E1
330
2DE
100
AcDbEntity
  8
1
  6
Continuous
 62
     2
100
AcDbLine
 10
253.2900297853312
 20
79.54796228548429
 30
0.0
 11
253.2900297853312
 21
56.54796228548429
 31
0.0
  0
LINE
  5
2E2
330
2DE
100
AcDbEntity
  8
1
 62
     2
100
AcDbLine
 10
227.6900297853312
 20
57.54796228548429
 30
0.0
 11
230.8900297853312
 21
58.40539970126388
 31
0.0
  0
LINE
  5
2E3
330
2DE
100
AcDbEntity
  8
1
 62
     2
100
AcDbLine
 10
227.6900297853312
 20
57.54796228548429
 30
0.0
 11
230.8900297853312
 21
56.6905248697047
 31
0.0
  0
LINE
  5
2E4
330
2DE
100
AcDbEntity
  8
1
 62
     2
100
AcDbLine
 10
253.2900297853312
 20
57.54796228548429
 30
0.0
 11
250.0900297853312
 21
56.6905248697047
 31
0.0
  0
LINE
  5
2E5
330
2DE
100
AcDbEntity
  8
1
 62
     2
100
AcDbLine
 10
253.2900297853312
 20
57.54796228548429
 30
0.0
 11
250.0900297853312
 21
58.40539970126388
 31
0.0
  0
MTEXT
  5
2E6
330
2DE
100
AcDbEntity
  8
1
 62
     2
100
AcDbMText
 10
236.8583805119972
 20
59.02796228548429
 30
0.0
 40
3.2
 41
0.0
 71
     7
 72
     1
  1
25.6
  7
CONVERTER_1
 11
0.9999999999970621
 21
2.424068405545307E-6
 31
0.0
 73
     1
 44
0.60024009603842
  0
ENDBLK
  5
2E8
330
2DE
100
AcDbEntity
  8
0
100
AcDbBlockEnd
  0
BLOCK
  5
2F6
330
2EB
100
AcDbEntity
  8
0
100
AcDbBlockBegin
  2
*D710
 70
     1
 71
     0
 10
0.0
 20
0.0
 30
0.0
  3
*D710
  1

  0
LINE
  5
2EC
330
2EB
100
AcDbEntity
  8
1
  6
Continuous
 62
     2
100
AcDbLine
 10
253.2900297853312
 20
67.54796228548429
 30
0.0
 11
259.6900297853312
 21
67.54796228548429
 31
0.0
  0
LINE
  5
2ED
330
2EB
100
AcDbEntity
  8
1
  6
Continuous
 62
     2
100
AcDbLine
 10
250.6900297853312
 20
67.54796228548429
 30
0.0
 11
253.2900297853312
 21
67.54796228548429
 31
0.0
  0
LINE
  5
2EE
330
2EB
100
AcDbEntity
  8
1
  6
Continuous
 62
     2
100
AcDbLine
 10
237.8503538252737
 20
67.54796228548429
 30
0.0
 11
250.6900297853312
 21
67.54796228548429
 31
0.0
  0
LINE
  5
2EF
330
2EB
100
AcDbEntity
  8
1
  6
Continuous
 62
     2
100
AcDbLine
 10
250.6900297853312
 20
79.54796228548429
 30
0.0
 11
250.6900297853312
 21
66.54796228548429
 31
0.0
  0
LINE
  5
2F0
330
2EB
100
AcDbEntity
  8
1
  6
Continuous
 62
     2
100
AcDbLine
 10
253.2900297853312
 20
79.54796228548429
 30
0.0
 11
253.2900297853312
 21
66.54796228548429
 31
0.0
  0
LINE
  5
2F1
330
2EB
100
AcDbEntity
  8
1
 62
     2
100
AcDbLine
 10
250.6900297853312
 20
67.54796228548429
 30
0.0
 11
247.4900297853312
 21
66.6905248697047
 31
0.0
  0
LINE
  5
2F2
330
2EB
100
AcDbEntity
  8
1
 62
     2
100
AcDbLine
 10
250.6900297853312
 20
67.54796228548429
 30
0.0
 11
247.4900297853312
 21
68.40539970126389
 31
0.0
  0
LINE
  5
2F3
330
2EB
100
AcDbEntity
  8
1
 62
     2
100
AcDbLine
 10
253.2900297853312
 20
67.54796228548429
 30
0.0
 11
256.4900297853312
 21
68.40539970126388
 31
0.0
  0
LINE
  5
2F4
330
2EB
100
AcDbEntity
  8
1
 62
     2
100
AcDbLine
 10
253.2900297853312
 20
67.54796228548429
 30
0.0
 11
256.4900297853312
 21
66.6905248697047
 31
0.0
  0
MTEXT
  5
2F5
330
2EB
100
AcDbEntity
  8
1
 62
     2
100
AcDbMText
 10
236.5134649364002
 20
69.02794956397329
 30
0.0
 40
3.2
 41
0.0
 71
     7
 72
     1
  1
\C2;ｔ\C2;2.6
  7
CONVERTER_3
 11
0.9999999999970621
 21
2.424068405545307E-6
 31
0.0
 73
     1
 44
0.60024009603842
  0
ENDBLK
  5
2F7
330
2EB
100
AcDbEntity
  8
0
100
AcDbBlockEnd
  0
BLOCK
  5
303
330
2FA
100
AcDbEntity
  8
0
100
AcDbBlockBegin
  2
*D811
 70
     1
 71
     0
 10
0.0
 20
0.0
 30
0.0
  3
*D811
  1

  0
LINE
  5
2FB
330
2FA
100
AcDbEntity
  8
1
  6
Continuous
 62
     2
100
AcDbLine
 10
350.0214486777683
 20
198.4278507000849
 30
0.0
 11
350.0214486777683
 21
210.4278507000848
 31
0.0
  0
LINE
  5
2FC
330
2FA
100
AcDbEntity
  8
1
  6
Continuous
 62
     2
100
AcDbLine
 10
365.021448685903
 20
198.4278507000849
 30
0.0
 11
349.0214486777683
 21
198.4278507000849
 31
0.0
  0
LINE
  5
2FD
330
2FA
100
AcDbEntity
  8
1
  6
Continuous
 62
     2
100
AcDbLine
 10
365.021448685903
 20
210.4278507000848
 30
0.0
 11
349.0214486777683
 21
210.4278507000848
 31
0.0
  0
LINE
  5
2FE
330
2FA
100
AcDbEntity
  8
1
 62
     2
100
AcDbLine
 10
350.0214486777683
 20
198.4278507000849
 30
0.0
 11
349.1640112619887
 21
201.6278507000849
 31
0.0
  0
LINE
  5
2FF
330
2FA
100
AcDbEntity
  8
1
 62
     2
100
AcDbLine
 10
350.0214486777683
 20
198.4278507000849
 30
0.0
 11
350.8788860935479
 21
201.6278507000849
 31
0.0
  0
LINE
  5
300
330
2FA
100
AcDbEntity
  8
1
 62
     2
100
AcDbLine
 10
350.0214486777683
 20
210.4278507000848
 30
0.0
 11
350.8788860935479
 21
207.2278507000848
 31
0.0
  0
LINE
  5
301
330
2FA
100
AcDbEntity
  8
1
 62
     2
100
AcDbLine
 10
350.0214486777683
 20
210.4278507000848
 30
0.0
 11
349.1640112619887
 21
207.2278507000848
 31
0.0
  0
MTEXT
  5
302
330
2FA
100
AcDbEntity
  8
1
 62
     2
100
AcDbMText
 10
349.0214486777683
 20
198.2734621985962
 30
0.0
 40
3.2
 41
0.0
 71
     7
 72
     1
  1
\C2;φ\C2;12
  7
CONVERTER_3
 11
0.0
 21
1.0
 31
0.0
 73
     1
 44
0.60024009603842
  0
ENDBLK
  5
304
330
2FA
100
AcDbEntity
  8
0
100
AcDbBlockEnd
  0
BLOCK
  5
312
330
307
100
AcDbEntity
  8
0
100
AcDbBlockBegin
  2
*D912
 70
     1
 71
     0
 10
0.0
 20
0.0
 30
0.0
  3
*D912
  1

  0
LINE
  5
308
330
307
100
AcDbEntity
  8
1
  6
Continuous
 62
     2
100
AcDbLine
 10
370.0214486859029
 20
186.427850700085
 30
0.0
 11
376.4214486859029
 21
186.427850700085
 31
0.0
  0
LINE
  5
309
330
307
100
AcDbEntity
  8
1
  6
Continuous
 62
     2
100
AcDbLine
 10
362.021448685903
 20
186.427850700085
 30
0.0
 11
370.0214486859029
 21
186.427850700085
 31
0.0
  0
LINE
  5
30A
330
307
100
AcDbEntity
  8
1
  6
Continuous
 62
     2
100
AcDbLine
 10
355.621448685903
 20
186.427850700085
 30
0.0
 11
362.021448685903
 21
186.427850700085
 31
0.0
  0
LINE
  5
30B
330
307
100
AcDbEntity
  8
1
  6
Continuous
 62
     2
100
AcDbLine
 10
362.021448685903
 20
198.9557147000849
 30
0.0
 11
362.021448685903
 21
185.427850700085
 31
0.0
  0
LINE
  5
30C
330
307
100
AcDbEntity
  8
1
  6
Continuous
 62
     2
100
AcDbLine
 10
370.0214486859029
 20
198.9557147523613
 30
0.0
 11
370.0214486859029
 21
185.427850700085
 31
0.0
  0
LINE
  5
30D
330
307
100
AcDbEntity
  8
1
 62
     2
100
AcDbLine
 10
362.021448685903
 20
186.427850700085
 30
0.0
 11
358.821448685903
 21
185.5704132843054
 31
0.0
  0
LINE
  5
30E
330
307
100
AcDbEntity
  8
1
 62
     2
100
AcDbLine
 10
362.021448685903
 20
186.427850700085
 30
0.0
 11
358.821448685903
 21
187.2852881158646
 31
0.0
  0
LINE
  5
30F
330
307
100
AcDbEntity
  8
1
 62
     2
100
AcDbLine
 10
370.0214486859029
 20
186.427850700085
 30
0.0
 11
373.2214486859029
 21
187.2852881158646
 31
0.0
  0
LINE
  5
310
330
307
100
AcDbEntity
  8
1
 62
     2
100
AcDbLine
 10
370.0214486859029
 20
186.427850700085
 30
0.0
 11
373.2214486859029
 21
185.5704132843054
 31
0.0
  0
MTEXT
  5
311
330
307
100
AcDbEntity
  8
1
 62
     2
100
AcDbMText
 10
365.6646150544174
 20
188.451261443279
 30
0.0
 40
3.2
 41
0.0
 71
     7
 72
     1
  1
8
  7
CONVERTER_1
 11
0.9999999999970621
 21
2.424068405545307E-6
 31
0.0
 73
     1
 44
0.60024009603842
  0
ENDBLK
  5
313
330
307
100
AcDbEntity
  8
0
100
AcDbBlockEnd
  0
BLOCK
  5
31F
330
316
100
AcDbEntity
  8
0
100
AcDbBlockBegin
  2
*D1013
 70
     1
 71
     0
 10
0.0
 20
0.0
 30
0.0
  3
*D1013
  1

  0
LINE
  5
317
330
316
100
AcDbEntity
  8
1
  6
Continuous
 62
     2
100
AcDbLine
 10
20.12788908765671
 20
210.4278507000849
 30
0.0
 11
20.12788908765671
 21
198.4278507000849
 31
0.0
  0
LINE
  5
318
330
316
100
AcDbEntity
  8
1
  6
Continuous
 62
     2
100
AcDbLine
 10
37.12788908765674
 20
210.4278507000849
 30
0.0
 11
19.12788908765671
 21
210.4278507000849
 31
0.0
  0
LINE
  5
319
330
316
100
AcDbEntity
  8
1
  6
Continuous
 62
     2
100
AcDbLine
 10
37.12788908765674
 20
198.4278507000849
 30
0.0
 11
19.12788908765671
 21
198.4278507000849
 31
0.0
  0
LINE
  5
31A
330
316
100
AcDbEntity
  8
1
 62
     2
100
AcDbLine
 10
20.12788908765671
 20
210.4278507000849
 30
0.0
 11
20.9853265034363
 21
207.2278507000849
 31
0.0
  0
LINE
  5
31B
330
316
100
AcDbEntity
  8
1
 62
     2
100
AcDbLine
 10
20.12788908765671
 20
210.4278507000849
 30
0.0
 11
19.27045167187712
 21
207.2278507000849
 31
0.0
  0
LINE
  5
31C
330
316
100
AcDbEntity
  8
1
 62
     2
100
AcDbLine
 10
20.12788908765671
 20
198.4278507000849
 30
0.0
 11
19.27045167187712
 21
201.6278507000849
 31
0.0
  0
LINE
  5
31D
330
316
100
AcDbEntity
  8
1
 62
     2
100
AcDbLine
 10
20.12788908765671
 20
198.4278507000849
 30
0.0
 11
20.98532650343631
 21
201.6278507000849
 31
0.0
  0
MTEXT
  5
31E
330
316
100
AcDbEntity
  8
1
 62
     2
100
AcDbMText
 10
19.12788908765671
 20
198.2734621985962
 30
0.0
 40
3.2
 41
0.0
 71
     7
 72
     1
  1
\C2;φ\C2;12
  7
CONVERTER_3
 11
0.0
 21
1.0
 31
0.0
 73
     1
 44
0.60024009603842
  0
ENDBLK
  5
320
330
316
100
AcDbEntity
  8
0
100
AcDbBlockEnd
  0
BLOCK
  5
32C
330
323
100
AcDbEntity
  8
0
100
AcDbBlockBegin
  2
*D1114
 70
     1
 71
     0
 10
0.0
 20
0.0
 30
0.0
  3
*D1114
  1

  0
LINE
  5
324
330
323
100
AcDbEntity
  8
1
  6
Continuous
 62
     2
100
AcDbLine
 10
32.12788908765671
 20
186.4278507000849
 30
0.0
 11
42.12788908765674
 21
186.4278507000849
 31
0.0
  0
LINE
  5
325
330
323
100
AcDbEntity
  8
1
  6
Continuous
 62
     2
100
AcDbLine
 10
32.12788908765671
 20
203.4278507000849
 30
0.0
 11
32.12788908765671
 21
185.4278507000849
 31
0.0
  0
LINE
  5
326
330
323
100
AcDbEntity
  8
1
  6
Continuous
 62
     2
100
AcDbLine
 10
42.12788908765674
 20
198.9557147000849
 30
0.0
 11
42.12788908765674
 21
185.4278507000849
 31
0.0
  0
LINE
  5
327
330
323
100
AcDbEntity
  8
1
 62
     2
100
AcDbLine
 10
32.12788908765671
 20
186.4278507000849
 30
0.0
 11
35.32788908765672
 21
187.2852881158645
 31
0.0
  0
LINE
  5
328
330
323
100
AcDbEntity
  8
1
 62
     2
100
AcDbLine
 10
32.12788908765671
 20
186.4278507000849
 30
0.0
 11
35.32788908765672
 21
185.5704132843053
 31
0.0
  0
LINE
  5
329
330
323
100
AcDbEntity
  8
1
 62
     2
100
AcDbLine
 10
42.12788908765674
 20
186.4278507000849
 30
0.0
 11
38.92788908765674
 21
185.5704132843053
 31
0.0
  0
LINE
  5
32A
330
323
100
AcDbEntity
  8
1
 62
     2
100
AcDbLine
 10
42.12788908765674
 20
186.4278507000849
 30
0.0
 11
38.92788908765674
 21
187.2852881158645
 31
0.0
  0
MTEXT
  5
32B
330
323
100
AcDbEntity
  8
1
 62
     2
100
AcDbMText
 10
35.04910554561714
 20
188.451261443279
 30
0.0
 40
3.2
 41
0.0
 71
     7
 72
     1
  1
10
  7
CONVERTER_1
 11
0.9999999999970621
 21
2.424068405545307E-6
 31
0.0
 73
     1
 44
0.60024009603842
  0
ENDBLK
  5
32D
330
323
100
AcDbEntity
  8
0
100
AcDbBlockEnd
  0
BLOCK
  5
339
330
330
100
AcDbEntity
  8
0
100
AcDbBlockBegin
  2
*D1215
 70
     1
 71
     0
 10
0.0
 20
0.0
 30
0.0
  3
*D1215
  1

  0
LINE
  5
331
330
330
100
AcDbEntity
  8
1
  6
Continuous
 62
     2
100
AcDbLine
 10
53.78788908765677
 20
171.0778507000849
 30
0.0
 11
65.78788908765674
 21
171.0778507000849
 31
0.0
  0
LINE
  5
332
330
330
100
AcDbEntity
  8
1
  6
Continuous
 62
     2
100
AcDbLine
 10
53.78788908765677
 20
198.4278507000849
 30
0.0
 11
53.78788908765677
 21
170.0778507000849
 31
0.0
  0
LINE
  5
333
330
330
100
AcDbEntity
  8
1
  6
Continuous
 62
     2
100
AcDbLine
 10
65.78788908765674
 20
193.4278507000849
 30
0.0
 11
65.78788908765674
 21
170.0778507000849
 31
0.0
  0
LINE
  5
334
330
330
100
AcDbEntity
  8
1
 62
     2
100
AcDbLine
 10
53.78788908765677
 20
171.0778507000849
 30
0.0
 11
56.98788908765677
 21
171.9352881158645
 31
0.0
  0
LINE
  5
335
330
330
100
AcDbEntity
  8
1
 62
     2
100
AcDbLine
 10
53.78788908765677
 20
171.0778507000849
 30
0.0
 11
56.98788908765677
 21
170.2204132843053
 31
0.0
  0
LINE
  5
336
330
330
100
AcDbEntity
  8
1
 62
     2
100
AcDbLine
 10
65.78788908765674
 20
171.0778507000849
 30
0.0
 11
62.58788908765673
 21
170.2204132843053
 31
0.0
  0
LINE
  5
337
330
330
100
AcDbEntity
  8
1
 62
     2
100
AcDbLine
 10
65.78788908765674
 20
171.0778507000849
 30
0.0
 11
62.58788908765673
 21
171.9352881158645
 31
0.0
  0
MTEXT
  5
338
330
330
100
AcDbEntity
  8
1
 62
     2
100
AcDbMText
 10
54.87788908765674
 20
172.0778507000849
 30
0.0
 40
3.2
 41
0.0
 71
     7
 72
     1
  1
12
  7
CONVERTER_1
 11
0.9999999999970621
 21
2.424068405545307E-6
 31
0.0
 73
     1
 44
0.60024009603842
  0
ENDBLK
  5
33A
330
330
100
AcDbEntity
  8
0
100
AcDbBlockEnd
  0
BLOCK
  5
346
330
33D
100
AcDbEntity
  8
0
100
AcDbBlockBegin
  2
*D1316
 70
     1
 71
     0
 10
0.0
 20
0.0
 30
0.0
  3
*D1316
  1

  0
LINE
  5
33E
330
33D
100
AcDbEntity
  8
1
  6
Continuous
 62
     2
100
AcDbLine
 10
287.7878890876567
 20
171.0778507000849
 30
0.0
 11
337.7878890876567
 21
171.0778507000849
 31
0.0
  0
LINE
  5
33F
330
33D
100
AcDbEntity
  8
1
  6
Continuous
 62
     2
100
AcDbLine
 10
287.7878890876567
 20
198.4278507000849
 30
0.0
 11
287.7878890876567
 21
170.0778507000849
 31
0.0
  0
LINE
  5
340
330
33D
100
AcDbEntity
  8
1
  6
Continuous
 62
     2
100
AcDbLine
 10
337.7878890876567
 20
200.9278507000849
 30
0.0
 11
337.7878890876567
 21
170.0778507000849
 31
0.0
  0
LINE
  5
341
330
33D
100
AcDbEntity
  8
1
 62
     2
100
AcDbLine
 10
287.7878890876567
 20
171.0778507000849
 30
0.0
 11
290.9878890876567
 21
171.9352881158645
 31
0.0
  0
LINE
  5
342
330
33D
100
AcDbEntity
  8
1
 62
     2
100
AcDbLine
 10
287.7878890876567
 20
171.0778507000849
 30
0.0
 11
290.9878890876567
 21
170.2204132843053
 31
0.0
  0
LINE
  5
343
330
33D
100
AcDbEntity
  8
1
 62
     2
100
AcDbLine
 10
337.7878890876567
 20
171.0778507000849
 30
0.0
 11
334.5878890876567
 21
170.2204132843053
 31
0.0
  0
LINE
  5
344
330
33D
100
AcDbEntity
  8
1
 62
     2
100
AcDbLine
 10
337.7878890876567
 20
171.0778507000849
 30
0.0
 11
334.5878890876567
 21
171.9352881158645
 31
0.0
  0
MTEXT
  5
345
330
33D
100
AcDbEntity
  8
1
 62
     2
100
AcDbMText
 10
310.3878890876567
 20
172.0778507000849
 30
0.0
 40
3.2
 41
0.0
 71
     7
 72
     1
  1
50
  7
CONVERTER_1
 11
0.9999999999970621
 21
2.424068405545307E-6
 31
0.0
 73
     1
 44
0.60024009603842
  0
ENDBLK
  5
347
330
33D
100
AcDbEntity
  8
0
100
AcDbBlockEnd
  0
BLOCK
  5
353
330
34A
100
AcDbEntity
  8
0
100
AcDbBlockBegin
  2
*D1417
 70
     1
 71
     0
 10
0.0
 20
0.0
 30
0.0
  3
*D1417
  1

  0
LINE
  5
34B
330
34A
100
AcDbEntity
  8
1
  6
Continuous
 62
     2
100
AcDbLine
 10
275.7878890876567
 20
171.0778507000849
 30
0.0
 11
287.7878890876567
 21
171.0778507000849
 31
0.0
  0
LINE
  5
34C
330
34A
100
AcDbEntity
  8
1
  6
Continuous
 62
     2
100
AcDbLine
 10
275.7878890876567
 20
193.4278507000849
 30
0.0
 11
275.7878890876567
 21
170.0778507000849
 31
0.0
  0
LINE
  5
34D
330
34A
100
AcDbEntity
  8
1
  6
Continuous
 62
     2
100
AcDbLine
 10
287.7878890876567
 20
198.4278507000849
 30
0.0
 11
287.7878890876567
 21
170.0778507000849
 31
0.0
  0
LINE
  5
34E
330
34A
100
AcDbEntity
  8
1
 62
     2
100
AcDbLine
 10
275.7878890876567
 20
171.0778507000849
 30
0.0
 11
278.9878890876567
 21
171.9352881158645
 31
0.0
  0
LINE
  5
34F
330
34A
100
AcDbEntity
  8
1
 62
     2
100
AcDbLine
 10
275.7878890876567
 20
171.0778507000849
 30
0.0
 11
278.9878890876567
 21
170.2204132843053
 31
0.0
  0
LINE
  5
350
330
34A
100
AcDbEntity
  8
1
 62
     2
100
AcDbLine
 10
287.7878890876567
 20
171.0778507000849
 30
0.0
 11
284.5878890876567
 21
170.2204132843053
 31
0.0
  0
LINE
  5
351
330
34A
100
AcDbEntity
  8
1
 62
     2
100
AcDbLine
 10
287.7878890876567
 20
171.0778507000849
 30
0.0
 11
284.5878890876567
 21
171.9352881158645
 31
0.0
  0
MTEXT
  5
352
330
34A
100
AcDbEntity
  8
1
 62
     2
100
AcDbMText
 10
279.8678890876567
 20
172.0778507000849
 30
0.0
 40
3.2
 41
0.0
 71
     7
 72
     1
  1
12
  7
CONVERTER_1
 11
0.9999999999970621
 21
2.424068405545307E-6
 31
0.0
 73
     1
 44
0.60024009603842
  0
ENDBLK
  5
354
330
34A
100
AcDbEntity
  8
0
100
AcDbBlockEnd
  0
BLOCK
  5
362
330
357
100
AcDbEntity
  8
0
100
AcDbBlockBegin
  2
*D1518
 70
     1
 71
     0
 10
0.0
 20
0.0
 30
0.0
  3
*D1518
  1

  0
LINE
  5
358
330
357
100
AcDbEntity
  8
1
  6
Continuous
 62
     2
100
AcDbLine
 10
275.7878890876567
 20
171.0778507000849
 30
0.0
 11
282.1878890876567
 21
171.0778507000849
 31
0.0
  0
LINE
  5
359
330
357
100
AcDbEntity
  8
1
  6
Continuous
 62
     2
100
AcDbLine
 10
270.7878890876567
 20
171.0778507000849
 30
0.0
 11
275.7878890876567
 21
171.0778507000849
 31
0.0
  0
LINE
  5
35A
330
357
100
AcDbEntity
  8
1
  6
Continuous
 62
     2
100
AcDbLine
 10
264.3878890876567
 20
171.0778507000849
 30
0.0
 11
270.7878890876567
 21
171.0778507000849
 31
0.0
  0
LINE
  5
35B
330
357
100
AcDbEntity
  8
1
  6
Continuous
 62
     2
100
AcDbLine
 10
270.7878890876567
 20
182.0778507000849
 30
0.0
 11
270.7878890876567
 21
170.0778507000849
 31
0.0
  0
LINE
  5
35C
330
357
100
AcDbEntity
  8
1
  6
Continuous
 62
     2
100
AcDbLine
 10
275.7878890876567
 20
193.4278507000849
 30
0.0
 11
275.7878890876567
 21
170.0778507000849
 31
0.0
  0
LINE
  5
35D
330
357
100
AcDbEntity
  8
1
 62
     2
100
AcDbLine
 10
270.7878890876567
 20
171.0778507000849
 30
0.0
 11
267.5878890876567
 21
170.2204132843053
 31
0.0
  0
LINE
  5
35E
330
357
100
AcDbEntity
  8
1
 62
     2
100
AcDbLine
 10
270.7878890876567
 20
171.0778507000849
 30
0.0
 11
267.5878890876567
 21
171.9352881158645
 31
0.0
  0
LINE
  5
35F
330
357
100
AcDbEntity
  8
1
 62
     2
100
AcDbLine
 10
275.7878890876567
 20
171.0778507000849
 30
0.0
 11
278.9878890876567
 21
171.9352881158645
 31
0.0
  0
LINE
  5
360
330
357
100
AcDbEntity
  8
1
 62
     2
100
AcDbLine
 10
275.7878890876567
 20
171.0778507000849
 30
0.0
 11
278.9878890876567
 21
170.2204132843053
 31
0.0
  0
MTEXT
  5
361
330
357
100
AcDbEntity
  8
1
 62
     2
100
AcDbMText
 10
272.3278890876567
 20
172.0778507000849
 30
0.0
 40
3.2
 41
0.0
 71
     7
 72
     1
  1
5
  7
CONVERTER_1
 11
0.9999999999970621
 21
2.424068405545307E-6
 31
0.0
 73
     1
 44
0.60024009603842
  0
ENDBLK
  5
363
330
357
100
AcDbEntity
  8
0
100
AcDbBlockEnd
  0
BLOCK
  5
36F
330
366
100
AcDbEntity
  8
0
100
AcDbBlockBegin
  2
*D1619
 70
     1
 71
     0
 10
0.0
 20
0.0
 30
0.0
  3
*D1619
  1

  0
LINE
  5
367
330
366
100
AcDbEntity
  8
1
  6
Continuous
 62
     2
100
AcDbLine
 10
70.78788908765674
 20
171.0778507000849
 30
0.0
 11
270.7878890876567
 21
171.0778507000849
 31
0.0
  0
LINE
  5
368
330
366
100
AcDbEntity
  8
1
  6
Continuous
 62
     2
100
AcDbLine
 10
70.78788908765674
 20
182.0778507000849
 30
0.0
 11
70.78788908765674
 21
170.0778507000849
 31
0.0
  0
LINE
  5
369
330
366
100
AcDbEntity
  8
1
  6
Continuous
 62
     2
100
AcDbLine
 10
270.7878890876567
 20
182.0778507000849
 30
0.0
 11
270.7878890876567
 21
170.0778507000849
 31
0.0
  0
LINE
  5
36A
330
366
100
AcDbEntity
  8
1
 62
     2
100
AcDbLine
 10
70.78788908765674
 20
171.0778507000849
 30
0.0
 11
73.98788908765674
 21
171.9352881158645
 31
0.0
  0
LINE
  5
36B
330
366
100
AcDbEntity
  8
1
 62
     2
100
AcDbLine
 10
70.78788908765674
 20
171.0778507000849
 30
0.0
 11
73.98788908765674
 21
170.2204132843053
 31
0.0
  0
LINE
  5
36C
330
366
100
AcDbEntity
  8
1
 62
     2
100
AcDbLine
 10
270.7878890876567
 20
171.0778507000849
 30
0.0
 11
267.5878890876567
 21
170.2204132843053
 31
0.0
  0
LINE
  5
36D
330
366
100
AcDbEntity
  8
1
 62
     2
100
AcDbLine
 10
270.7878890876567
 20
171.0778507000849
 30
0.0
 11
267.5878890876567
 21
171.9352881158645
 31
0.0
  0
MTEXT
  5
36E
330
366
100
AcDbEntity
  8
1
 62
     2
100
AcDbMText
 10
156.6278890876567
 20
172.0778507000849
 30
0.0
 40
3.2
 41
0.0
 71
     7
 72
     1
  1
\C2;200\C2;　(ローラ幅）
  7
CONVERTER_3
 11
0.9999999999970621
 21
2.424068405545307E-6
 31
0.0
 73
     1
 44
0.60024009603842
  0
ENDBLK
  5
370
330
366
100
AcDbEntity
  8
0
100
AcDbBlockEnd
  0
BLOCK
  5
37E
330
373
100
AcDbEntity
  8
0
100
AcDbBlockBegin
  2
*D1720
 70
     1
 71
     0
 10
0.0
 20
0.0
 30
0.0
  3
*D1720
  1

  0
LINE
  5
374
330
373
100
AcDbEntity
  8
1
  6
Continuous
 62
     2
100
AcDbLine
 10
70.78788908765674
 20
171.0778507000849
 30
0.0
 11
77.18788908765674
 21
171.0778507000849
 31
0.0
  0
LINE
  5
375
330
373
100
AcDbEntity
  8
1
  6
Continuous
 62
     2
100
AcDbLine
 10
65.78788908765674
 20
171.0778507000849
 30
0.0
 11
70.78788908765674
 21
171.0778507000849
 31
0.0
  0
LINE
  5
376
330
373
100
AcDbEntity
  8
1
  6
Continuous
 62
     2
100
AcDbLine
 10
59.38788908765674
 20
171.0778507000849
 30
0.0
 11
65.78788908765674
 21
171.0778507000849
 31
0.0
  0
LINE
  5
377
330
373
100
AcDbEntity
  8
1
  6
Continuous
 62
     2
100
AcDbLine
 10
65.78788908765674
 20
193.4278507000849
 30
0.0
 11
65.78788908765674
 21
170.0778507000849
 31
0.0
  0
LINE
  5
378
330
373
100
AcDbEntity
  8
1
  6
Continuous
 62
     2
100
AcDbLine
 10
70.78788908765674
 20
182.0778507000849
 30
0.0
 11
70.78788908765674
 21
170.0778507000849
 31
0.0
  0
LINE
  5
379
330
373
100
AcDbEntity
  8
1
 62
     2
100
AcDbLine
 10
65.78788908765674
 20
171.0778507000849
 30
0.0
 11
62.58788908765673
 21
170.2204132843053
 31
0.0
  0
LINE
  5
37A
330
373
100
AcDbEntity
  8
1
 62
     2
100
AcDbLine
 10
65.78788908765674
 20
171.0778507000849
 30
0.0
 11
62.58788908765673
 21
171.9352881158645
 31
0.0
  0
LINE
  5
37B
330
373
100
AcDbEntity
  8
1
 62
     2
100
AcDbLine
 10
70.78788908765674
 20
171.0778507000849
 30
0.0
 11
73.98788908765674
 21
171.9352881158645
 31
0.0
  0
LINE
  5
37C
330
373
100
AcDbEntity
  8
1
 62
     2
100
AcDbLine
 10
70.78788908765674
 20
171.0778507000849
 30
0.0
 11
73.98788908765674
 21
170.2204132843053
 31
0.0
  0
MTEXT
  5
37D
330
373
100
AcDbEntity
  8
1
 62
     2
100
AcDbMText
 10
67.32788908765674
 20
172.0778507000849
 30
0.0
 40
3.2
 41
0.0
 71
     7
 72
     1
  1
5
  7
CONVERTER_1
 11
0.9999999999970621
 21
2.424068405545307E-6
 31
0.0
 73
     1
 44
0.60024009603842
  0
ENDBLK
  5
37F
330
373
100
AcDbEntity
  8
0
100
AcDbBlockEnd
  0
BLOCK
  5
38D
330
382
100
AcDbEntity
  8
0
100
AcDbBlockBegin
  2
*D1821
 70
     1
 71
     0
 10
0.0
 20
0.0
 30
0.0
  3
*D1821
  1

  0
LINE
  5
383
330
382
100
AcDbEntity
  8
1
  6
Continuous
 62
     2
100
AcDbLine
 10
76.65800778533114
 20
115.5479622854843
 30
0.0
 11
76.65800778533114
 21
109.1479622854843
 31
0.0
  0
LINE
  5
384
330
382
100
AcDbEntity
  8
1
  6
Continuous
 62
     2
100
AcDbLine
 10
76.65800778533114
 20
123.5479622854843
 30
0.0
 11
76.65800778533114
 21
115.5479622854843
 31
0.0
  0
LINE
  5
385
330
382
100
AcDbEntity
  8
1
  6
Continuous
 62
     2
100
AcDbLine
 10
76.65800778533114
 20
129.9479622854843
 30
0.0
 11
76.65800778533114
 21
123.5479622854843
 31
0.0
  0
LINE
  5
386
330
382
100
AcDbEntity
  8
1
  6
Continuous
 62
     2
100
AcDbLine
 10
113.6580077853311
 20
123.5479622854843
 30
0.0
 11
75.65800778533114
 21
123.5479622854843
 31
0.0
  0
LINE
  5
387
330
382
100
AcDbEntity
  8
1
  6
Continuous
 62
     2
100
AcDbLine
 10
98.07500178533118
 20
115.5479622854843
 30
0.0
 11
75.65800778533114
 21
115.5479622854843
 31
0.0
  0
LINE
  5
388
330
382
100
AcDbEntity
  8
1
 62
     2
100
AcDbLine
 10
76.65800778533114
 20
123.5479622854843
 30
0.0
 11
75.80057036955155
 21
126.7479622854843
 31
0.0
  0
LINE
  5
389
330
382
100
AcDbEntity
  8
1
 62
     2
100
AcDbLine
 10
76.65800778533114
 20
123.5479622854843
 30
0.0
 11
77.51544520111072
 21
126.7479622854843
 31
0.0
  0
LINE
  5
38A
330
382
100
AcDbEntity
  8
1
 62
     2
100
AcDbLine
 10
76.65800778533114
 20
115.5479622854843
 30
0.0
 11
77.51544520111072
 21
112.3479622854843
 31
0.0
  0
LINE
  5
38B
330
382
100
AcDbEntity
  8
1
 62
     2
100
AcDbLine
 10
76.65800778533114
 20
115.5479622854843
 30
0.0
 11
75.80057036955155
 21
112.3479622854843
 31
0.0
  0
MTEXT
  5
38C
330
382
100
AcDbEntity
  8
1
 62
     2
100
AcDbMText
 10
75.65800778533111
 20
117.1827038052217
 30
0.0
 40
3.2
 41
0.0
 71
     7
 72
     1
  1
8
  7
CONVERTER_1
 11
0.0
 21
1.0
 31
0.0
 73
     1
 44
0.60024009603842
  0
ENDBLK
  5
38E
330
382
100
AcDbEntity
  8
0
100
AcDbBlockEnd
  0
BLOCK
  5
39A
330
391
100
AcDbEntity
  8
0
100
AcDbBlockBegin
  2
*D1922
 70
     1
 71
     0
 10
0.0
 20
0.0
 30
0.0
  3
*D1922
  1

  0
LINE
  5
392
330
391
100
AcDbEntity
  8
1
  6
Continuous
 62
     2
100
AcDbLine
 10
76.65800778533108
 20
115.5479622854843
 30
0.0
 11
76.65800778533108
 21
79.54796228548429
 31
0.0
  0
LINE
  5
393
330
391
100
AcDbEntity
  8
1
  6
Continuous
 62
     2
100
AcDbLine
 10
98.07500178533118
 20
115.5479622854843
 30
0.0
 11
75.65800778533108
 21
115.5479622854843
 31
0.0
  0
LINE
  5
394
330
391
100
AcDbEntity
  8
1
  6
Continuous
 62
     2
100
AcDbLine
 10
102.6580077853311
 20
79.54796228548429
 30
0.0
 11
75.65800778533108
 21
79.54796228548429
 31
0.0
  0
LINE
  5
395
330
391
100
AcDbEntity
  8
1
 62
     2
100
AcDbLine
 10
76.65800778533108
 20
115.5479622854843
 30
0.0
 11
77.51544520111067
 21
112.3479622854843
 31
0.0
  0
LINE
  5
396
330
391
100
AcDbEntity
  8
1
 62
     2
100
AcDbLine
 10
76.65800778533108
 20
115.5479622854843
 30
0.0
 11
75.80057036955149
 21
112.3479622854843
 31
0.0
  0
LINE
  5
397
330
391
100
AcDbEntity
  8
1
 62
     2
100
AcDbLine
 10
76.65800778533108
 20
79.54796228548429
 30
0.0
 11
75.80057036955149
 21
82.74796228548429
 31
0.0
  0
LINE
  5
398
330
391
100
AcDbEntity
  8
1
 62
     2
100
AcDbLine
 10
76.65800778533108
 20
79.54796228548429
 30
0.0
 11
77.51544520111067
 21
82.74796228548429
 31
0.0
  0
MTEXT
  5
399
330
391
100
AcDbEntity
  8
1
 62
     2
100
AcDbMText
 10
75.1780077853311
 20
95.14796228548428
 30
0.0
 40
3.2
 41
0.0
 71
     7
 72
     1
  1
36
  7
CONVERTER_1
 11
0.0
 21
1.0
 31
0.0
 73
     1
 44
0.60024009603842
  0
ENDBLK
  5
39B
330
391
100
AcDbEntity
  8
0
100
AcDbBlockEnd
  0
ENDSEC
  0
SECTION
  2
ENTITIES
  0
INSERT
  5
3A
330
1F
100
AcDbEntity
  8
0
100
AcDbBlockReference
  2
Zuwaku-A3-web
 10
196.9999999999998
 20
134.0
 30
0.0
  0
POINT
  5
6B
330
1F
100
AcDbEntity
  8
1
 62
     3
 60
     1
100
AcDbPoint
 10
65.78788908765674
 20
204.4278507000849
 30
0.0
  0
POINT
  5
6C
330
1F
100
AcDbEntity
  8
1
 62
     3
 60
     1
100
AcDbPoint
 10
70.78788908765674
 20
225.7778507000849
 30
0.0
  0
POINT
  5
6D
330
1F
100
AcDbEntity
  8
1
 62
     3
 60
     1
100
AcDbPoint
 10
70.78788908765674
 20
183.0778507000849
 30
0.0
  0
POINT
  5
6E
330
1F
100
AcDbEntity
  8
1
 62
     3
 60
     1
100
AcDbPoint
 10
67.78788908765674
 20
222.7778507000849
 30
0.0
  0
POINT
  5
6F
330
1F
100
AcDbEntity
  8
1
 62
     3
 60
     1
100
AcDbPoint
 10
67.78788908765674
 20
186.0778507000849
 30
0.0
  0
POINT
  5
70
330
1F
100
AcDbEntity
  8
1
 62
     3
 60
     1
100
AcDbPoint
 10
65.78788908765674
 20
194.4278507000849
 30
0.0
  0
POINT
  5
71
330
1F
100
AcDbEntity
  8
1
 62
     3
 60
     1
100
AcDbPoint
 10
65.78788908765674
 20
214.4278507000849
 30
0.0
  0
POINT
  5
72
330
1F
100
AcDbEntity
  8
1
 62
     3
 60
     1
100
AcDbPoint
 10
67.78788908765674
 20
214.4278507000849
 30
0.0
  0
POINT
  5
73
330
1F
100
AcDbEntity
  8
1
 62
     3
 60
     1
100
AcDbPoint
 10
67.78788908765674
 20
194.4278507000849
 30
0.0
  0
POINT
  5
74
330
1F
100
AcDbEntity
  8
1
 62
     3
 60
     1
100
AcDbPoint
 10
270.7878890876567
 20
225.7778507000849
 30
0.0
  0
POINT
  5
75
330
1F
100
AcDbEntity
  8
1
 62
     3
 60
     1
100
AcDbPoint
 10
270.7878890876567
 20
183.0778507000849
 30
0.0
  0
POINT
  5
76
330
1F
100
AcDbEntity
  8
1
 62
     3
 60
     1
100
AcDbPoint
 10
273.7878890876567
 20
222.7778507000849
 30
0.0
  0
POINT
  5
77
330
1F
100
AcDbEntity
  8
1
 62
     3
 60
     1
100
AcDbPoint
 10
273.7878890876567
 20
186.0778507000849
 30
0.0
  0
POINT
  5
78
330
1F
100
AcDbEntity
  8
1
 62
     3
 60
     1
100
AcDbPoint
 10
275.7878890876567
 20
214.4278507000849
 30
0.0
  0
POINT
  5
79
330
1F
100
AcDbEntity
  8
1
 62
     3
 60
     1
100
AcDbPoint
 10
273.7878890876567
 20
214.4278507000849
 30
0.0
  0
POINT
  5
7A
330
1F
100
AcDbEntity
  8
1
 62
     3
 60
     1
100
AcDbPoint
 10
275.7878890876567
 20
194.4278507000849
 30
0.0
  0
POINT
  5
7B
330
1F
100
AcDbEntity
  8
1
 62
     3
 60
     1
100
AcDbPoint
 10
273.7878890876567
 20
194.4278507000849
 30
0.0
  0
POINT
  5
7C
330
1F
100
AcDbEntity
  8
1
 62
     3
 60
     1
100
AcDbPoint
 10
339.9177481853917
 20
204.4278507000849
 30
0.0
  0
POINT
  5
7D
330
1F
100
AcDbEntity
  8
1
 62
     3
 60
     1
100
AcDbPoint
 10
287.7878890876567
 20
209.4278507000849
 30
0.0
  0
POINT
  5
7E
330
1F
100
AcDbEntity
  8
1
 62
     3
 60
     1
100
AcDbPoint
 10
287.7878890876567
 20
199.4278507000849
 30
0.0
  0
POINT
  5
7F
330
1F
100
AcDbEntity
  8
1
 62
     3
 60
     1
100
AcDbPoint
 10
290.7878890876567
 20
207.4278507000849
 30
0.0
  0
POINT
  5
80
330
1F
100
AcDbEntity
  8
1
 62
     3
 60
     1
100
AcDbPoint
 10
290.7878890876567
 20
205.9278507000849
 30
0.0
  0
POINT
  5
81
330
1F
100
AcDbEntity
  8
1
 62
     3
 60
     1
100
AcDbPoint
 10
337.7878890876567
 20
206.9278507000849
 30
0.0
  0
POINT
  5
82
330
1F
100
AcDbEntity
  8
1
 62
     3
 60
     1
100
AcDbPoint
 10
327.7878890876567
 20
206.9278507000849
 30
0.0
  0
POINT
  5
83
330
1F
100
AcDbEntity
  8
1
 62
     3
 60
     1
100
AcDbPoint
 10
337.7878890876567
 20
206.6778507000849
 30
0.0
  0
POINT
  5
84
330
1F
100
AcDbEntity
  8
1
 62
     3
 60
     1
100
AcDbPoint
 10
327.7878890876567
 20
206.6778507000849
 30
0.0
  0
POINT
  5
85
330
1F
100
AcDbEntity
  8
1
 62
     3
 60
     1
100
AcDbPoint
 10
337.7878890876567
 20
206.4278507000849
 30
0.0
  0
POINT
  5
86
330
1F
100
AcDbEntity
  8
1
 62
     3
 60
     1
100
AcDbPoint
 10
327.7878890876567
 20
206.4278507000849
 30
0.0
  0
POINT
  5
87
330
1F
100
AcDbEntity
  8
1
 62
     3
 60
     1
100
AcDbPoint
 10
337.7878890876567
 20
205.4278507000849
 30
0.0
  0
POINT
  5
88
330
1F
100
AcDbEntity
  8
1
 62
     3
 60
     1
100
AcDbPoint
 10
327.7878890876567
 20
205.4278507000849
 30
0.0
  0
POINT
  5
89
330
1F
100
AcDbEntity
  8
1
 62
     3
 60
     1
100
AcDbPoint
 10
337.7878890876567
 20
205.1778507000849
 30
0.0
  0
POINT
  5
8A
330
1F
100
AcDbEntity
  8
1
 62
     3
 60
     1
100
AcDbPoint
 10
327.7878890876567
 20
205.1778507000849
 30
0.0
  0
POINT
  5
8B
330
1F
100
AcDbEntity
  8
1
 62
     3
 60
     1
100
AcDbPoint
 10
337.7878890876567
 20
204.9278507000849
 30
0.0
  0
POINT
  5
8C
330
1F
100
AcDbEntity
  8
1
 62
     3
 60
     1
100
AcDbPoint
 10
327.7878890876567
 20
204.9278507000849
 30
0.0
  0
POINT
  5
8D
330
1F
100
AcDbEntity
  8
1
 62
     3
 60
     1
100
AcDbPoint
 10
337.7878890876567
 20
203.9278507000849
 30
0.0
  0
POINT
  5
8E
330
1F
100
AcDbEntity
  8
1
 62
     3
 60
     1
100
AcDbPoint
 10
327.7878890876567
 20
203.9278507000849
 30
0.0
  0
POINT
  5
8F
330
1F
100
AcDbEntity
  8
1
 62
     3
 60
     1
100
AcDbPoint
 10
337.7878890876567
 20
203.6778507000849
 30
0.0
  0
POINT
  5
90
330
1F
100
AcDbEntity
  8
1
 62
     3
 60
     1
100
AcDbPoint
 10
327.7878890876567
 20
203.6778507000849
 30
0.0
  0
POINT
  5
91
330
1F
100
AcDbEntity
  8
1
 62
     3
 60
     1
100
AcDbPoint
 10
337.7878890876567
 20
203.4278507000849
 30
0.0
  0
POINT
  5
92
330
1F
100
AcDbEntity
  8
1
 62
     3
 60
     1
100
AcDbPoint
 10
327.7878890876567
 20
203.4278507000849
 30
0.0
  0
POINT
  5
93
330
1F
100
AcDbEntity
  8
1
 62
     3
 60
     1
100
AcDbPoint
 10
337.7878890876567
 20
202.4278507000849
 30
0.0
  0
POINT
  5
94
330
1F
100
AcDbEntity
  8
1
 62
     3
 60
     1
100
AcDbPoint
 10
327.7878890876567
 20
202.4278507000849
 30
0.0
  0
POINT
  5
95
330
1F
100
AcDbEntity
  8
1
 62
     3
 60
     1
100
AcDbPoint
 10
337.7878890876567
 20
202.1778507000849
 30
0.0
  0
POINT
  5
96
330
1F
100
AcDbEntity
  8
1
 62
     3
 60
     1
100
AcDbPoint
 10
327.7878890876567
 20
202.1778507000849
 30
0.0
  0
POINT
  5
97
330
1F
100
AcDbEntity
  8
1
 62
     3
 60
     1
100
AcDbPoint
 10
337.7878890876567
 20
201.9278507000849
 30
0.0
  0
POINT
  5
98
330
1F
100
AcDbEntity
  8
1
 62
     3
 60
     1
100
AcDbPoint
 10
327.7878890876567
 20
201.9278507000849
 30
0.0
  0
POINT
  5
99
330
1F
100
AcDbEntity
  8
1
 62
     3
 60
     1
100
AcDbPoint
 10
32.12788908765671
 20
204.4278507000849
 30
0.0
  0
POINT
  5
9A
330
1F
100
AcDbEntity
  8
1
 62
     3
 60
     1
100
AcDbPoint
 10
38.12788908765674
 20
198.4278507000849
 30
0.0
  0
LINE
  5
9B
330
1F
100
AcDbEntity
  8
JISSEN
  6
Continuous
 62
     7
100
AcDbLine
 10
286.7878890876567
 20
210.4278507000849
 30
0.0
 11
286.7878890876567
 21
208.8999867000849
 31
0.0
  0
LINE
  5
9C
330
1F
100
AcDbEntity
  8
JISSEN
  6
Continuous
 62
     7
100
AcDbLine
 10
287.7878890876567
 20
209.4278507000849
 30
0.0
 11
286.7878890876567
 21
210.4278507000849
 31
0.0
  0
LINE
  5
9D
330
1F
100
AcDbEntity
  8
JISSEN
  6
Continuous
 62
     7
100
AcDbLine
 10
286.7878890876567
 20
208.8999867000849
 30
0.0
 11
287.7878890876567
 21
207.4278507000849
 31
0.0
  0
LINE
  5
9E
330
1F
100
AcDbEntity
  8
JISSEN
  6
Continuous
 62
     7
100
AcDbLine
 10
286.7878890876567
 20
199.9557147000849
 30
0.0
 11
286.7878890876567
 21
198.4278507000849
 31
0.0
  0
LINE
  5
9F
330
1F
100
AcDbEntity
  8
JISSEN
  6
Continuous
 62
     7
100
AcDbLine
 10
287.7878890876567
 20
199.4278507000849
 30
0.0
 11
286.7878890876567
 21
198.4278507000849
 31
0.0
  0
LINE
  5
A0
330
1F
100
AcDbEntity
  8
JISSEN
  6
Continuous
 62
     7
100
AcDbLine
 10
286.7878890876567
 20
199.9557147000849
 30
0.0
 11
287.7878890876567
 21
201.4278507000849
 31
0.0
  0
LINE
  5
A1
330
1F
100
AcDbEntity
  8
JISSEN
  6
Continuous
 62
     7
100
AcDbLine
 10
287.7878890876567
 20
199.4278507000849
 30
0.0
 11
287.7878890876567
 21
209.4278507000849
 31
0.0
  0
LINE
  5
A2
330
1F
100
AcDbEntity
  8
JISSEN
  6
Continuous
 62
     7
100
AcDbLine
 10
286.7878890876567
 20
210.4278507000849
 30
0.0
 11
275.7878890876567
 21
210.4278507000849
 31
0.0
  0
LINE
  5
A3
330
1F
100
AcDbEntity
  8
JISSEN
  6
Continuous
 62
     7
100
AcDbLine
 10
286.7878890876567
 20
198.4278507000849
 30
0.0
 11
275.7878890876567
 21
198.4278507000849
 31
0.0
  0
LINE
  5
A4
330
1F
100
AcDbEntity
  8
JISSEN
  6
Continuous
 62
     7
100
AcDbLine
 10
286.7878890876567
 20
208.8999867000849
 30
0.0
 11
275.7878890876567
 21
208.8999867000849
 31
0.0
  0
LINE
  5
A5
330
1F
100
AcDbEntity
  8
JISSEN
  6
Continuous
 62
     7
100
AcDbLine
 10
286.7878890876567
 20
199.9557147000849
 30
0.0
 11
275.7878890876567
 21
199.9557147000849
 31
0.0
  0
LINE
  5
A6
330
1F
100
AcDbEntity
  8
SAISEN
  6
Continuous
 62
     3
100
AcDbLine
 10
275.7878890876567
 20
208.8999867000849
 30
0.0
 11
287.0511840876567
 21
200.3433207000849
 31
0.0
  0
LINE
  5
A7
330
1F
100
AcDbEntity
  8
SAISEN
  6
Continuous
 62
     3
100
AcDbLine
 10
287.0511840876567
 20
208.5123817000849
 30
0.0
 11
275.7878890876567
 21
199.9557147000849
 31
0.0
  0
LINE
  5
A8
330
1F
100
AcDbEntity
  8
JISSEN
  6
Continuous
 62
     7
100
AcDbLine
 10
53.78788908765676
 20
209.4278507000849
 30
0.0
 11
54.78788908765676
 21
210.4278507000849
 31
0.0
  0
LINE
  5
A9
330
1F
100
AcDbEntity
  8
JISSEN
  6
Continuous
 62
     7
100
AcDbLine
 10
54.78788908765676
 20
210.4278507000849
 30
0.0
 11
54.78788908765676
 21
208.8999867000849
 31
0.0
  0
LINE
  5
AA
330
1F
100
AcDbEntity
  8
JISSEN
  6
Continuous
 62
     7
100
AcDbLine
 10
54.78788908765676
 20
208.8999867000849
 30
0.0
 11
53.78788908765676
 21
207.4278507000849
 31
0.0
  0
LINE
  5
AB
330
1F
100
AcDbEntity
  8
JISSEN
  6
Continuous
 62
     7
100
AcDbLine
 10
53.78788908765676
 20
199.4278507000849
 30
0.0
 11
54.78788908765676
 21
198.4278507000849
 31
0.0
  0
LINE
  5
AC
330
1F
100
AcDbEntity
  8
JISSEN
  6
Continuous
 62
     7
100
AcDbLine
 10
54.78788908765676
 20
199.9557147000849
 30
0.0
 11
54.78788908765676
 21
198.4278507000849
 31
0.0
  0
LINE
  5
AD
330
1F
100
AcDbEntity
  8
JISSEN
  6
Continuous
 62
     7
100
AcDbLine
 10
53.78788908765676
 20
201.4278507000849
 30
0.0
 11
54.78788908765676
 21
199.9557147000849
 31
0.0
  0
LINE
  5
AE
330
1F
100
AcDbEntity
  8
JISSEN
  6
Continuous
 62
     7
100
AcDbLine
 10
53.78788908765676
 20
199.4278507000849
 30
0.0
 11
53.78788908765676
 21
209.4278507000849
 31
0.0
  0
LINE
  5
AF
330
1F
100
AcDbEntity
  8
JISSEN
  6
Continuous
 62
     7
100
AcDbLine
 10
54.78788908765676
 20
210.4278507000849
 30
0.0
 11
65.78788908765677
 21
210.4278507000849
 31
0.0
  0
LINE
  5
B0
330
1F
100
AcDbEntity
  8
JISSEN
  6
Continuous
 62
     7
100
AcDbLine
 10
54.78788908765676
 20
198.4278507000849
 30
0.0
 11
65.78788908765677
 21
198.4278507000849
 31
0.0
  0
LINE
  5
B1
330
1F
100
AcDbEntity
  8
JISSEN
  6
Continuous
 62
     7
100
AcDbLine
 10
54.78788908765676
 20
208.8999867000849
 30
0.0
 11
65.78788908765677
 21
208.8999867000849
 31
0.0
  0
LINE
  5
B2
330
1F
100
AcDbEntity
  8
JISSEN
  6
Continuous
 62
     7
100
AcDbLine
 10
54.78788908765676
 20
199.9557147000849
 30
0.0
 11
65.78788908765677
 21
199.9557147000849
 31
0.0
  0
LINE
  5
B3
330
1F
100
AcDbEntity
  8
SAISEN
  6
Continuous
 62
     3
100
AcDbLine
 10
65.78788908765677
 20
208.8999867000849
 30
0.0
 11
54.49960908765677
 21
200.3801027000849
 31
0.0
  0
LINE
  5
B4
330
1F
100
AcDbEntity
  8
SAISEN
  6
Continuous
 62
     3
100
AcDbLine
 10
54.49960908765677
 20
208.4755987000849
 30
0.0
 11
65.78788908765677
 21
199.9557147000849
 31
0.0
  0
LINE
  5
B5
330
1F
100
AcDbEntity
  8
1
  6
DASH_CENTER
 62
     3
100
AcDbLine
 10
122.809092722014
 20
204.4278507000849
 30
0.0
 11
339.9177481853917
 21
204.4278507000849
 31
0.0
  0
LINE
  5
B6
330
1F
100
AcDbEntity
  8
1
  6
Continuous
 62
     7
100
AcDbLine
 10
70.78788908765674
 20
225.7778507000849
 30
0.0
 11
70.78788908765674
 21
183.0778507000849
 31
0.0
  0
LINE
  5
B7
330
1F
100
AcDbEntity
  8
1
  6
Continuous
 62
     7
100
AcDbLine
 10
67.78788908765674
 20
222.7778507000849
 30
0.0
 11
67.78788908765674
 21
186.0778507000849
 31
0.0
  0
LINE
  5
B8
330
1F
100
AcDbEntity
  8
1
  6
Continuous
 62
     7
100
AcDbLine
 10
65.78788908765674
 20
194.4278507000849
 30
0.0
 11
65.78788908765674
 21
214.4278507000849
 31
0.0
  0
LINE
  5
B9
330
1F
100
AcDbEntity
  8
1
  6
Continuous
 62
     7
100
AcDbLine
 10
65.78788908765674
 20
214.4278507000849
 30
0.0
 11
67.78788908765674
 21
214.4278507000849
 31
0.0
  0
LINE
  5
BA
330
1F
100
AcDbEntity
  8
1
  6
Continuous
 62
     7
100
AcDbLine
 10
65.78788908765674
 20
194.4278507000849
 30
0.0
 11
67.78788908765674
 21
194.4278507000849
 31
0.0
  0
LINE
  5
BB
330
1F
100
AcDbEntity
  8
1
  6
DASH_CENTER
 62
     3
100
AcDbLine
 10
50.76602496237848
 20
204.4278507000849
 30
0.0
 11
109.573748151113
 21
204.4278507000849
 31
0.0
  0
LINE
  5
BC
330
1F
100
AcDbEntity
  8
1
  6
Continuous
 62
     7
100
AcDbLine
 10
273.7878890876567
 20
194.4278507000849
 30
0.0
 11
275.7878890876567
 21
194.4278507000849
 31
0.0
  0
LINE
  5
BD
330
1F
100
AcDbEntity
  8
1
  6
Continuous
 62
     7
100
AcDbLine
 10
273.7878890876567
 20
214.4278507000849
 30
0.0
 11
275.7878890876567
 21
214.4278507000849
 31
0.0
  0
LINE
  5
BE
330
1F
100
AcDbEntity
  8
1
  6
Continuous
 62
     7
100
AcDbLine
 10
275.7878890876567
 20
214.4278507000849
 30
0.0
 11
275.7878890876567
 21
194.4278507000849
 31
0.0
  0
LINE
  5
BF
330
1F
100
AcDbEntity
  8
1
  6
Continuous
 62
     7
100
AcDbLine
 10
273.7878890876567
 20
186.0778507000849
 30
0.0
 11
273.7878890876567
 21
222.7778507000849
 31
0.0
  0
LINE
  5
C0
330
1F
100
AcDbEntity
  8
1
  6
Continuous
 62
     7
100
AcDbLine
 10
70.78788908765674
 20
183.0778507000849
 30
0.0
 11
270.7878890876567
 21
183.0778507000849
 31
0.0
  0
LINE
  5
C1
330
1F
100
AcDbEntity
  8
1
  6
Continuous
 62
     7
100
AcDbLine
 10
270.7878890876567
 20
183.0778507000849
 30
0.0
 11
270.7878890876567
 21
225.7778507000849
 31
0.0
  0
LINE
  5
C2
330
1F
100
AcDbEntity
  8
1
  6
Continuous
 62
     7
100
AcDbLine
 10
270.7878890876567
 20
225.7778507000849
 30
0.0
 11
70.78788908765674
 21
225.7778507000849
 31
0.0
  0
LINE
  5
C3
330
1F
100
AcDbEntity
  8
1
  6
Continuous
 62
     7
100
AcDbLine
 10
287.7878890876567
 20
209.4278507000849
 30
0.0
 11
289.2878890876567
 21
209.4278507000849
 31
0.0
  0
LINE
  5
C4
330
1F
100
AcDbEntity
  8
1
  6
Continuous
 62
     7
100
AcDbLine
 10
290.7878890876567
 20
207.9278507000849
 30
0.0
 11
290.7878890876567
 21
200.9278507000849
 31
0.0
  0
LINE
  5
C5
330
1F
100
AcDbEntity
  8
1
  6
Continuous
 62
     7
100
AcDbLine
 10
289.2878890876567
 20
199.4278507000849
 30
0.0
 11
287.7878890876567
 21
199.4278507000849
 31
0.0
  0
LINE
  5
C6
330
1F
100
AcDbEntity
  8
1
  6
Continuous
 62
     7
100
AcDbLine
 10
290.7878890876567
 20
207.4278507000849
 30
0.0
 11
327.7878890876567
 21
207.4278507000849
 31
0.0
  0
LINE
  5
C7
330
1F
100
AcDbEntity
  8
1
  6
Continuous
 62
     7
100
AcDbLine
 10
290.7878890876567
 20
205.9278507000849
 30
0.0
 11
327.7878890876567
 21
205.9278507000849
 31
0.0
  0
LINE
  5
C8
330
1F
100
AcDbEntity
  8
1
  6
Continuous
 62
     7
100
AcDbLine
 10
290.7878890876567
 20
204.4278507000849
 30
0.0
 11
327.7878890876567
 21
204.4278507000849
 31
0.0
  0
LINE
  5
C9
330
1F
100
AcDbEntity
  8
1
  6
Continuous
 62
     7
100
AcDbLine
 10
290.7878890876567
 20
202.9278507000849
 30
0.0
 11
327.7878890876567
 21
202.9278507000849
 31
0.0
  0
LINE
  5
CA
330
1F
100
AcDbEntity
  8
1
  6
Continuous
 62
     7
100
AcDbLine
 10
290.7878890876567
 20
201.4278507000849
 30
0.0
 11
327.7878890876567
 21
201.4278507000849
 31
0.0
  0
LINE
  5
CB
330
1F
100
AcDbEntity
  8
1
  6
Continuous
 62
     7
100
AcDbLine
 10
327.7878890876567
 20
201.4278507000849
 30
0.0
 11
327.7878890876567
 21
207.4278507000849
 31
0.0
  0
LINE
  5
CC
330
1F
100
AcDbEntity
  8
1
  6
Continuous
 62
     7
100
AcDbLine
 10
337.7878890876567
 20
206.9278507000849
 30
0.0
 11
327.7878890876567
 21
206.9278507000849
 31
0.0
  0
LINE
  5
CD
330
1F
100
AcDbEntity
  8
1
  6
Continuous
 62
     7
100
AcDbLine
 10
337.7878890876567
 20
206.6778507000849
 30
0.0
 11
327.7878890876567
 21
206.6778507000849
 31
0.0
  0
LINE
  5
CE
330
1F
100
AcDbEntity
  8
1
  6
Continuous
 62
     7
100
AcDbLine
 10
337.7878890876567
 20
206.4278507000849
 30
0.0
 11
327.7878890876567
 21
206.4278507000849
 31
0.0
  0
LINE
  5
CF
330
1F
100
AcDbEntity
  8
1
  6
Continuous
 62
     7
100
AcDbLine
 10
337.7878890876567
 20
204.9278507000849
 30
0.0
 11
327.7878890876567
 21
204.9278507000849
 31
0.0
  0
LINE
  5
D0
330
1F
100
AcDbEntity
  8
1
  6
Continuous
 62
     7
100
AcDbLine
 10
337.7878890876567
 20
205.1778507000849
 30
0.0
 11
327.7878890876567
 21
205.1778507000849
 31
0.0
  0
LINE
  5
D1
330
1F
100
AcDbEntity
  8
1
  6
Continuous
 62
     7
100
AcDbLine
 10
337.7878890876567
 20
205.4278507000849
 30
0.0
 11
327.7878890876567
 21
205.4278507000849
 31
0.0
  0
LINE
  5
D2
330
1F
100
AcDbEntity
  8
1
  6
Continuous
 62
     7
100
AcDbLine
 10
337.7878890876567
 20
203.4278507000849
 30
0.0
 11
327.7878890876567
 21
203.4278507000849
 31
0.0
  0
LINE
  5
D3
330
1F
100
AcDbEntity
  8
1
  6
Continuous
 62
     7
100
AcDbLine
 10
337.7878890876567
 20
203.6778507000849
 30
0.0
 11
327.7878890876567
 21
203.6778507000849
 31
0.0
  0
LINE
  5
D4
330
1F
100
AcDbEntity
  8
1
  6
Continuous
 62
     7
100
AcDbLine
 10
337.7878890876567
 20
203.9278507000849
 30
0.0
 11
327.7878890876567
 21
203.9278507000849
 31
0.0
  0
LINE
  5
D5
330
1F
100
AcDbEntity
  8
1
  6
Continuous
 62
     7
100
AcDbLine
 10
337.7878890876567
 20
201.9278507000849
 30
0.0
 11
327.7878890876567
 21
201.9278507000849
 31
0.0
  0
LINE
  5
D6
330
1F
100
AcDbEntity
  8
1
  6
Continuous
 62
     7
100
AcDbLine
 10
337.7878890876567
 20
202.1778507000849
 30
0.0
 11
327.7878890876567
 21
202.1778507000849
 31
0.0
  0
LINE
  5
D7
330
1F
100
AcDbEntity
  8
1
  6
Continuous
 62
     7
100
AcDbLine
 10
337.7878890876567
 20
202.4278507000849
 30
0.0
 11
327.7878890876567
 21
202.4278507000849
 31
0.0
  0
LINE
  5
D8
330
1F
100
AcDbEntity
  8
SUNPOU
  6
Continuous
 62
     3
100
AcDbLine
 10
253.2900297853312
 20
79.54796228548429
 30
0.0
 11
253.2900297853312
 21
73.34002028548429
 31
0.0
  0
LINE
  5
D9
330
1F
100
AcDbEntity
  8
NITEN
  6
PHANTOM
 62
   140
100
AcDbLine
 10
253.2900297853312
 20
123.5479622854843
 30
0.0
 11
253.2900297853312
 21
122.5479622854843
 31
0.0
  0
LINE
  5
DA
330
1F
100
AcDbEntity
  8
JISSEN
  6
Continuous
 62
     7
100
AcDbLine
 10
247.9400297853311
 20
109.5479622854843
 30
0.0
 11
250.6900297853311
 21
109.5479622854843
 31
0.0
  0
LINE
  5
DB
330
1F
100
AcDbEntity
  8
JISSEN
  6
Continuous
 62
     7
100
AcDbLine
 10
247.9400297853311
 20
116.5479622854843
 30
0.0
 11
247.9400297853311
 21
109.5479622854843
 31
0.0
  0
LINE
  5
DC
330
1F
100
AcDbEntity
  8
JISSEN
  6
Continuous
 62
     7
100
AcDbLine
 10
248.6500297853312
 20
119.2693222854843
 30
0.0
 11
248.6500297853312
 21
109.5479622854843
 31
0.0
  0
LINE
  5
DD
330
1F
100
AcDbEntity
  8
JISSEN
  6
Continuous
 62
     7
100
AcDbLine
 10
250.6900297853311
 20
121.5479622854843
 30
0.0
 11
249.6900297853311
 21
121.5479622854843
 31
0.0
  0
LINE
  5
DE
330
1F
100
AcDbEntity
  8
JISSEN
  6
Continuous
 62
     3
100
AcDbLine
 10
237.6900297853311
 20
102.0479622854843
 30
0.0
 11
237.6900297853311
 21
107.5479622854843
 31
0.0
  0
LINE
  5
DF
330
1F
100
AcDbEntity
  8
JISSEN
  6
Continuous
 62
     3
100
AcDbLine
 10
237.6900297853311
 20
94.54796228548429
 30
0.0
 11
237.6900297853311
 21
100.0479622854843
 31
0.0
  0
LINE
  5
E0
330
1F
100
AcDbEntity
  8
JISSEN
  6
Continuous
 62
     3
100
AcDbLine
 10
237.6900297853311
 20
87.04796228548429
 30
0.0
 11
237.6900297853311
 21
92.54796228548429
 31
0.0
  0
LINE
  5
E1
330
1F
100
AcDbEntity
  8
JISSEN
  6
Continuous
 62
     3
100
AcDbLine
 10
238.3900297853312
 20
86.79796228548429
 30
0.0
 11
239.8900297853312
 21
86.79796228548429
 31
0.0
  0
LINE
  5
E2
330
1F
100
AcDbEntity
  8
JISSEN
  6
Continuous
 62
     3
100
AcDbLine
 10
237.6900297853311
 20
87.04796228548429
 30
0.0
 11
238.3900297853312
 21
87.04796228548429
 31
0.0
  0
LINE
  5
E3
330
1F
100
AcDbEntity
  8
JISSEN
  6
Continuous
 62
     3
100
AcDbLine
 10
235.6900297853311
 20
89.04786228548429
 30
0.0
 11
235.6900297853311
 21
90.54806228548429
 31
0.0
  0
LINE
  5
E4
330
1F
100
AcDbEntity
  8
JISSEN
  6
Continuous
 62
     3
100
AcDbLine
 10
237.6900297853311
 20
92.54796228548429
 30
0.0
 11
238.3900297853312
 21
92.54796228548429
 31
0.0
  0
LINE
  5
E5
330
1F
100
AcDbEntity
  8
JISSEN
  6
Continuous
 62
     3
100
AcDbLine
 10
238.3900297853312
 20
92.79796228548429
 30
0.0
 11
239.8900297853312
 21
92.79796228548429
 31
0.0
  0
LINE
  5
E6
330
1F
100
AcDbEntity
  8
JISSEN
  6
Continuous
 62
     3
100
AcDbLine
 10
238.3900297853312
 20
94.29796228548429
 30
0.0
 11
239.8900297853312
 21
94.29796228548429
 31
0.0
  0
LINE
  5
E7
330
1F
100
AcDbEntity
  8
JISSEN
  6
Continuous
 62
     3
100
AcDbLine
 10
237.6900297853311
 20
94.54796228548429
 30
0.0
 11
238.3900297853312
 21
94.54796228548429
 31
0.0
  0
LINE
  5
E8
330
1F
100
AcDbEntity
  8
JISSEN
  6
Continuous
 62
     3
100
AcDbLine
 10
235.6900297853311
 20
96.54786228548429
 30
0.0
 11
235.6900297853311
 21
98.04806228548429
 31
0.0
  0
LINE
  5
E9
330
1F
100
AcDbEntity
  8
JISSEN
  6
Continuous
 62
     3
100
AcDbLine
 10
237.6900297853311
 20
100.0479622854843
 30
0.0
 11
238.3900297853312
 21
100.0479622854843
 31
0.0
  0
LINE
  5
EA
330
1F
100
AcDbEntity
  8
JISSEN
  6
Continuous
 62
     3
100
AcDbLine
 10
238.3900297853312
 20
100.2979622854843
 30
0.0
 11
239.8900297853312
 21
100.2979622854843
 31
0.0
  0
LINE
  5
EB
330
1F
100
AcDbEntity
  8
JISSEN
  6
Continuous
 62
     3
100
AcDbLine
 10
238.3900297853312
 20
101.7979622854843
 30
0.0
 11
239.8900297853312
 21
101.7979622854843
 31
0.0
  0
LINE
  5
EC
330
1F
100
AcDbEntity
  8
JISSEN
  6
Continuous
 62
     3
100
AcDbLine
 10
237.6900297853311
 20
102.0479622854843
 30
0.0
 11
238.3900297853312
 21
102.0479622854843
 31
0.0
  0
LINE
  5
ED
330
1F
100
AcDbEntity
  8
JISSEN
  6
Continuous
 62
     3
100
AcDbLine
 10
235.6900297853311
 20
104.0478622854843
 30
0.0
 11
235.6900297853311
 21
105.5480622854843
 31
0.0
  0
LINE
  5
EE
330
1F
100
AcDbEntity
  8
JISSEN
  6
Continuous
 62
     3
100
AcDbLine
 10
237.6900297853311
 20
107.5479622854843
 30
0.0
 11
238.3900297853312
 21
107.5479622854843
 31
0.0
  0
LINE
  5
EF
330
1F
100
AcDbEntity
  8
JISSEN
  6
Continuous
 62
     3
100
AcDbLine
 10
238.3900297853312
 20
107.7979622854843
 30
0.0
 11
239.8900297853312
 21
107.7979622854843
 31
0.0
  0
LINE
  5
F0
330
1F
100
AcDbEntity
  8
JISSEN
  6
Continuous
 62
     7
100
AcDbLine
 10
232.1900297853311
 20
108.3444472854843
 30
0.0
 11
232.1900297853311
 21
111.3979622854843
 31
0.0
  0
LINE
  5
F1
330
1F
100
AcDbEntity
  8
JISSEN
  6
Continuous
 62
     7
100
AcDbLine
 10
233.1900297853311
 20
112.3979622854843
 30
0.0
 11
233.6900297853311
 21
112.3979622854843
 31
0.0
  0
LINE
  5
F2
330
1F
100
AcDbEntity
  8
JISSEN
  6
Continuous
 62
     7
100
AcDbLine
 10
234.1900297853311
 20
108.1200182854843
 30
0.0
 11
234.1900297853311
 21
111.8979622854843
 31
0.0
  0
LINE
  5
F3
330
1F
100
AcDbEntity
  8
JISSEN
  6
Continuous
 62
     7
100
AcDbLine
 10
243.1900297853311
 20
107.9979622854843
 30
0.0
 11
243.6900297853311
 21
107.9979622854843
 31
0.0
  0
LINE
  5
F4
330
1F
100
AcDbEntity
  8
JISSEN
  6
Continuous
 62
     7
100
AcDbLine
 10
232.3873177853312
 20
108.1444662854843
 30
0.0
 11
243.1900297853311
 21
107.9979622854843
 31
0.0
  0
LINE
  5
F5
330
1F
100
AcDbEntity
  8
JISSEN
  6
Continuous
 62
     3
100
AcDbLine
 10
238.3900297853312
 20
101.7979622854843
 30
0.0
 11
238.3900297853312
 21
107.7979622854843
 31
0.0
  0
LINE
  5
F6
330
1F
100
AcDbEntity
  8
JISSEN
  6
Continuous
 62
     7
100
AcDbLine
 10
239.8900297853312
 20
101.5528412854843
 30
0.0
 11
239.8900297853312
 21
108.0427162854843
 31
0.0
  0
LINE
  5
F7
330
1F
100
AcDbEntity
  8
JISSEN
  6
Continuous
 62
     7
100
AcDbLine
 10
241.1900297853311
 20
101.5706162854843
 30
0.0
 11
241.1900297853311
 21
108.0250852854843
 31
0.0
  0
LINE
  5
F8
330
1F
100
AcDbEntity
  8
JISSEN
  6
Continuous
 62
     7
100
AcDbLine
 10
241.1900297853311
 20
94.07061628548428
 30
0.0
 11
241.1900297853311
 21
100.5253072854843
 31
0.0
  0
LINE
  5
F9
330
1F
100
AcDbEntity
  8
JISSEN
  6
Continuous
 62
     7
100
AcDbLine
 10
239.8900297853312
 20
94.05284128548431
 30
0.0
 11
239.8900297853312
 21
100.5430822854843
 31
0.0
  0
LINE
  5
FA
330
1F
100
AcDbEntity
  8
JISSEN
  6
Continuous
 62
     3
100
AcDbLine
 10
238.3900297853312
 20
94.29796228548429
 30
0.0
 11
238.3900297853312
 21
100.2979622854843
 31
0.0
  0
LINE
  5
FB
330
1F
100
AcDbEntity
  8
JISSEN
  6
Continuous
 62
     7
100
AcDbLine
 10
249.0843147853311
 20
104.0479622854843
 30
0.0
 11
250.6900297853311
 21
102.0479622854843
 31
0.0
  0
LINE
  5
FC
330
1F
100
AcDbEntity
  8
JISSEN
  6
Continuous
 62
     7
100
AcDbLine
 10
249.0843147853311
 20
107.0479622854843
 30
0.0
 11
249.0843147853311
 21
104.0479622854843
 31
0.0
  0
LINE
  5
FD
330
1F
100
AcDbEntity
  8
JISSEN
  6
Continuous
 62
     7
100
AcDbLine
 10
249.0843147853311
 20
107.0479622854843
 30
0.0
 11
250.6900297853311
 21
109.0479622854843
 31
0.0
  0
LINE
  5
FE
330
1F
100
AcDbEntity
  8
JISSEN
  6
Continuous
 62
     7
100
AcDbLine
 10
243.6900297853311
 20
101.5979622854843
 30
0.0
 11
243.6900297853311
 21
107.9911812854843
 31
0.0
  0
LINE
  5
FF
330
1F
100
AcDbEntity
  8
JISSEN
  6
Continuous
 62
     7
100
AcDbLine
 10
243.1900297853311
 20
101.5979622854843
 30
0.0
 11
243.1900297853311
 21
107.9979622854843
 31
0.0
  0
LINE
  5
100
330
1F
100
AcDbEntity
  8
JISSEN
  6
Continuous
 62
     7
100
AcDbLine
 10
243.1900297853311
 20
94.0979622854843
 30
0.0
 11
243.1900297853311
 21
100.4979622854843
 31
0.0
  0
LINE
  5
101
330
1F
100
AcDbEntity
  8
JISSEN
  6
Continuous
 62
     7
100
AcDbLine
 10
243.6900297853311
 20
94.0979622854843
 30
0.0
 11
243.6900297853311
 21
100.4979622854843
 31
0.0
  0
LINE
  5
102
330
1F
100
AcDbEntity
  8
JISSEN
  6
Continuous
 62
     7
100
AcDbLine
 10
243.1900297853311
 20
94.0979622854843
 30
0.0
 11
243.6900297853311
 21
94.0979622854843
 31
0.0
  0
LINE
  5
103
330
1F
100
AcDbEntity
  8
JISSEN
  6
Continuous
 62
     7
100
AcDbLine
 10
243.1900297853311
 20
100.4979622854843
 30
0.0
 11
243.6900297853311
 21
100.4979622854843
 31
0.0
  0
LINE
  5
104
330
1F
100
AcDbEntity
  8
JISSEN
  6
Continuous
 62
     7
100
AcDbLine
 10
234.6900297853311
 20
110.0979622854843
 30
0.0
 11
242.6900297853311
 21
110.0979622854843
 31
0.0
  0
LINE
  5
105
330
1F
100
AcDbEntity
  8
JISSEN
  6
Continuous
 62
     7
100
AcDbLine
 10
242.6900297853311
 20
110.0979622854843
 30
0.0
 11
243.6900297853311
 21
109.0979622854843
 31
0.0
  0
LINE
  5
106
330
1F
100
AcDbEntity
  8
JISSEN
  6
Continuous
 62
     7
100
AcDbLine
 10
232.3872957853312
 20
93.14566528548428
 30
0.0
 11
243.1900297853311
 21
92.99796228548428
 31
0.0
  0
LINE
  5
107
330
1F
100
AcDbEntity
  8
JISSEN
  6
Continuous
 62
     7
100
AcDbLine
 10
243.6900297853311
 20
109.0979622854843
 30
0.0
 11
250.6900297853311
 21
109.0979622854843
 31
0.0
  0
LINE
  5
108
330
1F
100
AcDbEntity
  8
JISSEN
  6
Continuous
 62
     7
100
AcDbLine
 10
243.1900297853311
 20
92.99796228548428
 30
0.0
 11
250.6900297853311
 21
92.99796228548428
 31
0.0
  0
LINE
  5
109
330
1F
100
AcDbEntity
  8
JISSEN
  6
Continuous
 62
     7
100
AcDbLine
 10
232.1900297853311
 20
93.75027728548429
 30
0.0
 11
232.1900297853311
 21
93.34564728548429
 31
0.0
  0
LINE
  5
10A
330
1F
100
AcDbEntity
  8
JISSEN
  6
Continuous
 62
     7
100
AcDbLine
 10
243.1900297853311
 20
94.0979622854843
 30
0.0
 11
232.3872957853312
 21
93.9502582854843
 31
0.0
  0
LINE
  5
10B
330
1F
100
AcDbEntity
  8
JISSEN
  6
Continuous
 62
     7
100
AcDbLine
 10
232.3872957853312
 20
100.6456652854843
 30
0.0
 11
243.1900297853311
 21
100.4979622854843
 31
0.0
  0
LINE
  5
10C
330
1F
100
AcDbEntity
  8
JISSEN
  6
Continuous
 62
     7
100
AcDbLine
 10
232.1900297853311
 20
101.2502772854843
 30
0.0
 11
232.1900297853311
 21
100.8456472854843
 31
0.0
  0
LINE
  5
10D
330
1F
100
AcDbEntity
  8
JISSEN
  6
Continuous
 62
     7
100
AcDbLine
 10
243.1900297853311
 20
101.5979622854843
 30
0.0
 11
232.3872957853312
 21
101.4502582854843
 31
0.0
  0
LINE
  5
10E
330
1F
100
AcDbEntity
  8
JISSEN
  6
Continuous
 62
     7
100
AcDbLine
 10
243.1900297853311
 20
101.5979622854843
 30
0.0
 11
250.6900297853311
 21
101.5979622854843
 31
0.0
  0
LINE
  5
10F
330
1F
100
AcDbEntity
  8
JISSEN
  6
Continuous
 62
     7
100
AcDbLine
 10
243.1900297853311
 20
86.5979622854843
 30
0.0
 11
243.6900297853311
 21
86.5979622854843
 31
0.0
  0
LINE
  5
110
330
1F
100
AcDbEntity
  8
JISSEN
  6
Continuous
 62
     7
100
AcDbLine
 10
231.8874207853312
 20
86.4505362854843
 30
0.0
 11
243.1900297853311
 21
86.5979622854843
 31
0.0
  0
LINE
  5
111
330
1F
100
AcDbEntity
  8
JISSEN
  6
Continuous
 62
     3
100
AcDbLine
 10
238.3900297853312
 20
86.79796228548429
 30
0.0
 11
238.3900297853312
 21
92.79796228548429
 31
0.0
  0
LINE
  5
112
330
1F
100
AcDbEntity
  8
JISSEN
  6
Continuous
 62
     7
100
AcDbLine
 10
239.8900297853312
 20
86.55491828548429
 30
0.0
 11
239.8900297853312
 21
93.04308228548428
 31
0.0
  0
LINE
  5
113
330
1F
100
AcDbEntity
  8
JISSEN
  6
Continuous
 62
     7
100
AcDbLine
 10
241.1900297853311
 20
86.57187528548428
 30
0.0
 11
241.1900297853311
 21
93.0253072854843
 31
0.0
  0
LINE
  5
114
330
1F
100
AcDbEntity
  8
JISSEN
  6
Continuous
 62
     7
100
AcDbLine
 10
243.1900297853311
 20
86.5979622854843
 30
0.0
 11
243.1900297853311
 21
92.99796228548428
 31
0.0
  0
LINE
  5
115
330
1F
100
AcDbEntity
  8
JISSEN
  6
Continuous
 62
     7
100
AcDbLine
 10
243.6900297853311
 20
86.5979622854843
 30
0.0
 11
243.6900297853311
 21
92.99796228548428
 31
0.0
  0
LINE
  5
116
330
1F
100
AcDbEntity
  8
JISSEN
  6
Continuous
 62
     7
100
AcDbLine
 10
232.6900297853311
 20
81.39796228548428
 30
0.0
 11
250.6900297853311
 21
81.39796228548428
 31
0.0
  0
LINE
  5
117
330
1F
100
AcDbEntity
  8
JISSEN
  6
Continuous
 62
     7
100
AcDbLine
 10
231.6900297853311
 20
82.39796228548428
 30
0.0
 11
231.6900297853311
 21
86.25055328548427
 31
0.0
  0
LINE
  5
118
330
1F
100
AcDbEntity
  8
JISSEN
  6
Continuous
 62
     7
100
AcDbLine
 10
250.6900297853311
 20
80.54796228548429
 30
0.0
 11
253.2900297853312
 21
80.54796228548429
 31
0.0
  0
LINE
  5
119
330
1F
100
AcDbEntity
  8
JISSEN
  6
Continuous
 62
     7
100
AcDbLine
 10
250.6900297853311
 20
80.54796228548429
 30
0.0
 11
250.6900297853311
 21
123.5479622854843
 31
0.0
  0
LINE
  5
11A
330
1F
100
AcDbEntity
  8
JISSEN
  6
Continuous
 62
     7
100
AcDbLine
 10
253.2900297853312
 20
80.54796228548429
 30
0.0
 11
253.2900297853312
 21
122.5479622854843
 31
0.0
  0
LINE
  5
11B
330
1F
100
AcDbEntity
  8
NITEN
  6
PHANTOM
 62
   140
100
AcDbLine
 10
252.1900297853311
 20
80.54796228548429
 30
0.0
 11
252.1900297853311
 21
79.34002028548429
 31
0.0
  0
LINE
  5
11C
330
1F
100
AcDbEntity
  8
NITEN
  6
PHANTOM
 62
   140
100
AcDbLine
 10
227.6900297853311
 20
105.1400202854843
 30
0.0
 11
227.4900297853311
 21
105.1400202854843
 31
0.0
  0
LINE
  5
11D
330
1F
100
AcDbEntity
  8
NITEN
  6
PHANTOM
 62
   140
100
AcDbLine
 10
227.6900297853311
 20
88.74002028548429
 30
0.0
 11
227.4900297853311
 21
88.74002028548429
 31
0.0
  0
LINE
  5
11E
330
1F
100
AcDbEntity
  8
NITEN
  6
PHANTOM
 62
   140
100
AcDbLine
 10
227.4900297853311
 20
105.1400202854843
 30
0.0
 11
227.4900297853311
 21
88.74002028548429
 31
0.0
  0
LINE
  5
11F
330
1F
100
AcDbEntity
  8
NITEN
  6
PHANTOM
 62
   140
100
AcDbLine
 10
227.6900297853311
 20
116.3408552854843
 30
0.0
 11
227.6900297853311
 21
82.34002028548429
 31
0.0
  0
LINE
  5
120
330
1F
100
AcDbEntity
  8
NITEN
  6
PHANTOM
 62
   140
100
AcDbLine
 10
233.8113497853311
 20
122.6692822854843
 30
0.0
 11
227.8364767853311
 21
116.6944082854843
 31
0.0
  0
LINE
  5
121
330
1F
100
AcDbEntity
  8
NITEN
  6
PHANTOM
 62
   140
100
AcDbLine
 10
227.6900297853311
 20
82.34002028548429
 30
0.0
 11
230.6900297853311
 21
79.34002028548429
 31
0.0
  0
LINE
  5
122
330
1F
100
AcDbEntity
  8
NITEN
  6
PHANTOM
 62
   140
100
AcDbLine
 10
235.9326707853312
 20
123.5479622854843
 30
0.0
 11
253.2900297853312
 21
123.5479622854843
 31
0.0
  0
LINE
  5
123
330
1F
100
AcDbEntity
  8
NITEN
  6
PHANTOM
 62
   140
100
AcDbLine
 10
230.6900297853311
 20
79.34002028548429
 30
0.0
 11
252.1900297853311
 21
79.34002028548429
 31
0.0
  0
LINE
  5
124
330
1F
100
AcDbEntity
  8
JISSEN
  6
PHANTOM
 62
   140
100
AcDbLine
 10
186.7927927853311
 20
103.6400202854843
 30
0.0
 11
186.7927927853311
 21
89.1400202854843
 31
0.0
  0
LINE
  5
125
330
1F
100
AcDbEntity
  8
JISSEN
  6
PHANTOM
 62
   140
100
AcDbLine
 10
189.7927927853311
 20
86.1400202854843
 30
0.0
 11
205.8927927853312
 21
86.1400202854843
 31
0.0
  0
LINE
  5
126
330
1F
100
AcDbEntity
  8
JISSEN
  6
PHANTOM
 62
   140
100
AcDbLine
 10
189.7927927853311
 20
106.6400202854843
 30
0.0
 11
205.8927927853312
 21
106.6400202854843
 31
0.0
  0
LINE
  5
127
330
1F
100
AcDbEntity
  8
JISSEN
  6
PHANTOM
 62
   140
100
AcDbLine
 10
184.7927927853311
 20
106.6400202854843
 30
0.0
 11
184.7927927853311
 21
86.1400202854843
 31
0.0
  0
LINE
  5
128
330
1F
100
AcDbEntity
  8
JISSEN
  6
PHANTOM
 62
   140
100
AcDbLine
 10
200.3927927853312
 20
96.3900202854843
 30
0.0
 11
205.8927927853312
 21
96.3900202854843
 31
0.0
  0
LINE
  5
129
330
1F
100
AcDbEntity
  8
JISSEN
  6
PHANTOM
 62
   140
100
AcDbLine
 10
186.7927927853311
 20
108.6400202854843
 30
0.0
 11
205.8927927853312
 21
108.6400202854843
 31
0.0
  0
LINE
  5
12A
330
1F
100
AcDbEntity
  8
JISSEN
  6
PHANTOM
 62
   140
100
AcDbLine
 10
186.7927927853311
 20
84.1400202854843
 30
0.0
 11
205.8927927853312
 21
84.1400202854843
 31
0.0
  0
LINE
  5
12B
330
1F
100
AcDbEntity
  8
JISSEN
  6
PHANTOM
 62
   140
100
AcDbLine
 10
181.1927927853311
 20
105.1400202854843
 30
0.0
 11
181.1927927853311
 21
88.74002028548429
 31
0.0
  0
LINE
  5
12C
330
1F
100
AcDbEntity
  8
JISSEN
  6
PHANTOM
 62
   140
100
AcDbLine
 10
181.3927927853312
 20
105.1400202854843
 30
0.0
 11
181.1927927853311
 21
105.1400202854843
 31
0.0
  0
LINE
  5
12D
330
1F
100
AcDbEntity
  8
JISSEN
  6
PHANTOM
 62
   140
100
AcDbLine
 10
181.3927927853312
 20
88.74002028548429
 30
0.0
 11
181.1927927853311
 21
88.74002028548429
 31
0.0
  0
LINE
  5
12E
330
1F
100
AcDbEntity
  8
JISSEN
  6
PHANTOM
 62
   140
100
AcDbLine
 10
188.3927927853312
 20
123.2785012854843
 30
0.0
 11
188.3927927853312
 21
110.1400202854843
 31
0.0
  0
LINE
  5
12F
330
1F
100
AcDbEntity
  8
JISSEN
  6
PHANTOM
 62
   140
100
AcDbLine
 10
184.3927927853312
 20
110.1400202854843
 30
0.0
 11
184.3927927853312
 21
79.34002028548429
 31
0.0
  0
LINE
  5
130
330
1F
100
AcDbEntity
  8
JISSEN
  6
PHANTOM
 62
   140
100
AcDbLine
 10
184.3927927853312
 20
110.1400202854843
 30
0.0
 11
181.3927927853312
 21
107.1400202854843
 31
0.0
  0
LINE
  5
131
330
1F
100
AcDbEntity
  8
JISSEN
  6
PHANTOM
 62
   140
100
AcDbLine
 10
184.3927927853312
 20
110.1400202854843
 30
0.0
 11
206.0549707853312
 21
110.1400202854843
 31
0.0
  0
LINE
  5
132
330
1F
100
AcDbEntity
  8
JISSEN
  6
PHANTOM
 62
   140
100
AcDbLine
 10
187.5141127853311
 20
122.6692822854843
 30
0.0
 11
181.5392397853311
 21
116.6944082854843
 31
0.0
  0
LINE
  5
133
330
1F
100
AcDbEntity
  8
JISSEN
  6
PHANTOM
 62
   140
100
AcDbLine
 10
181.3927927853312
 20
82.34002028548429
 30
0.0
 11
184.3927927853312
 21
79.34002028548429
 31
0.0
  0
LINE
  5
134
330
1F
100
AcDbEntity
  8
JISSEN
  6
PHANTOM
 62
   140
100
AcDbLine
 10
205.8927927853312
 20
108.6400202854843
 30
0.0
 11
205.8927927853312
 21
79.34002028548429
 31
0.0
  0
LINE
  5
135
330
1F
100
AcDbEntity
  8
JISSEN
  6
PHANTOM
 62
   140
100
AcDbLine
 10
206.9927927853312
 20
123.5479622854843
 30
0.0
 11
206.9927927853312
 21
113.6400202854843
 31
0.0
  0
LINE
  5
136
330
1F
100
AcDbEntity
  8
JISSEN
  6
PHANTOM
 62
   140
100
AcDbLine
 10
189.6354337853312
 20
123.5479622854843
 30
0.0
 11
206.9927927853312
 21
123.5479622854843
 31
0.0
  0
LINE
  5
137
330
1F
100
AcDbEntity
  8
JISSEN
  6
PHANTOM
 62
   140
100
AcDbLine
 10
184.3927927853312
 20
79.34002028548429
 30
0.0
 11
205.8927927853312
 21
79.34002028548429
 31
0.0
  0
LINE
  5
138
330
1F
100
AcDbEntity
  8
JISSEN
  6
PHANTOM
 62
   140
100
AcDbLine
 10
181.3927927853312
 20
116.3408552854843
 30
0.0
 11
181.3927927853312
 21
82.34002028548429
 31
0.0
  0
LINE
  5
139
330
1F
100
AcDbEntity
  8
NITEN
  6
PHANTOM
 62
   140
100
AcDbLine
 10
156.6580077853312
 20
96.5979622854843
 30
0.0
 11
157.6580077853312
 21
96.5979622854843
 31
0.0
  0
LINE
  5
13A
330
1F
100
AcDbEntity
  8
NITEN
  6
PHANTOM
 62
   140
100
AcDbLine
 10
88.65800778533119
 20
96.5979622854843
 30
0.0
 11
89.65800778533119
 21
96.5979622854843
 31
0.0
  0
LINE
  5
13B
330
1F
100
AcDbEntity
  8
NITEN
  6
PHANTOM
 62
   140
100
AcDbLine
 10
149.1580077853312
 20
86.3479622854843
 30
0.0
 11
149.1580077853312
 21
84.3479622854843
 31
0.0
  0
LINE
  5
13C
330
1F
100
AcDbEntity
  8
NITEN
  6
PHANTOM
 62
   140
100
AcDbLine
 10
97.15800778533119
 20
86.3479622854843
 30
0.0
 11
97.15800778533119
 21
84.3479622854843
 31
0.0
  0
LINE
  5
13D
330
1F
100
AcDbEntity
  8
NITEN
  6
PHANTOM
 62
   140
100
AcDbLine
 10
148.1580077853312
 20
84.3479622854843
 30
0.0
 11
149.1580077853312
 21
84.3479622854843
 31
0.0
  0
LINE
  5
13E
330
1F
100
AcDbEntity
  8
NITEN
  6
PHANTOM
 62
   140
100
AcDbLine
 10
148.1580077853312
 20
108.8479622854843
 30
0.0
 11
149.1580077853312
 21
108.8479622854843
 31
0.0
  0
LINE
  5
13F
330
1F
100
AcDbEntity
  8
NITEN
  6
PHANTOM
 62
   140
100
AcDbLine
 10
149.1580077853312
 20
86.3479622854843
 30
0.0
 11
154.6580077853312
 21
86.3479622854843
 31
0.0
  0
LINE
  5
140
330
1F
100
AcDbEntity
  8
NITEN
  6
PHANTOM
 62
   140
100
AcDbLine
 10
147.6580077853312
 20
87.3479622854843
 30
0.0
 11
154.6580077853312
 21
87.3479622854843
 31
0.0
  0
LINE
  5
141
330
1F
100
AcDbEntity
  8
NITEN
  6
PHANTOM
 62
   140
100
AcDbLine
 10
149.1580077853312
 20
106.8479622854843
 30
0.0
 11
154.6580077853312
 21
106.8479622854843
 31
0.0
  0
LINE
  5
142
330
1F
100
AcDbEntity
  8
NITEN
  6
PHANTOM
 62
   140
100
AcDbLine
 10
147.6580077853312
 20
105.8479622854843
 30
0.0
 11
154.6580077853312
 21
105.8479622854843
 31
0.0
  0
LINE
  5
143
330
1F
100
AcDbEntity
  8
NITEN
  6
PHANTOM
 62
   140
100
AcDbLine
 10
91.65800778533119
 20
87.3479622854843
 30
0.0
 11
98.65800778533119
 21
87.3479622854843
 31
0.0
  0
LINE
  5
144
330
1F
100
AcDbEntity
  8
NITEN
  6
PHANTOM
 62
   140
100
AcDbLine
 10
91.65800778533119
 20
105.8479622854843
 30
0.0
 11
98.65800778533119
 21
105.8479622854843
 31
0.0
  0
LINE
  5
145
330
1F
100
AcDbEntity
  8
NITEN
  6
PHANTOM
 62
   140
100
AcDbLine
 10
156.6580077853312
 20
103.8479622854843
 30
0.0
 11
156.6580077853312
 21
89.3479622854843
 31
0.0
  0
LINE
  5
146
330
1F
100
AcDbEntity
  8
NITEN
  6
PHANTOM
 62
   140
100
AcDbLine
 10
157.6580077853312
 20
103.8479622854843
 30
0.0
 11
157.6580077853312
 21
89.3479622854843
 31
0.0
  0
LINE
  5
147
330
1F
100
AcDbEntity
  8
NITEN
  6
PHANTOM
 62
   140
100
AcDbLine
 10
149.1580077853312
 20
108.8479622854843
 30
0.0
 11
149.1580077853312
 21
106.8479622854843
 31
0.0
  0
LINE
  5
148
330
1F
100
AcDbEntity
  8
NITEN
  6
PHANTOM
 62
   140
100
AcDbLine
 10
97.15800778533119
 20
108.8479622854843
 30
0.0
 11
97.15800778533119
 21
106.8479622854843
 31
0.0
  0
LINE
  5
149
330
1F
100
AcDbEntity
  8
NITEN
  6
PHANTOM
 62
   140
100
AcDbLine
 10
89.65800778533119
 20
103.8479622854843
 30
0.0
 11
89.65800778533119
 21
89.3479622854843
 31
0.0
  0
LINE
  5
14A
330
1F
100
AcDbEntity
  8
NITEN
  6
PHANTOM
 62
   140
100
AcDbLine
 10
91.65800778533119
 20
86.3479622854843
 30
0.0
 11
97.15800778533119
 21
86.3479622854843
 31
0.0
  0
LINE
  5
14B
330
1F
100
AcDbEntity
  8
NITEN
  6
PHANTOM
 62
   140
100
AcDbLine
 10
91.65800778533119
 20
106.8479622854843
 30
0.0
 11
97.15800778533119
 21
106.8479622854843
 31
0.0
  0
LINE
  5
14C
330
1F
100
AcDbEntity
  8
NITEN
  6
PHANTOM
 62
   140
100
AcDbLine
 10
97.15800778533119
 20
108.8479622854843
 30
0.0
 11
98.15800778533119
 21
108.8479622854843
 31
0.0
  0
LINE
  5
14D
330
1F
100
AcDbEntity
  8
NITEN
  6
PHANTOM
 62
   140
100
AcDbLine
 10
97.15800778533119
 20
84.3479622854843
 30
0.0
 11
98.15800778533119
 21
84.3479622854843
 31
0.0
  0
LINE
  5
14E
330
1F
100
AcDbEntity
  8
NITEN
  6
PHANTOM
 62
   140
100
AcDbLine
 10
88.65800778533119
 20
103.8479622854843
 30
0.0
 11
88.65800778533119
 21
89.3479622854843
 31
0.0
  0
LINE
  5
14F
330
1F
100
AcDbEntity
  8
NITEN
  6
PHANTOM
 62
   140
100
AcDbLine
 10
143.1580077853312
 20
109.3479622854843
 30
0.0
 11
144.5580077853311
 21
109.3479622854843
 31
0.0
  0
LINE
  5
150
330
1F
100
AcDbEntity
  8
NITEN
  6
PHANTOM
 62
   140
100
AcDbLine
 10
102.1580077853312
 20
109.3479622854843
 30
0.0
 11
103.1580077853312
 21
109.3479622854843
 31
0.0
  0
LINE
  5
151
330
1F
100
AcDbEntity
  8
NITEN
  6
PHANTOM
 62
   140
100
AcDbLine
 10
101.7580077853312
 20
109.3479622854843
 30
0.0
 11
102.1776227853312
 21
109.3479622854843
 31
0.0
  0
LINE
  5
152
330
1F
100
AcDbEntity
  8
NITEN
  6
PHANTOM
 62
   140
100
AcDbLine
 10
146.6580077853312
 20
107.2479622854843
 30
0.0
 11
146.6580077853312
 21
84.54796228548429
 31
0.0
  0
LINE
  5
153
330
1F
100
AcDbEntity
  8
NITEN
  6
PHANTOM
 62
   140
100
AcDbLine
 10
99.65800778533119
 20
107.2479622854843
 30
0.0
 11
99.65800778533119
 21
84.54796228548429
 31
0.0
  0
LINE
  5
154
330
1F
100
AcDbEntity
  8
NITEN
  6
PHANTOM
 62
   140
100
AcDbLine
 10
114.6580077853312
 20
122.5479622854843
 30
0.0
 11
131.6580077853312
 21
122.5479622854843
 31
0.0
  0
LINE
  5
155
330
1F
100
AcDbEntity
  8
NITEN
  6
PHANTOM
 62
   140
100
AcDbLine
 10
103.6580077853312
 20
80.54796228548429
 30
0.0
 11
142.6580077853312
 21
80.54796228548429
 31
0.0
  0
LINE
  5
156
330
1F
100
AcDbEntity
  8
NITEN
  6
PHANTOM
 62
   140
100
AcDbLine
 10
103.1580077853312
 20
111.0479622854843
 30
0.0
 11
103.1580077853312
 21
109.3479622854843
 31
0.0
  0
LINE
  5
157
330
1F
100
AcDbEntity
  8
NITEN
  6
PHANTOM
 62
   140
100
AcDbLine
 10
143.1580077853312
 20
111.0479622854843
 30
0.0
 11
143.1580077853312
 21
109.3479622854843
 31
0.0
  0
LINE
  5
158
330
1F
100
AcDbEntity
  8
NITEN
  6
PHANTOM
 62
   140
100
AcDbLine
 10
144.1383917853311
 20
110.3479622854843
 30
0.0
 11
144.5580077853311
 21
110.3479622854843
 31
0.0
  0
LINE
  5
159
330
1F
100
AcDbEntity
  8
NITEN
  6
PHANTOM
 62
   140
100
AcDbLine
 10
147.6580077853312
 20
108.3479622854843
 30
0.0
 11
147.6580077853312
 21
84.54796228548429
 31
0.0
  0
LINE
  5
15A
330
1F
100
AcDbEntity
  8
NITEN
  6
PHANTOM
 62
   140
100
AcDbLine
 10
98.65800778533119
 20
108.3479622854843
 30
0.0
 11
98.65800778533119
 21
84.54796228548429
 31
0.0
  0
LINE
  5
15B
330
1F
100
AcDbEntity
  8
NITEN
  6
PHANTOM
 62
   140
100
AcDbLine
 10
101.7580077853312
 20
110.3479622854843
 30
0.0
 11
102.1776227853312
 21
110.3479622854843
 31
0.0
  0
LINE
  5
15C
330
1F
100
AcDbEntity
  8
NITEN
  6
PHANTOM
 62
   140
100
AcDbLine
 10
102.1580077853312
 20
111.0479622854843
 30
0.0
 11
102.1580077853312
 21
110.3220472854843
 31
0.0
  0
LINE
  5
15D
330
1F
100
AcDbEntity
  8
NITEN
  6
PHANTOM
 62
   140
100
AcDbLine
 10
103.6580077853312
 20
79.54796228548429
 30
0.0
 11
142.6580077853312
 21
79.54796228548429
 31
0.0
  0
LINE
  5
15E
330
1F
100
AcDbEntity
  8
NITEN
  6
PHANTOM
 62
   140
100
AcDbLine
 10
114.6580077853312
 20
123.5479622854843
 30
0.0
 11
131.6580077853312
 21
123.5479622854843
 31
0.0
  0
LINE
  5
15F
330
1F
100
AcDbEntity
  8
JISSEN
  6
Continuous
 62
     3
100
AcDbLine
 10
125.1580077853312
 20
86.79796228548429
 30
0.0
 11
131.1580077853312
 21
86.79796228548429
 31
0.0
  0
LINE
  5
160
330
1F
100
AcDbEntity
  8
JISSEN
  6
Continuous
 62
     3
100
AcDbLine
 10
125.1580077853312
 20
92.79796228548429
 30
0.0
 11
131.1580077853312
 21
92.79796228548429
 31
0.0
  0
LINE
  5
161
330
1F
100
AcDbEntity
  8
JISSEN
  6
Continuous
 62
     7
100
AcDbLine
 10
132.1080077853311
 20
92.99796228548428
 30
0.0
 11
132.1080077853311
 21
86.5979622854843
 31
0.0
  0
LINE
  5
162
330
1F
100
AcDbEntity
  8
JISSEN
  6
Continuous
 62
     7
100
AcDbLine
 10
131.5080077853312
 20
92.99796228548428
 30
0.0
 11
131.5080077853312
 21
86.5979622854843
 31
0.0
  0
LINE
  5
163
330
1F
100
AcDbEntity
  8
JISSEN
  6
Continuous
 62
     3
100
AcDbLine
 10
131.1580077853312
 20
92.79796228548429
 30
0.0
 11
131.1580077853312
 21
86.79796228548429
 31
0.0
  0
LINE
  5
164
330
1F
100
AcDbEntity
  8
JISSEN
  6
Continuous
 62
     3
100
AcDbLine
 10
125.1580077853312
 20
92.79796228548429
 30
0.0
 11
125.1580077853312
 21
86.79796228548429
 31
0.0
  0
LINE
  5
165
330
1F
100
AcDbEntity
  8
JISSEN
  6
Continuous
 62
     3
100
AcDbLine
 10
121.1580077853312
 20
92.79796228548429
 30
0.0
 11
121.1580077853312
 21
86.79796228548429
 31
0.0
  0
LINE
  5
166
330
1F
100
AcDbEntity
  8
JISSEN
  6
Continuous
 62
     3
100
AcDbLine
 10
125.1580077853312
 20
94.29796228548429
 30
0.0
 11
131.1580077853312
 21
94.29796228548429
 31
0.0
  0
LINE
  5
167
330
1F
100
AcDbEntity
  8
JISSEN
  6
Continuous
 62
     3
100
AcDbLine
 10
125.1580077853312
 20
100.2979622854843
 30
0.0
 11
131.1580077853312
 21
100.2979622854843
 31
0.0
  0
LINE
  5
168
330
1F
100
AcDbEntity
  8
JISSEN
  6
Continuous
 62
     7
100
AcDbLine
 10
114.8080077853311
 20
92.99796228548428
 30
0.0
 11
114.8080077853311
 21
86.5979622854843
 31
0.0
  0
LINE
  5
169
330
1F
100
AcDbEntity
  8
JISSEN
  6
Continuous
 62
     7
100
AcDbLine
 10
114.2080077853311
 20
92.99796228548428
 30
0.0
 11
114.2080077853311
 21
86.5979622854843
 31
0.0
  0
LINE
  5
16A
330
1F
100
AcDbEntity
  8
JISSEN
  6
Continuous
 62
     3
100
AcDbLine
 10
115.1580077853312
 20
92.79796228548429
 30
0.0
 11
115.1580077853312
 21
86.79796228548429
 31
0.0
  0
LINE
  5
16B
330
1F
100
AcDbEntity
  8
JISSEN
  6
Continuous
 62
     3
100
AcDbLine
 10
115.1580077853312
 20
94.29796228548429
 30
0.0
 11
121.1580077853312
 21
94.29796228548429
 31
0.0
  0
LINE
  5
16C
330
1F
100
AcDbEntity
  8
JISSEN
  6
Continuous
 62
     3
100
AcDbLine
 10
115.1580077853312
 20
100.2979622854843
 30
0.0
 11
121.1580077853312
 21
100.2979622854843
 31
0.0
  0
LINE
  5
16D
330
1F
100
AcDbEntity
  8
JISSEN
  6
Continuous
 62
     7
100
AcDbLine
 10
132.1080077853311
 20
100.4979622854843
 30
0.0
 11
132.1080077853311
 21
94.0979622854843
 31
0.0
  0
LINE
  5
16E
330
1F
100
AcDbEntity
  8
JISSEN
  6
Continuous
 62
     7
100
AcDbLine
 10
131.5080077853312
 20
100.4979622854843
 30
0.0
 11
131.5080077853312
 21
94.0979622854843
 31
0.0
  0
LINE
  5
16F
330
1F
100
AcDbEntity
  8
JISSEN
  6
Continuous
 62
     3
100
AcDbLine
 10
131.1580077853312
 20
100.2979622854843
 30
0.0
 11
131.1580077853312
 21
94.29796228548429
 31
0.0
  0
LINE
  5
170
330
1F
100
AcDbEntity
  8
JISSEN
  6
Continuous
 62
     3
100
AcDbLine
 10
125.1580077853312
 20
100.2979622854843
 30
0.0
 11
125.1580077853312
 21
94.29796228548429
 31
0.0
  0
LINE
  5
171
330
1F
100
AcDbEntity
  8
JISSEN
  6
Continuous
 62
     3
100
AcDbLine
 10
121.1580077853312
 20
100.2979622854843
 30
0.0
 11
121.1580077853312
 21
94.29796228548429
 31
0.0
  0
LINE
  5
172
330
1F
100
AcDbEntity
  8
JISSEN
  6
Continuous
 62
     3
100
AcDbLine
 10
125.1580077853312
 20
101.7979622854843
 30
0.0
 11
131.1580077853312
 21
101.7979622854843
 31
0.0
  0
LINE
  5
173
330
1F
100
AcDbEntity
  8
JISSEN
  6
Continuous
 62
     3
100
AcDbLine
 10
125.1580077853312
 20
107.7979622854843
 30
0.0
 11
131.1580077853312
 21
107.7979622854843
 31
0.0
  0
LINE
  5
174
330
1F
100
AcDbEntity
  8
JISSEN
  6
Continuous
 62
     7
100
AcDbLine
 10
114.8080077853311
 20
100.4979622854843
 30
0.0
 11
114.8080077853311
 21
94.0979622854843
 31
0.0
  0
LINE
  5
175
330
1F
100
AcDbEntity
  8
JISSEN
  6
Continuous
 62
     7
100
AcDbLine
 10
114.2080077853311
 20
100.4979622854843
 30
0.0
 11
114.2080077853311
 21
94.0979622854843
 31
0.0
  0
LINE
  5
176
330
1F
100
AcDbEntity
  8
JISSEN
  6
Continuous
 62
     3
100
AcDbLine
 10
115.1580077853312
 20
100.2979622854843
 30
0.0
 11
115.1580077853312
 21
94.29796228548429
 31
0.0
  0
LINE
  5
177
330
1F
100
AcDbEntity
  8
JISSEN
  6
Continuous
 62
     3
100
AcDbLine
 10
115.1580077853312
 20
86.79796228548429
 30
0.0
 11
121.1580077853312
 21
86.79796228548429
 31
0.0
  0
LINE
  5
178
330
1F
100
AcDbEntity
  8
JISSEN
  6
Continuous
 62
     3
100
AcDbLine
 10
115.1580077853312
 20
92.79796228548429
 30
0.0
 11
121.1580077853312
 21
92.79796228548429
 31
0.0
  0
LINE
  5
179
330
1F
100
AcDbEntity
  8
JISSEN
  6
Continuous
 62
     7
100
AcDbLine
 10
115.1580077853312
 20
101.7979622854843
 30
0.0
 11
121.1580077853312
 21
101.7979622854843
 31
0.0
  0
LINE
  5
17A
330
1F
100
AcDbEntity
  8
JISSEN
  6
Continuous
 62
     3
100
AcDbLine
 10
115.1580077853312
 20
107.7979622854843
 30
0.0
 11
121.1580077853312
 21
107.7979622854843
 31
0.0
  0
LINE
  5
17B
330
1F
100
AcDbEntity
  8
JISSEN
  6
Continuous
 62
     7
100
AcDbLine
 10
134.1580077853312
 20
93.14796228548428
 30
0.0
 11
134.1580077853312
 21
83.89796228548428
 31
0.0
  0
LINE
  5
17C
330
1F
100
AcDbEntity
  8
JISSEN
  6
Continuous
 62
     7
100
AcDbLine
 10
133.6580077853312
 20
92.99796228548428
 30
0.0
 11
133.6580077853312
 21
86.5979622854843
 31
0.0
  0
LINE
  5
17D
330
1F
100
AcDbEntity
  8
JISSEN
  6
Continuous
 62
     3
100
AcDbLine
 10
125.1580077853312
 20
107.7979622854843
 30
0.0
 11
125.1580077853312
 21
101.7979622854843
 31
0.0
  0
LINE
  5
17E
330
1F
100
AcDbEntity
  8
JISSEN
  6
Continuous
 62
     3
100
AcDbLine
 10
121.1580077853312
 20
107.7979622854843
 30
0.0
 11
121.1580077853312
 21
101.7979622854843
 31
0.0
  0
LINE
  5
17F
330
1F
100
AcDbEntity
  8
JISSEN
  6
Continuous
 62
     7
100
AcDbLine
 10
112.1580077853312
 20
108.1200182854843
 30
0.0
 11
111.1792437853311
 21
108.1200182854843
 31
0.0
  0
LINE
  5
180
330
1F
100
AcDbEntity
  8
JISSEN
  6
Continuous
 62
     7
100
AcDbLine
 10
135.1252107853312
 20
108.1200182854843
 30
0.0
 11
134.1580077853312
 21
108.1200182854843
 31
0.0
  0
LINE
  5
181
330
1F
100
AcDbEntity
  8
JISSEN
  6
Continuous
 62
     7
100
AcDbLine
 10
131.5080077853312
 20
107.9979622854843
 30
0.0
 11
131.5080077853312
 21
101.5979622854843
 31
0.0
  0
LINE
  5
182
330
1F
100
AcDbEntity
  8
JISSEN
  6
Continuous
 62
     7
100
AcDbLine
 10
114.8080077853311
 20
107.9979622854843
 30
0.0
 11
114.8080077853311
 21
101.5979622854843
 31
0.0
  0
LINE
  5
183
330
1F
100
AcDbEntity
  8
JISSEN
  6
Continuous
 62
     7
100
AcDbLine
 10
114.2080077853311
 20
107.9979622854843
 30
0.0
 11
114.2080077853311
 21
101.5979622854843
 31
0.0
  0
LINE
  5
184
330
1F
100
AcDbEntity
  8
JISSEN
  6
Continuous
 62
     7
100
AcDbLine
 10
112.1580077853312
 20
93.14796228548428
 30
0.0
 11
112.1580077853312
 21
83.89796228548428
 31
0.0
  0
LINE
  5
185
330
1F
100
AcDbEntity
  8
JISSEN
  6
Continuous
 62
     7
100
AcDbLine
 10
112.6580077853312
 20
92.99796228548428
 30
0.0
 11
112.6580077853312
 21
86.5979622854843
 31
0.0
  0
LINE
  5
186
330
1F
100
AcDbEntity
  8
JISSEN
  6
Continuous
 62
     7
100
AcDbLine
 10
135.6464477853311
 20
109.5360552854843
 30
0.0
 11
135.6464477853311
 21
108.9979622854843
 31
0.0
  0
LINE
  5
187
330
1F
100
AcDbEntity
  8
JISSEN
  6
Continuous
 62
     7
100
AcDbLine
 10
110.6580077853312
 20
109.3979622854843
 30
0.0
 11
110.6580077853312
 21
108.9979622854843
 31
0.0
  0
LINE
  5
188
330
1F
100
AcDbEntity
  8
JISSEN
  6
Continuous
 62
     7
100
AcDbLine
 10
133.6580077853312
 20
107.9979622854843
 30
0.0
 11
133.6580077853312
 21
101.5979622854843
 31
0.0
  0
LINE
  5
189
330
1F
100
AcDbEntity
  8
JISSEN
  6
Continuous
 62
     7
100
AcDbLine
 10
112.6580077853312
 20
107.9979622854843
 30
0.0
 11
112.6580077853312
 21
101.5979622854843
 31
0.0
  0
LINE
  5
18A
330
1F
100
AcDbEntity
  8
JISSEN
  6
Continuous
 62
     7
100
AcDbLine
 10
111.1580077853312
 20
100.4979622854843
 30
0.0
 11
111.1580077853312
 21
94.0979622854843
 31
0.0
  0
LINE
  5
18B
330
1F
100
AcDbEntity
  8
JISSEN
  6
Continuous
 62
     7
100
AcDbLine
 10
132.1080077853311
 20
107.9979622854843
 30
0.0
 11
132.1080077853311
 21
101.5979622854843
 31
0.0
  0
LINE
  5
18C
330
1F
100
AcDbEntity
  8
JISSEN
  6
Continuous
 62
     7
100
AcDbLine
 10
135.1580077853312
 20
100.4979622854843
 30
0.0
 11
135.1580077853312
 21
94.0979622854843
 31
0.0
  0
LINE
  5
18D
330
1F
100
AcDbEntity
  8
JISSEN
  6
Continuous
 62
     7
100
AcDbLine
 10
110.6580077853312
 20
101.4479622854843
 30
0.0
 11
110.6580077853312
 21
93.14796228548428
 31
0.0
  0
LINE
  5
18E
330
1F
100
AcDbEntity
  8
JISSEN
  6
Continuous
 62
     7
100
AcDbLine
 10
135.6580077853312
 20
101.4479622854843
 30
0.0
 11
135.6580077853312
 21
93.14796228548428
 31
0.0
  0
LINE
  5
18F
330
1F
100
AcDbEntity
  8
JISSEN
  6
Continuous
 62
     7
100
AcDbLine
 10
110.6580077853312
 20
100.4979622854843
 30
0.0
 11
135.6580077853312
 21
100.4979622854843
 31
0.0
  0
LINE
  5
190
330
1F
100
AcDbEntity
  8
JISSEN
  6
Continuous
 62
     7
100
AcDbLine
 10
110.6580077853312
 20
94.0979622854843
 30
0.0
 11
135.6580077853312
 21
94.0979622854843
 31
0.0
  0
LINE
  5
191
330
1F
100
AcDbEntity
  8
JISSEN
  6
Continuous
 62
     7
100
AcDbLine
 10
112.1580077853312
 20
86.5979622854843
 30
0.0
 11
134.1580077853312
 21
86.5979622854843
 31
0.0
  0
LINE
  5
192
330
1F
100
AcDbEntity
  8
JISSEN
  6
Continuous
 62
     7
100
AcDbLine
 10
112.1580077853312
 20
107.9979622854843
 30
0.0
 11
134.1580077853312
 21
107.9979622854843
 31
0.0
  0
LINE
  5
193
330
1F
100
AcDbEntity
  8
JISSEN
  6
Continuous
 62
     7
100
AcDbLine
 10
110.6580077853312
 20
101.4479622854843
 30
0.0
 11
135.6580077853312
 21
101.4479622854843
 31
0.0
  0
LINE
  5
194
330
1F
100
AcDbEntity
  8
JISSEN
  6
Continuous
 62
     7
100
AcDbLine
 10
110.6580077853312
 20
100.6479622854843
 30
0.0
 11
135.6580077853312
 21
100.6479622854843
 31
0.0
  0
LINE
  5
195
330
1F
100
AcDbEntity
  8
JISSEN
  6
Continuous
 62
     7
100
AcDbLine
 10
110.6580077853312
 20
93.94796228548429
 30
0.0
 11
135.6580077853312
 21
93.94796228548429
 31
0.0
  0
LINE
  5
196
330
1F
100
AcDbEntity
  8
JISSEN
  6
Continuous
 62
     7
100
AcDbLine
 10
110.6580077853312
 20
93.14796228548428
 30
0.0
 11
135.6580077853312
 21
93.14796228548428
 31
0.0
  0
LINE
  5
197
330
1F
100
AcDbEntity
  8
JISSEN
  6
Continuous
 62
     7
100
AcDbLine
 10
112.1580077853312
 20
101.5979622854843
 30
0.0
 11
134.1580077853312
 21
101.5979622854843
 31
0.0
  0
LINE
  5
198
330
1F
100
AcDbEntity
  8
JISSEN
  6
Continuous
 62
     7
100
AcDbLine
 10
112.1580077853312
 20
92.99796228548428
 30
0.0
 11
134.1580077853312
 21
92.99796228548428
 31
0.0
  0
LINE
  5
199
330
1F
100
AcDbEntity
  8
JISSEN
  6
Continuous
 62
     7
100
AcDbLine
 10
112.1580077853312
 20
86.44796228548429
 30
0.0
 11
134.1580077853312
 21
86.44796228548429
 31
0.0
  0
LINE
  5
19A
330
1F
100
AcDbEntity
  8
JISSEN
  6
Continuous
 62
     3
100
AcDbLine
 10
131.1580077853312
 20
107.7979622854843
 30
0.0
 11
131.1580077853312
 21
101.7979622854843
 31
0.0
  0
LINE
  5
19B
330
1F
100
AcDbEntity
  8
JISSEN
  6
Continuous
 62
     3
100
AcDbLine
 10
115.1580077853312
 20
107.7979622854843
 30
0.0
 11
115.1580077853312
 21
101.7979622854843
 31
0.0
  0
LINE
  5
19C
330
1F
100
AcDbEntity
  8
JISSEN
  6
Continuous
 62
     7
100
AcDbLine
 10
111.1312247853311
 20
108.1479622854843
 30
0.0
 11
135.1732297853312
 21
108.1479622854843
 31
0.0
  0
LINE
  5
19D
330
1F
100
AcDbEntity
  8
JISSEN
  6
Continuous
 62
     7
100
AcDbLine
 10
129.1580077853312
 20
83.94796228548429
 30
0.0
 11
117.1580077853312
 21
83.94796228548429
 31
0.0
  0
LINE
  5
19E
330
1F
100
AcDbEntity
  8
JISSEN
  6
Continuous
 62
     7
100
AcDbLine
 10
110.6580077853312
 20
109.5479622854843
 30
0.0
 11
109.1580077853312
 21
109.5479622854843
 31
0.0
  0
LINE
  5
19F
330
1F
100
AcDbEntity
  8
JISSEN
  6
Continuous
 62
     7
100
AcDbLine
 10
114.1580077853312
 20
112.3979622854843
 30
0.0
 11
113.6580077853312
 21
112.3979622854843
 31
0.0
  0
LINE
  5
1A0
330
1F
100
AcDbEntity
  8
JISSEN
  6
Continuous
 62
     7
100
AcDbLine
 10
131.1580077853312
 20
110.0979622854843
 30
0.0
 11
115.1580077853312
 21
110.0979622854843
 31
0.0
  0
LINE
  5
1A1
330
1F
100
AcDbEntity
  8
JISSEN
  6
Continuous
 62
     7
100
AcDbLine
 10
132.6580077853312
 20
112.3979622854843
 30
0.0
 11
132.1580077853312
 21
112.3979622854843
 31
0.0
  0
LINE
  5
1A2
330
1F
100
AcDbEntity
  8
JISSEN
  6
Continuous
 62
     7
100
AcDbLine
 10
112.1580077853312
 20
108.1200182854843
 30
0.0
 11
112.1580077853312
 21
101.4479622854843
 31
0.0
  0
LINE
  5
1A3
330
1F
100
AcDbEntity
  8
JISSEN
  6
Continuous
 62
     7
100
AcDbLine
 10
134.1580077853312
 20
108.1200182854843
 30
0.0
 11
134.1580077853312
 21
101.4479622854843
 31
0.0
  0
LINE
  5
1A4
330
1F
100
AcDbEntity
  8
JISSEN
  6
Continuous
 62
     7
100
AcDbLine
 10
115.1580077853312
 20
111.3979622854843
 30
0.0
 11
115.1580077853312
 21
110.0979622854843
 31
0.0
  0
LINE
  5
1A5
330
1F
100
AcDbEntity
  8
JISSEN
  6
Continuous
 62
     7
100
AcDbLine
 10
131.1580077853312
 20
111.3979622854843
 30
0.0
 11
131.1580077853312
 21
110.0979622854843
 31
0.0
  0
LINE
  5
1A6
330
1F
100
AcDbEntity
  8
JISSEN
  6
Continuous
 62
     7
100
AcDbLine
 10
110.6580077853312
 20
109.3979622854843
 30
0.0
 11
110.6580077853312
 21
109.1479622854843
 31
0.0
  0
LINE
  5
1A7
330
1F
100
AcDbEntity
  8
JISSEN
  6
Continuous
 62
     7
100
AcDbLine
 10
135.4080077853312
 20
113.9668232854843
 30
0.0
 11
135.4080077853312
 21
110.5969202854843
 31
0.0
  0
LINE
  5
1A8
330
1F
100
AcDbEntity
  8
ITTEN
  6
DASH_CENTER
 62
     3
100
AcDbLine
 10
99.07500178533121
 20
115.5479622854843
 30
0.0
 11
147.2410127853311
 21
115.5479622854843
 31
0.0
  0
LINE
  5
1A9
330
1F
100
AcDbEntity
  8
JISSEN
  6
Continuous
 62
     3
100
AcDbLine
 10
133.5080077853312
 20
117.3479622854843
 30
0.0
 11
132.8080077853311
 21
117.3479622854843
 31
0.0
  0
LINE
  5
1AA
330
1F
100
AcDbEntity
  8
JISSEN
  6
Continuous
 62
     3
100
AcDbLine
 10
132.8080077853311
 20
117.3479622854843
 30
0.0
 11
132.8080077853311
 21
116.5979622854843
 31
0.0
  0
LINE
  5
1AB
330
1F
100
AcDbEntity
  8
JISSEN
  6
Continuous
 62
     3
100
AcDbLine
 10
133.5080077853312
 20
116.5979622854843
 30
0.0
 11
133.5080077853312
 21
117.3479622854843
 31
0.0
  0
LINE
  5
1AC
330
1F
100
AcDbEntity
  8
JISSEN
  6
Continuous
 62
     3
100
AcDbLine
 10
134.9580077853311
 20
115.8979622854843
 30
0.0
 11
134.2080077853311
 21
115.8979622854843
 31
0.0
  0
LINE
  5
1AD
330
1F
100
AcDbEntity
  8
JISSEN
  6
Continuous
 62
     3
100
AcDbLine
 10
132.1080077853311
 20
115.8979622854843
 30
0.0
 11
131.3580077853311
 21
115.8979622854843
 31
0.0
  0
LINE
  5
1AE
330
1F
100
AcDbEntity
  8
JISSEN
  6
Continuous
 62
     3
100
AcDbLine
 10
132.8080077853311
 20
113.7479622854843
 30
0.0
 11
133.5080077853312
 21
113.7479622854843
 31
0.0
  0
LINE
  5
1AF
330
1F
100
AcDbEntity
  8
JISSEN
  6
Continuous
 62
     3
100
AcDbLine
 10
132.8080077853311
 20
114.4979622854843
 30
0.0
 11
132.8080077853311
 21
113.7479622854843
 31
0.0
  0
LINE
  5
1B0
330
1F
100
AcDbEntity
  8
JISSEN
  6
Continuous
 62
     3
100
AcDbLine
 10
133.5080077853312
 20
113.7479622854843
 30
0.0
 11
133.5080077853312
 21
114.4979622854843
 31
0.0
  0
LINE
  5
1B1
330
1F
100
AcDbEntity
  8
JISSEN
  6
Continuous
 62
     3
100
AcDbLine
 10
134.2080077853311
 20
115.1979622854843
 30
0.0
 11
134.9580077853311
 21
115.1979622854843
 31
0.0
  0
LINE
  5
1B2
330
1F
100
AcDbEntity
  8
JISSEN
  6
Continuous
 62
     3
100
AcDbLine
 10
131.3580077853311
 20
115.1979622854843
 30
0.0
 11
132.1080077853311
 21
115.1979622854843
 31
0.0
  0
LINE
  5
1B3
330
1F
100
AcDbEntity
  8
JISSEN
  6
Continuous
 62
     3
100
AcDbLine
 10
134.9580077853311
 20
115.1979622854843
 30
0.0
 11
134.9580077853311
 21
115.8979622854843
 31
0.0
  0
LINE
  5
1B4
330
1F
100
AcDbEntity
  8
JISSEN
  6
Continuous
 62
     3
100
AcDbLine
 10
131.3580077853311
 20
115.8979622854843
 30
0.0
 11
131.3580077853311
 21
115.1979622854843
 31
0.0
  0
LINE
  5
1B5
330
1F
100
AcDbEntity
  8
JISSEN
  6
Continuous
 62
     7
100
AcDbLine
 10
137.3480077853311
 20
119.2763132854843
 30
0.0
 11
137.3480077853311
 21
109.5479622854843
 31
0.0
  0
LINE
  5
1B6
330
1F
100
AcDbEntity
  8
JISSEN
  6
Continuous
 62
     7
100
AcDbLine
 10
135.4080077853312
 20
121.0131052854843
 30
0.0
 11
135.4080077853312
 21
117.1291012854843
 31
0.0
  0
LINE
  5
1B7
330
1F
100
AcDbEntity
  8
JISSEN
  6
Continuous
 62
     7
100
AcDbLine
 10
137.1580077853312
 20
109.5479622854843
 30
0.0
 11
135.6580077853312
 21
109.5479622854843
 31
0.0
  0
LINE
  5
1B8
330
1F
100
AcDbEntity
  8
JISSEN
  6
Continuous
 62
     7
100
AcDbLine
 10
133.1580077853312
 20
121.5479622854843
 30
0.0
 11
113.1580077853312
 21
121.5479622854843
 31
0.0
  0
LINE
  5
1B9
330
1F
100
AcDbEntity
  8
JISSEN
  6
Continuous
 62
     7
100
AcDbLine
 10
135.7580077853312
 20
90.29796228548429
 30
0.0
 11
135.7580077853312
 21
88.29796228548429
 31
0.0
  0
LINE
  5
1BA
330
1F
100
AcDbEntity
  8
JISSEN
  6
Continuous
 62
     7
100
AcDbLine
 10
140.5580077853311
 20
90.29796228548429
 30
0.0
 11
140.5580077853311
 21
88.29796228548429
 31
0.0
  0
LINE
  5
1BB
330
1F
100
AcDbEntity
  8
JISSEN
  6
Continuous
 62
     7
100
AcDbLine
 10
105.7580077853312
 20
90.29796228548429
 30
0.0
 11
105.7580077853312
 21
88.29796228548429
 31
0.0
  0
LINE
  5
1BC
330
1F
100
AcDbEntity
  8
JISSEN
  6
Continuous
 62
     7
100
AcDbLine
 10
110.5580077853311
 20
90.29796228548429
 30
0.0
 11
110.5580077853311
 21
88.29796228548429
 31
0.0
  0
LINE
  5
1BD
330
1F
100
AcDbEntity
  8
JISSEN
  6
Continuous
 62
     7
100
AcDbLine
 10
127.6970047853312
 20
111.5479622854843
 30
0.0
 11
118.6190097853312
 21
111.5479622854843
 31
0.0
  0
LINE
  5
1BE
330
1F
100
AcDbEntity
  8
JISSEN
  6
Continuous
 62
     7
100
AcDbLine
 10
127.6970047853312
 20
119.5479622854843
 30
0.0
 11
118.6190097853312
 21
119.5479622854843
 31
0.0
  0
LINE
  5
1BF
330
1F
100
AcDbEntity
  8
ITTEN
  6
DASH_CENTER
 62
     3
100
AcDbLine
 10
123.1580077853312
 20
127.5479622854843
 30
0.0
 11
123.1580077853312
 21
106.5479622854843
 31
0.0
  0
LINE
  5
1C0
330
1F
100
AcDbEntity
  8
JISSEN
  6
Continuous
 62
     7
100
AcDbLine
 10
131.6580077853312
 20
122.5479622854843
 30
0.0
 11
114.6580077853312
 21
122.5479622854843
 31
0.0
  0
LINE
  5
1C1
330
1F
100
AcDbEntity
  8
JISSEN
  6
Continuous
 62
     7
100
AcDbLine
 10
138.1580077853312
 20
80.54796228548429
 30
0.0
 11
108.1580077853312
 21
80.54796228548429
 31
0.0
  0
LINE
  5
1C2
330
1F
100
AcDbEntity
  8
JISSEN
  6
Continuous
 62
     7
100
AcDbLine
 10
108.1580077853312
 20
116.5479622854843
 30
0.0
 11
108.1580077853312
 21
110.5479622854843
 31
0.0
  0
LINE
  5
1C3
330
1F
100
AcDbEntity
  8
JISSEN
  6
Continuous
 62
     7
100
AcDbLine
 10
138.1580077853312
 20
116.5479622854843
 30
0.0
 11
138.1580077853312
 21
110.5479622854843
 31
0.0
  0
LINE
  5
1C4
330
1F
100
AcDbEntity
  8
JISSEN
  6
Continuous
 62
     7
100
AcDbLine
 10
103.1580077853312
 20
111.0479622854843
 30
0.0
 11
103.1580077853312
 21
85.54796228548429
 31
0.0
  0
LINE
  5
1C5
330
1F
100
AcDbEntity
  8
JISSEN
  6
Continuous
 62
     7
100
AcDbLine
 10
143.1580077853312
 20
111.0479622854843
 30
0.0
 11
143.1580077853312
 21
85.54796228548429
 31
0.0
  0
LINE
  5
1C6
330
1F
100
AcDbEntity
  8
JISSEN
  6
Continuous
 62
     3
100
AcDbLine
 10
112.8080077853311
 20
117.3479622854843
 30
0.0
 11
112.8080077853311
 21
116.5979622854843
 31
0.0
  0
LINE
  5
1C7
330
1F
100
AcDbEntity
  8
JISSEN
  6
Continuous
 62
     3
100
AcDbLine
 10
112.1080077853311
 20
115.8979622854843
 30
0.0
 11
111.3580077853311
 21
115.8979622854843
 31
0.0
  0
LINE
  5
1C8
330
1F
100
AcDbEntity
  8
JISSEN
  6
Continuous
 62
     3
100
AcDbLine
 10
111.3580077853311
 20
115.8979622854843
 30
0.0
 11
111.3580077853311
 21
115.1979622854843
 31
0.0
  0
LINE
  5
1C9
330
1F
100
AcDbEntity
  8
JISSEN
  6
Continuous
 62
     3
100
AcDbLine
 10
111.3580077853311
 20
115.1979622854843
 30
0.0
 11
112.1080077853311
 21
115.1979622854843
 31
0.0
  0
LINE
  5
1CA
330
1F
100
AcDbEntity
  8
JISSEN
  6
Continuous
 62
     3
100
AcDbLine
 10
112.8080077853311
 20
114.4979622854843
 30
0.0
 11
112.8080077853311
 21
113.7479622854843
 31
0.0
  0
LINE
  5
1CB
330
1F
100
AcDbEntity
  8
JISSEN
  6
Continuous
 62
     3
100
AcDbLine
 10
112.8080077853311
 20
113.7479622854843
 30
0.0
 11
113.5080077853312
 21
113.7479622854843
 31
0.0
  0
LINE
  5
1CC
330
1F
100
AcDbEntity
  8
JISSEN
  6
Continuous
 62
     3
100
AcDbLine
 10
113.5080077853312
 20
113.7479622854843
 30
0.0
 11
113.5080077853312
 21
114.4979622854843
 31
0.0
  0
LINE
  5
1CD
330
1F
100
AcDbEntity
  8
JISSEN
  6
Continuous
 62
     3
100
AcDbLine
 10
114.2080077853311
 20
115.1979622854843
 30
0.0
 11
114.9580077853311
 21
115.1979622854843
 31
0.0
  0
LINE
  5
1CE
330
1F
100
AcDbEntity
  8
JISSEN
  6
Continuous
 62
     3
100
AcDbLine
 10
114.9580077853311
 20
115.1979622854843
 30
0.0
 11
114.9580077853311
 21
115.8979622854843
 31
0.0
  0
LINE
  5
1CF
330
1F
100
AcDbEntity
  8
JISSEN
  6
Continuous
 62
     3
100
AcDbLine
 10
114.9580077853311
 20
115.8979622854843
 30
0.0
 11
114.2080077853311
 21
115.8979622854843
 31
0.0
  0
LINE
  5
1D0
330
1F
100
AcDbEntity
  8
JISSEN
  6
Continuous
 62
     3
100
AcDbLine
 10
113.5080077853312
 20
116.5979622854843
 30
0.0
 11
113.5080077853312
 21
117.3479622854843
 31
0.0
  0
LINE
  5
1D1
330
1F
100
AcDbEntity
  8
JISSEN
  6
Continuous
 62
     3
100
AcDbLine
 10
113.5080077853312
 20
117.3479622854843
 30
0.0
 11
112.8080077853311
 21
117.3479622854843
 31
0.0
  0
LINE
  5
1D2
330
1F
100
AcDbEntity
  8
JISSEN
  6
Continuous
 62
     3
100
AcDbLine
 10
118.5080077853312
 20
106.2979622854843
 30
0.0
 11
117.8080077853311
 21
106.2979622854843
 31
0.0
  0
LINE
  5
1D3
330
1F
100
AcDbEntity
  8
JISSEN
  6
Continuous
 62
     3
100
AcDbLine
 10
116.6580077853312
 20
105.1479622854843
 30
0.0
 11
116.6580077853312
 21
104.4479622854843
 31
0.0
  0
LINE
  5
1D4
330
1F
100
AcDbEntity
  8
JISSEN
  6
Continuous
 62
     3
100
AcDbLine
 10
118.5080077853312
 20
103.2979622854843
 30
0.0
 11
117.8080077853311
 21
103.2979622854843
 31
0.0
  0
LINE
  5
1D5
330
1F
100
AcDbEntity
  8
JISSEN
  6
Continuous
 62
     3
100
AcDbLine
 10
119.6580077853312
 20
105.1479622854843
 30
0.0
 11
119.6580077853312
 21
104.4479622854843
 31
0.0
  0
LINE
  5
1D6
330
1F
100
AcDbEntity
  8
JISSEN
  6
Continuous
 62
     3
100
AcDbLine
 10
118.5080077853312
 20
91.29796228548429
 30
0.0
 11
117.8080077853311
 21
91.29796228548429
 31
0.0
  0
LINE
  5
1D7
330
1F
100
AcDbEntity
  8
JISSEN
  6
Continuous
 62
     3
100
AcDbLine
 10
116.6580077853312
 20
90.14796228548428
 30
0.0
 11
116.6580077853312
 21
89.44796228548429
 31
0.0
  0
LINE
  5
1D8
330
1F
100
AcDbEntity
  8
JISSEN
  6
Continuous
 62
     3
100
AcDbLine
 10
118.5080077853312
 20
88.29796228548429
 30
0.0
 11
117.8080077853311
 21
88.29796228548429
 31
0.0
  0
LINE
  5
1D9
330
1F
100
AcDbEntity
  8
JISSEN
  6
Continuous
 62
     3
100
AcDbLine
 10
119.6580077853312
 20
90.14796228548428
 30
0.0
 11
119.6580077853312
 21
89.44796228548429
 31
0.0
  0
LINE
  5
1DA
330
1F
100
AcDbEntity
  8
JISSEN
  6
Continuous
 62
     3
100
AcDbLine
 10
128.5080077853312
 20
91.29796228548429
 30
0.0
 11
127.8080077853311
 21
91.29796228548429
 31
0.0
  0
LINE
  5
1DB
330
1F
100
AcDbEntity
  8
JISSEN
  6
Continuous
 62
     3
100
AcDbLine
 10
126.6580077853312
 20
90.14796228548428
 30
0.0
 11
126.6580077853312
 21
89.44796228548429
 31
0.0
  0
LINE
  5
1DC
330
1F
100
AcDbEntity
  8
JISSEN
  6
Continuous
 62
     3
100
AcDbLine
 10
128.5080077853312
 20
88.29796228548429
 30
0.0
 11
127.8080077853311
 21
88.29796228548429
 31
0.0
  0
LINE
  5
1DD
330
1F
100
AcDbEntity
  8
JISSEN
  6
Continuous
 62
     3
100
AcDbLine
 10
129.6580077853312
 20
90.14796228548428
 30
0.0
 11
129.6580077853312
 21
89.44796228548429
 31
0.0
  0
LINE
  5
1DE
330
1F
100
AcDbEntity
  8
JISSEN
  6
Continuous
 62
     3
100
AcDbLine
 10
126.6580077853312
 20
97.64796228548428
 30
0.0
 11
126.6580077853312
 21
96.94796228548429
 31
0.0
  0
LINE
  5
1DF
330
1F
100
AcDbEntity
  8
JISSEN
  6
Continuous
 62
     3
100
AcDbLine
 10
128.5080077853312
 20
95.79796228548429
 30
0.0
 11
127.8080077853311
 21
95.79796228548429
 31
0.0
  0
LINE
  5
1E0
330
1F
100
AcDbEntity
  8
JISSEN
  6
Continuous
 62
     3
100
AcDbLine
 10
129.6580077853312
 20
97.64796228548428
 30
0.0
 11
129.6580077853312
 21
96.94796228548429
 31
0.0
  0
LINE
  5
1E1
330
1F
100
AcDbEntity
  8
JISSEN
  6
Continuous
 62
     3
100
AcDbLine
 10
128.5080077853312
 20
98.79796228548429
 30
0.0
 11
127.8080077853311
 21
98.79796228548429
 31
0.0
  0
LINE
  5
1E2
330
1F
100
AcDbEntity
  8
JISSEN
  6
Continuous
 62
     3
100
AcDbLine
 10
116.6580077853312
 20
97.64796228548428
 30
0.0
 11
116.6580077853312
 21
96.94796228548429
 31
0.0
  0
LINE
  5
1E3
330
1F
100
AcDbEntity
  8
JISSEN
  6
Continuous
 62
     3
100
AcDbLine
 10
118.5080077853312
 20
95.79796228548429
 30
0.0
 11
117.8080077853311
 21
95.79796228548429
 31
0.0
  0
LINE
  5
1E4
330
1F
100
AcDbEntity
  8
JISSEN
  6
Continuous
 62
     3
100
AcDbLine
 10
119.6580077853312
 20
97.64796228548428
 30
0.0
 11
119.6580077853312
 21
96.94796228548429
 31
0.0
  0
LINE
  5
1E5
330
1F
100
AcDbEntity
  8
JISSEN
  6
Continuous
 62
     3
100
AcDbLine
 10
118.5080077853312
 20
98.79796228548429
 30
0.0
 11
117.8080077853311
 21
98.79796228548429
 31
0.0
  0
LINE
  5
1E6
330
1F
100
AcDbEntity
  8
JISSEN
  6
Continuous
 62
     3
100
AcDbLine
 10
128.5080077853312
 20
106.2979622854843
 30
0.0
 11
127.8080077853311
 21
106.2979622854843
 31
0.0
  0
LINE
  5
1E7
330
1F
100
AcDbEntity
  8
JISSEN
  6
Continuous
 62
     3
100
AcDbLine
 10
126.6580077853312
 20
105.1479622854843
 30
0.0
 11
126.6580077853312
 21
104.4479622854843
 31
0.0
  0
LINE
  5
1E8
330
1F
100
AcDbEntity
  8
JISSEN
  6
Continuous
 62
     3
100
AcDbLine
 10
128.5080077853312
 20
103.2979622854843
 30
0.0
 11
127.8080077853311
 21
103.2979622854843
 31
0.0
  0
LINE
  5
1E9
330
1F
100
AcDbEntity
  8
JISSEN
  6
Continuous
 62
     3
100
AcDbLine
 10
129.6580077853312
 20
105.1479622854843
 30
0.0
 11
129.6580077853312
 21
104.4479622854843
 31
0.0
  0
LINE
  5
1EA
330
1F
100
AcDbEntity
  8
ITTEN
  6
DASH_CENTER
 62
     3
100
AcDbLine
 10
113.5580077853311
 20
90.54796228548429
 30
0.0
 11
102.7580077853312
 21
90.54796228548429
 31
0.0
  0
LINE
  5
1EB
330
1F
100
AcDbEntity
  8
ITTEN
  6
DASH_CENTER
 62
     3
100
AcDbLine
 10
108.1580077853312
 20
96.26600328548429
 30
0.0
 11
108.1580077853312
 21
83.14796228548428
 31
0.0
  0
LINE
  5
1EC
330
1F
100
AcDbEntity
  8
ITTEN
  6
DASH_CENTER
 62
     3
100
AcDbLine
 10
138.1580077853312
 20
96.26600328548429
 30
0.0
 11
138.1580077853312
 21
83.14796228548428
 31
0.0
  0
LINE
  5
1ED
330
1F
100
AcDbEntity
  8
ITTEN
  6
DASH_CENTER
 62
     3
100
AcDbLine
 10
143.5580077853311
 20
90.54796228548429
 30
0.0
 11
132.7580077853312
 21
90.54796228548429
 31
0.0
  0
LINE
  5
1EE
330
1F
100
AcDbEntity
  8
ITTEN
  6
DASH_CENTER
 62
     3
100
AcDbLine
 10
366.021448685903
 20
210.4278507000848
 30
0.0
 11
366.021448685903
 21
198.4278507000849
 31
0.0
  0
LINE
  5
1EF
330
1F
100
AcDbEntity
  8
ITTEN
  6
DASH_CENTER
 62
     3
100
AcDbLine
 10
366.021448685903
 20
198.4278507000849
 30
0.0
 11
366.021448685903
 21
196.4278507000849
 31
0.0
  0
LINE
  5
1F0
330
1F
100
AcDbEntity
  8
ITTEN
  6
DASH_CENTER
 62
     3
100
AcDbLine
 10
38.12788908765674
 20
198.4278507000849
 30
0.0
 11
38.12788908765674
 21
196.4278507000849
 31
0.0
  0
LINE
  5
1F1
330
1F
100
AcDbEntity
  8
ITTEN
  6
DASH_CENTER
 62
     3
100
AcDbLine
 10
38.12788908765674
 20
210.4278507000849
 30
0.0
 11
38.12788908765674
 21
198.4278507000849
 31
0.0
  0
LINE
  5
1F2
330
1F
100
AcDbEntity
  8
ITTEN
  6
DASH_CENTER
 62
     3
100
AcDbLine
 10
374.021448685903
 20
204.4278507000849
 30
0.0
 11
358.021448685903
 21
204.4278507000849
 31
0.0
  0
LINE
  5
1F3
330
1F
100
AcDbEntity
  8
ITTEN
  6
DASH_CENTER
 62
     3
100
AcDbLine
 10
46.12788908765674
 20
204.4278507000849
 30
0.0
 11
30.12788908765674
 21
204.4278507000849
 31
0.0
  0
LINE
  5
1F4
330
1F
100
AcDbEntity
  8
ITTEN
  6
DASH_CENTER
 62
     3
100
AcDbLine
 10
366.021448685903
 20
212.4278507000849
 30
0.0
 11
366.021448685903
 21
210.4278507000848
 31
0.0
  0
LINE
  5
1F5
330
1F
100
AcDbEntity
  8
ITTEN
  6
DASH_CENTER
 62
     3
100
AcDbLine
 10
38.12788908765674
 20
212.4278507000849
 30
0.0
 11
38.12788908765674
 21
210.4278507000849
 31
0.0
  0
LINE
  5
1F6
330
1F
100
AcDbEntity
  8
JISSEN
  6
Continuous
 62
     7
100
AcDbLine
 10
362.021448685903
 20
208.8999867000849
 30
0.0
 11
362.021448685903
 21
199.9557147000849
 31
0.0
  0
LINE
  5
1F7
330
1F
100
AcDbEntity
  8
JISSEN
  6
Continuous
 62
     7
100
AcDbLine
 10
42.12788908765674
 20
208.8999867000849
 30
0.0
 11
42.12788908765674
 21
199.9557147000849
 31
0.0
  0
LINE
  5
1F8
330
1F
100
AcDbEntity
  8
JISSEN
  6
Continuous
 62
     7
100
AcDbLine
 10
362.021448685903
 20
208.8999867000849
 30
0.0
 11
362.021448685903
 21
199.9557147000849
 31
0.0
  0
LINE
  5
1F9
330
1F
100
AcDbEntity
  8
JISSEN
  6
Continuous
 62
     7
100
AcDbLine
 10
370.0214486859029
 20
208.8999866478084
 30
0.0
 11
370.0214486859029
 21
199.9557147523613
 31
0.0
  0
ARC
  5
1FA
330
1F
100
AcDbEntity
  8
JISSEN
  6
Continuous
 62
     7
100
AcDbCircle
 10
263.1244737853313
 20
114.0396562854843
 30
0.0
 40
15.3902220000006
100
AcDbArc
 50
150.7998420000011
 51
170.6200649999998
  0
ARC
  5
1FB
330
1F
100
AcDbEntity
  8
JISSEN
  6
Continuous
 62
     3
100
AcDbCircle
 10
237.6899297853312
 20
89.04786228548429
 30
0.0
 40
1.99990000000011
100
AcDbArc
 50
180.0
 51
-90.0
  0
ARC
  5
1FC
330
1F
100
AcDbEntity
  8
JISSEN
  6
Continuous
 62
     3
100
AcDbCircle
 10
237.6899297853312
 20
90.54806228548429
 30
0.0
 40
1.999899999999997
100
AcDbArc
 50
90.0
 51
180.0
  0
ARC
  5
1FD
330
1F
100
AcDbEntity
  8
JISSEN
  6
Continuous
 62
     3
100
AcDbCircle
 10
237.6899297853312
 20
96.54786228548429
 30
0.0
 40
1.99990000000011
100
AcDbArc
 50
180.0
 51
-90.0
  0
ARC
  5
1FE
330
1F
100
AcDbEntity
  8
JISSEN
  6
Continuous
 62
     3
100
AcDbCircle
 10
237.6899297853312
 20
98.04806228548429
 30
0.0
 40
1.999900000000011
100
AcDbArc
 50
90.0
 51
180.0
  0
ARC
  5
1FF
330
1F
100
AcDbEntity
  8
JISSEN
  6
Continuous
 62
     3
100
AcDbCircle
 10
237.6899297853312
 20
104.0478622854843
 30
0.0
 40
1.99990000000011
100
AcDbArc
 50
180.0
 51
-90.0
  0
ARC
  5
200
330
1F
100
AcDbEntity
  8
JISSEN
  6
Continuous
 62
     3
100
AcDbCircle
 10
237.6899297853312
 20
105.5480622854843
 30
0.0
 40
1.999899999999997
100
AcDbArc
 50
90.0
 51
180.0
  0
ARC
  5
201
330
1F
100
AcDbEntity
  8
JISSEN
  6
Continuous
 62
     7
100
AcDbCircle
 10
232.3900297853312
 20
108.3444472854843
 30
0.0
 40
0.2000000000001023
100
AcDbArc
 50
180.0
 51
-90.77698600015829
  0
ARC
  5
202
330
1F
100
AcDbEntity
  8
JISSEN
  6
Continuous
 62
     7
100
AcDbCircle
 10
233.1900297853311
 20
111.3979622854843
 30
0.0
 40
1.0
100
AcDbArc
 50
90.0
 51
180.0
  0
ARC
  5
203
330
1F
100
AcDbEntity
  8
JISSEN
  6
Continuous
 62
     7
100
AcDbCircle
 10
233.6900297853311
 20
111.8979622854843
 30
0.0
 40
0.5
100
AcDbArc
 50
0.0
 51
90.0
  0
ARC
  5
204
330
1F
100
AcDbEntity
  8
JISSEN
  6
Continuous
 62
     7
100
AcDbCircle
 10
234.6900297853311
 20
110.5979622854843
 30
0.0
 40
0.5
100
AcDbArc
 50
180.0
 51
-90.0
  0
ARC
  5
205
330
1F
100
AcDbEntity
  8
JISSEN
  6
Continuous
 62
     7
100
AcDbCircle
 10
232.3900297853312
 20
93.34564728548429
 30
0.0
 40
0.2000000000001023
100
AcDbArc
 50
180.0
 51
-90.7833449999309
  0
ARC
  5
206
330
1F
100
AcDbEntity
  8
JISSEN
  6
Continuous
 62
     7
100
AcDbCircle
 10
232.3900297853312
 20
93.75027728548429
 30
0.0
 40
0.1999999999999685
100
AcDbArc
 50
90.7833449999309
 51
180.0
  0
ARC
  5
207
330
1F
100
AcDbEntity
  8
JISSEN
  6
Continuous
 62
     7
100
AcDbCircle
 10
232.3900297853312
 20
101.2502772854843
 30
0.0
 40
0.1999999999999543
100
AcDbArc
 50
90.78334499993095
 51
180.0
  0
ARC
  5
208
330
1F
100
AcDbEntity
  8
JISSEN
  6
Continuous
 62
     7
100
AcDbCircle
 10
232.3900297853312
 20
100.8456472854843
 30
0.0
 40
0.2000000000001023
100
AcDbArc
 50
180.0
 51
-90.78334499993095
  0
ARC
  5
209
330
1F
100
AcDbEntity
  8
JISSEN
  6
Continuous
 62
     7
100
AcDbCircle
 10
231.8900297853312
 20
86.25055328548427
 30
0.0
 40
0.1999999999999783
100
AcDbArc
 50
90.74729400011869
 51
180.0
  0
ARC
  5
20A
330
1F
100
AcDbEntity
  8
JISSEN
  6
Continuous
 62
     7
100
AcDbCircle
 10
232.6900297853311
 20
82.39796228548428
 30
0.0
 40
1.0
100
AcDbArc
 50
180.0
 51
-90.0
  0
ARC
  5
20B
330
1F
100
AcDbEntity
  8
NITEN
  6
PHANTOM
 62
   140
100
AcDbCircle
 10
235.9326707853312
 20
120.5479622854843
 30
0.0
 40
3.0
100
AcDbArc
 50
90.0
 51
135.0
  0
ARC
  5
20C
330
1F
100
AcDbEntity
  8
NITEN
  6
PHANTOM
 62
   140
100
AcDbCircle
 10
228.1900297853311
 20
116.3408552854843
 30
0.0
 40
0.4999999999997428
100
AcDbArc
 50
134.9999999999655
 51
180.0
  0
ARC
  5
20D
330
1F
100
AcDbEntity
  8
JISSEN
  6
PHANTOM
 62
   140
100
AcDbCircle
 10
189.7927927853311
 20
89.1400202854843
 30
0.0
 40
3.0
100
AcDbArc
 50
180.0
 51
-90.0
  0
ARC
  5
20E
330
1F
100
AcDbEntity
  8
JISSEN
  6
PHANTOM
 62
   140
100
AcDbCircle
 10
189.7927927853311
 20
103.6400202854843
 30
0.0
 40
3.0
100
AcDbArc
 50
90.0
 51
180.0
  0
ARC
  5
20F
330
1F
100
AcDbEntity
  8
JISSEN
  6
PHANTOM
 62
   140
100
AcDbCircle
 10
186.7927927853311
 20
86.1400202854843
 30
0.0
 40
2.0
100
AcDbArc
 50
180.0
 51
-90.0
  0
ARC
  5
210
330
1F
100
AcDbEntity
  8
JISSEN
  6
PHANTOM
 62
   140
100
AcDbCircle
 10
186.7927927853311
 20
106.6400202854843
 30
0.0
 40
2.0
100
AcDbArc
 50
90.0
 51
180.0
  0
ARC
  5
211
330
1F
100
AcDbEntity
  8
JISSEN
  6
PHANTOM
 62
   140
100
AcDbCircle
 10
189.6354337853312
 20
120.5479622854843
 30
0.0
 40
3.0
100
AcDbArc
 50
90.0
 51
135.0
  0
ARC
  5
212
330
1F
100
AcDbEntity
  8
JISSEN
  6
PHANTOM
 62
   140
100
AcDbCircle
 10
199.9927927853312
 20
113.6400202854843
 30
0.0
 40
7.000000000000019
100
AcDbArc
 50
-45.5846910000003
 51
0.0
  0
ARC
  5
213
330
1F
100
AcDbEntity
  8
JISSEN
  6
PHANTOM
 62
   140
100
AcDbCircle
 10
205.3927927853312
 20
85.6400202854843
 30
0.0
 40
0.5
100
AcDbArc
 50
0.0
 51
90.0
  0
ARC
  5
214
330
1F
100
AcDbEntity
  8
JISSEN
  6
PHANTOM
 62
   140
100
AcDbCircle
 10
181.8927927853312
 20
116.3408552854843
 30
0.0
 40
0.4999999999998432
100
AcDbArc
 50
134.999999999977
 51
180.0
  0
ARC
  5
215
330
1F
100
AcDbEntity
  8
NITEN
  6
PHANTOM
 62
   140
100
AcDbCircle
 10
98.15800778533119
 20
84.8479622854843
 30
0.0
 40
0.5
100
AcDbArc
 50
-90.0
 51
0.0
  0
ARC
  5
216
330
1F
100
AcDbEntity
  8
NITEN
  6
PHANTOM
 62
   140
100
AcDbCircle
 10
148.1580077853312
 20
84.8479622854843
 30
0.0
 40
0.5
100
AcDbArc
 50
180.0
 51
-90.0
  0
ARC
  5
217
330
1F
100
AcDbEntity
  8
NITEN
  6
PHANTOM
 62
   140
100
AcDbCircle
 10
148.1580077853312
 20
108.3479622854843
 30
0.0
 40
0.5
100
AcDbArc
 50
90.0
 51
180.0
  0
ARC
  5
218
330
1F
100
AcDbEntity
  8
NITEN
  6
PHANTOM
 62
   140
100
AcDbCircle
 10
98.15800778533119
 20
108.3479622854843
 30
0.0
 40
0.5
100
AcDbArc
 50
0.0
 51
90.0
  0
ARC
  5
219
330
1F
100
AcDbEntity
  8
NITEN
  6
PHANTOM
 62
   140
100
AcDbCircle
 10
154.6580077853312
 20
103.8479622854843
 30
0.0
 40
2.0
100
AcDbArc
 50
0.0
 51
90.0
  0
ARC
  5
21A
330
1F
100
AcDbEntity
  8
NITEN
  6
PHANTOM
 62
   140
100
AcDbCircle
 10
154.6580077853312
 20
89.3479622854843
 30
0.0
 40
2.0
100
AcDbArc
 50
-90.0
 51
0.0
  0
ARC
  5
21B
330
1F
100
AcDbEntity
  8
NITEN
  6
PHANTOM
 62
   140
100
AcDbCircle
 10
91.65800778533119
 20
89.3479622854843
 30
0.0
 40
2.0
100
AcDbArc
 50
180.0
 51
-90.0
  0
ARC
  5
21C
330
1F
100
AcDbEntity
  8
NITEN
  6
PHANTOM
 62
   140
100
AcDbCircle
 10
91.65800778533119
 20
103.8479622854843
 30
0.0
 40
2.0
100
AcDbArc
 50
90.0
 51
180.0
  0
ARC
  5
21D
330
1F
100
AcDbEntity
  8
NITEN
  6
PHANTOM
 62
   140
100
AcDbCircle
 10
154.6580077853312
 20
89.3479622854843
 30
0.0
 40
3.0
100
AcDbArc
 50
-90.0
 51
0.0
  0
ARC
  5
21E
330
1F
100
AcDbEntity
  8
NITEN
  6
PHANTOM
 62
   140
100
AcDbCircle
 10
154.6580077853312
 20
103.8479622854843
 30
0.0
 40
3.0
100
AcDbArc
 50
0.0
 51
90.0
  0
ARC
  5
21F
330
1F
100
AcDbEntity
  8
NITEN
  6
PHANTOM
 62
   140
100
AcDbCircle
 10
91.65800778533119
 20
89.3479622854843
 30
0.0
 40
3.0
100
AcDbArc
 50
180.0
 51
-90.0
  0
ARC
  5
220
330
1F
100
AcDbEntity
  8
NITEN
  6
PHANTOM
 62
   140
100
AcDbCircle
 10
91.65800778533119
 20
103.8479622854843
 30
0.0
 40
3.0
100
AcDbArc
 50
90.0
 51
180.0
  0
ARC
  5
221
330
1F
100
AcDbEntity
  8
NITEN
  6
PHANTOM
 62
   140
100
AcDbCircle
 10
103.6580077853312
 20
84.54796228548429
 30
0.0
 40
4.0
100
AcDbArc
 50
180.0
 51
-90.0
  0
ARC
  5
222
330
1F
100
AcDbEntity
  8
NITEN
  6
PHANTOM
 62
   140
100
AcDbCircle
 10
142.6580077853312
 20
84.54796228548429
 30
0.0
 40
4.0
100
AcDbArc
 50
-90.0
 51
0.0
  0
ARC
  5
223
330
1F
100
AcDbEntity
  8
NITEN
  6
PHANTOM
 62
   140
100
AcDbCircle
 10
144.5580077853311
 20
107.2479622854843
 30
0.0
 40
2.10000000000008
100
AcDbArc
 50
0.0
 51
90.0
  0
ARC
  5
224
330
1F
100
AcDbEntity
  8
NITEN
  6
PHANTOM
 62
   140
100
AcDbCircle
 10
101.7580077853312
 20
107.2479622854843
 30
0.0
 40
2.099999999999994
100
AcDbArc
 50
90.0
 51
180.0
  0
ARC
  5
225
330
1F
100
AcDbEntity
  8
NITEN
  6
PHANTOM
 62
   140
100
AcDbCircle
 10
131.6580077853312
 20
111.0479622854843
 30
0.0
 40
11.5
100
AcDbArc
 50
0.0
 51
90.0
  0
ARC
  5
226
330
1F
100
AcDbEntity
  8
NITEN
  6
PHANTOM
 62
   140
100
AcDbCircle
 10
114.6580077853312
 20
111.0479622854843
 30
0.0
 40
11.5
100
AcDbArc
 50
90.0
 51
180.0
  0
ARC
  5
227
330
1F
100
AcDbEntity
  8
NITEN
  6
PHANTOM
 62
   140
100
AcDbCircle
 10
131.6580077853312
 20
111.0479622854843
 30
0.0
 40
12.49999999999991
100
AcDbArc
 50
-3.34226700000032
 51
90.0
  0
ARC
  5
228
330
1F
100
AcDbEntity
  8
NITEN
  6
PHANTOM
 62
   140
100
AcDbCircle
 10
114.6580077853312
 20
111.0479622854843
 30
0.0
 40
12.5
100
AcDbArc
 50
90.0
 51
180.0
  0
ARC
  5
229
330
1F
100
AcDbEntity
  8
NITEN
  6
PHANTOM
 62
   140
100
AcDbCircle
 10
101.7580077853312
 20
107.2479622854843
 30
0.0
 40
3.099999999999994
100
AcDbArc
 50
90.0
 51
180.0
  0
ARC
  5
22A
330
1F
100
AcDbEntity
  8
NITEN
  6
PHANTOM
 62
   140
100
AcDbCircle
 10
144.5580077853311
 20
107.2479622854843
 30
0.0
 40
3.10000000000008
100
AcDbArc
 50
0.0
 51
90.0
  0
ARC
  5
22B
330
1F
100
AcDbEntity
  8
NITEN
  6
PHANTOM
 62
   140
100
AcDbCircle
 10
142.6580077853312
 20
84.54796228548429
 30
0.0
 40
5.0
100
AcDbArc
 50
-90.0
 51
0.0
  0
ARC
  5
22C
330
1F
100
AcDbEntity
  8
NITEN
  6
PHANTOM
 62
   140
100
AcDbCircle
 10
103.6580077853312
 20
84.54796228548429
 30
0.0
 40
5.0
100
AcDbArc
 50
180.0
 51
-90.0
  0
ARC
  5
22D
330
1F
100
AcDbEntity
  8
JISSEN
  6
Continuous
 62
     7
100
AcDbCircle
 10
134.6464477853311
 20
108.9979622854843
 30
0.0
 40
0.9999999999999784
100
AcDbArc
 50
-61.39532100000145
 51
0.0
  0
ARC
  5
22E
330
1F
100
AcDbEntity
  8
JISSEN
  6
Continuous
 62
     7
100
AcDbCircle
 10
111.6580077853312
 20
108.9979622854843
 30
0.0
 40
1.0
100
AcDbArc
 50
180.0
 51
-118.6046789999978
  0
ARC
  5
22F
330
1F
100
AcDbEntity
  8
JISSEN
  6
Continuous
 62
     7
100
AcDbCircle
 10
131.6580077853312
 20
83.89796228548428
 30
0.0
 40
2.5
100
AcDbArc
 50
180.0
 51
0.0
  0
ARC
  5
230
330
1F
100
AcDbEntity
  8
JISSEN
  6
Continuous
 62
     7
100
AcDbCircle
 10
114.6580077853312
 20
83.89796228548428
 30
0.0
 40
2.5
100
AcDbArc
 50
180.0
 51
0.0
  0
ARC
  5
231
330
1F
100
AcDbEntity
  8
JISSEN
  6
Continuous
 62
     7
100
AcDbCircle
 10
132.1580077853312
 20
111.3979622854843
 30
0.0
 40
1.0
100
AcDbArc
 50
90.0
 51
180.0
  0
ARC
  5
232
330
1F
100
AcDbEntity
  8
JISSEN
  6
Continuous
 62
     7
100
AcDbCircle
 10
114.1580077853312
 20
111.3979622854843
 30
0.0
 40
1.0
100
AcDbArc
 50
0.0
 51
90.0
  0
ARC
  5
233
330
1F
100
AcDbEntity
  8
JISSEN
  6
Continuous
 62
     7
100
AcDbCircle
 10
132.6580077853312
 20
109.3979622854843
 30
0.0
 40
3.000000000000047
100
AcDbArc
 50
2.86598400000026
 51
90.0
  0
ARC
  5
234
330
1F
100
AcDbEntity
  8
JISSEN
  6
Continuous
 62
     7
100
AcDbCircle
 10
113.6580077853312
 20
109.3979622854843
 30
0.0
 40
3.0
100
AcDbArc
 50
90.0
 51
180.0
  0
ARC
  5
235
330
1F
100
AcDbEntity
  8
JISSEN
  6
Continuous
 62
     3
100
AcDbCircle
 10
134.2080077853311
 20
116.5979622854843
 30
0.0
 40
0.6999999999999034
100
AcDbArc
 50
180.0
 51
-90.0
  0
ARC
  5
236
330
1F
100
AcDbEntity
  8
JISSEN
  6
Continuous
 62
     3
100
AcDbCircle
 10
132.1080077853311
 20
116.5979622854843
 30
0.0
 40
0.7000000000000028
100
AcDbArc
 50
-90.0
 51
0.0
  0
ARC
  5
237
330
1F
100
AcDbEntity
  8
JISSEN
  6
Continuous
 62
     3
100
AcDbCircle
 10
134.2080077853311
 20
114.4979622854843
 30
0.0
 40
0.6999999999999886
100
AcDbArc
 50
90.0
 51
180.0
  0
ARC
  5
238
330
1F
100
AcDbEntity
  8
JISSEN
  6
Continuous
 62
     3
100
AcDbCircle
 10
132.1080077853311
 20
114.4979622854843
 30
0.0
 40
0.7000000000000171
100
AcDbArc
 50
0.0
 51
90.0
  0
ARC
  5
239
330
1F
100
AcDbEntity
  8
JISSEN
  6
Continuous
 62
     7
100
AcDbCircle
 10
137.1580077853312
 20
110.5479622854843
 30
0.0
 40
1.0
100
AcDbArc
 50
-90.0
 51
0.0
  0
ARC
  5
23A
330
1F
100
AcDbEntity
  8
JISSEN
  6
Continuous
 62
     7
100
AcDbCircle
 10
109.1580077853312
 20
110.5479622854843
 30
0.0
 40
1.0
100
AcDbArc
 50
180.0
 51
-90.0
  0
ARC
  5
23B
330
1F
100
AcDbEntity
  8
JISSEN
  6
Continuous
 62
     7
100
AcDbCircle
 10
133.1580077853312
 20
116.5479622854843
 30
0.0
 40
5.0
100
AcDbArc
 50
0.0
 51
90.0
  0
ARC
  5
23C
330
1F
100
AcDbEntity
  8
JISSEN
  6
Continuous
 62
     7
100
AcDbCircle
 10
113.1580077853312
 20
116.5479622854843
 30
0.0
 40
5.0
100
AcDbArc
 50
90.0
 51
180.0
  0
ARC
  5
23D
330
1F
100
AcDbEntity
  8
JISSEN
  6
Continuous
 62
     7
100
AcDbCircle
 10
108.1580077853312
 20
90.29796228548429
 30
0.0
 40
2.399999999999906
100
AcDbArc
 50
0.0
 51
180.0
  0
ARC
  5
23E
330
1F
100
AcDbEntity
  8
JISSEN
  6
Continuous
 62
     7
100
AcDbCircle
 10
108.1580077853312
 20
88.29796228548429
 30
0.0
 40
2.399999999999992
100
AcDbArc
 50
180.0
 51
0.0
  0
ARC
  5
23F
330
1F
100
AcDbEntity
  8
JISSEN
  6
Continuous
 62
     7
100
AcDbCircle
 10
138.1580077853312
 20
90.29796228548429
 30
0.0
 40
2.39999999999992
100
AcDbArc
 50
0.0
 51
180.0
  0
ARC
  5
240
330
1F
100
AcDbEntity
  8
JISSEN
  6
Continuous
 62
     7
100
AcDbCircle
 10
138.1580077853312
 20
88.29796228548429
 30
0.0
 40
2.400000000000006
100
AcDbArc
 50
180.0
 51
0.0
  0
ARC
  5
241
330
1F
100
AcDbEntity
  8
JISSEN
  6
Continuous
 62
     7
100
AcDbCircle
 10
138.1580077853312
 20
85.54796228548429
 30
0.0
 40
5.0
100
AcDbArc
 50
-90.0
 51
0.0
  0
ARC
  5
242
330
1F
100
AcDbEntity
  8
JISSEN
  6
Continuous
 62
     7
100
AcDbCircle
 10
108.1580077853312
 20
85.54796228548429
 30
0.0
 40
5.0
100
AcDbArc
 50
180.0
 51
-90.0
  0
ARC
  5
243
330
1F
100
AcDbEntity
  8
JISSEN
  6
Continuous
 62
     7
100
AcDbCircle
 10
114.6580077853312
 20
111.0479622854843
 30
0.0
 40
11.5
100
AcDbArc
 50
90.0
 51
180.0
  0
ARC
  5
244
330
1F
100
AcDbEntity
  8
JISSEN
  6
Continuous
 62
     7
100
AcDbCircle
 10
131.6580077853312
 20
111.0479622854843
 30
0.0
 40
11.5
100
AcDbArc
 50
0.0
 51
90.0
  0
ARC
  5
245
330
1F
100
AcDbEntity
  8
JISSEN
  6
Continuous
 62
     7
100
AcDbCircle
 10
123.1580077853312
 20
115.5479622854843
 30
0.0
 40
6.049999999999976
100
AcDbArc
 50
138.6118260000001
 51
-138.611826
  0
ARC
  5
246
330
1F
100
AcDbEntity
  8
JISSEN
  6
Continuous
 62
     7
100
AcDbCircle
 10
123.1580077853312
 20
115.5479622854843
 30
0.0
 40
6.049999999999922
100
AcDbArc
 50
-41.38817400000055
 51
41.38817400000046
  0
ARC
  5
247
330
1F
100
AcDbEntity
  8
JISSEN
  6
Continuous
 62
     3
100
AcDbCircle
 10
112.1080077853311
 20
116.5979622854843
 30
0.0
 40
0.7000000000000028
100
AcDbArc
 50
-90.0
 51
0.0
  0
ARC
  5
248
330
1F
100
AcDbEntity
  8
JISSEN
  6
Continuous
 62
     3
100
AcDbCircle
 10
112.1080077853311
 20
114.4979622854843
 30
0.0
 40
0.7000000000000028
100
AcDbArc
 50
0.0
 51
90.0
  0
ARC
  5
249
330
1F
100
AcDbEntity
  8
JISSEN
  6
Continuous
 62
     3
100
AcDbCircle
 10
114.2080077853311
 20
114.4979622854843
 30
0.0
 40
0.6999999999999886
100
AcDbArc
 50
90.0
 51
180.0
  0
ARC
  5
24A
330
1F
100
AcDbEntity
  8
JISSEN
  6
Continuous
 62
     3
100
AcDbCircle
 10
114.2080077853311
 20
116.5979622854843
 30
0.0
 40
0.6999999999999034
100
AcDbArc
 50
180.0
 51
-90.0
  0
ARC
  5
24B
330
1F
100
AcDbEntity
  8
JISSEN
  6
Continuous
 62
     3
100
AcDbCircle
 10
119.4419227853311
 20
103.5140462854843
 30
0.0
 40
0.9585879999999742
100
AcDbArc
 50
76.97245799999682
 51
-166.9724579999968
  0
ARC
  5
24C
330
1F
100
AcDbEntity
  8
JISSEN
  6
Continuous
 62
     3
100
AcDbCircle
 10
116.8740917853312
 20
103.5140462854843
 30
0.0
 40
0.9585879999999604
100
AcDbArc
 50
-13.02754200000339
 51
103.0275419999974
  0
ARC
  5
24D
330
1F
100
AcDbEntity
  8
JISSEN
  6
Continuous
 62
     3
100
AcDbCircle
 10
119.4419227853311
 20
106.0818772854843
 30
0.0
 40
0.9585879999999742
100
AcDbArc
 50
166.9724579999968
 51
-76.97245800000242
  0
ARC
  5
24E
330
1F
100
AcDbEntity
  8
JISSEN
  6
Continuous
 62
     3
100
AcDbCircle
 10
116.8740917853312
 20
106.0818772854843
 30
0.0
 40
0.9585879999999379
100
AcDbArc
 50
-103.0275419999976
 51
13.02754200000339
  0
ARC
  5
24F
330
1F
100
AcDbEntity
  8
JISSEN
  6
Continuous
 62
     3
100
AcDbCircle
 10
119.4419227853311
 20
88.51404628548428
 30
0.0
 40
0.9585879999999604
100
AcDbArc
 50
76.97245799999662
 51
-166.9724579999968
  0
ARC
  5
250
330
1F
100
AcDbEntity
  8
JISSEN
  6
Continuous
 62
     3
100
AcDbCircle
 10
116.8740917853312
 20
88.51404628548428
 30
0.0
 40
0.9585879999999604
100
AcDbArc
 50
-13.02754200000339
 51
103.0275419999976
  0
ARC
  5
251
330
1F
100
AcDbEntity
  8
JISSEN
  6
Continuous
 62
     3
100
AcDbCircle
 10
119.4419227853311
 20
91.0818772854843
 30
0.0
 40
0.9585879999999742
100
AcDbArc
 50
166.9724579999968
 51
-76.97245800000242
  0
ARC
  5
252
330
1F
100
AcDbEntity
  8
JISSEN
  6
Continuous
 62
     3
100
AcDbCircle
 10
116.8740917853312
 20
91.0818772854843
 30
0.0
 40
0.9585879999999379
100
AcDbArc
 50
-103.0275419999976
 51
13.02754200000339
  0
ARC
  5
253
330
1F
100
AcDbEntity
  8
JISSEN
  6
Continuous
 62
     3
100
AcDbCircle
 10
129.4419227853311
 20
88.51404628548428
 30
0.0
 40
0.9585879999999668
100
AcDbArc
 50
76.97245799999496
 51
-166.9724579999966
  0
ARC
  5
254
330
1F
100
AcDbEntity
  8
JISSEN
  6
Continuous
 62
     3
100
AcDbCircle
 10
126.8740917853312
 20
88.51404628548428
 30
0.0
 40
0.9585879999999604
100
AcDbArc
 50
-13.02754200000339
 51
103.0275420000034
  0
ARC
  5
255
330
1F
100
AcDbEntity
  8
JISSEN
  6
Continuous
 62
     3
100
AcDbCircle
 10
129.4419227853311
 20
91.0818772854843
 30
0.0
 40
0.9585879999999604
100
AcDbArc
 50
166.9724579999966
 51
-76.97245799999496
  0
ARC
  5
256
330
1F
100
AcDbEntity
  8
JISSEN
  6
Continuous
 62
     3
100
AcDbCircle
 10
126.8740917853312
 20
91.0818772854843
 30
0.0
 40
0.9585879999999604
100
AcDbArc
 50
-103.0275420000034
 51
13.02754200000339
  0
ARC
  5
257
330
1F
100
AcDbEntity
  8
JISSEN
  6
Continuous
 62
     3
100
AcDbCircle
 10
129.4419227853311
 20
96.01404628548428
 30
0.0
 40
0.9585879999999668
100
AcDbArc
 50
76.97245799999496
 51
-166.9724579999966
  0
ARC
  5
258
330
1F
100
AcDbEntity
  8
JISSEN
  6
Continuous
 62
     3
100
AcDbCircle
 10
126.8740917853312
 20
96.01404628548428
 30
0.0
 40
0.9585879999999604
100
AcDbArc
 50
-13.02754200000339
 51
103.0275420000034
  0
ARC
  5
259
330
1F
100
AcDbEntity
  8
JISSEN
  6
Continuous
 62
     3
100
AcDbCircle
 10
129.4419227853311
 20
98.5818772854843
 30
0.0
 40
0.9585879999999604
100
AcDbArc
 50
166.9724579999966
 51
-76.97245799999496
  0
ARC
  5
25A
330
1F
100
AcDbEntity
  8
JISSEN
  6
Continuous
 62
     3
100
AcDbCircle
 10
126.8740917853312
 20
98.5818772854843
 30
0.0
 40
0.9585879999999604
100
AcDbArc
 50
-103.0275420000034
 51
13.02754200000339
  0
ARC
  5
25B
330
1F
100
AcDbEntity
  8
JISSEN
  6
Continuous
 62
     3
100
AcDbCircle
 10
119.4419227853311
 20
96.01404628548428
 30
0.0
 40
0.9585879999999604
100
AcDbArc
 50
76.97245799999662
 51
-166.9724579999968
  0
ARC
  5
25C
330
1F
100
AcDbEntity
  8
JISSEN
  6
Continuous
 62
     3
100
AcDbCircle
 10
116.8740917853312
 20
96.01404628548428
 30
0.0
 40
0.9585879999999604
100
AcDbArc
 50
-13.02754200000339
 51
103.0275419999976
  0
ARC
  5
25D
330
1F
100
AcDbEntity
  8
JISSEN
  6
Continuous
 62
     3
100
AcDbCircle
 10
119.4419227853311
 20
98.5818772854843
 30
0.0
 40
0.9585879999999742
100
AcDbArc
 50
166.9724579999968
 51
-76.97245800000242
  0
ARC
  5
25E
330
1F
100
AcDbEntity
  8
JISSEN
  6
Continuous
 62
     3
100
AcDbCircle
 10
116.8740917853312
 20
98.5818772854843
 30
0.0
 40
0.9585879999999379
100
AcDbArc
 50
-103.0275419999976
 51
13.02754200000339
  0
ARC
  5
25F
330
1F
100
AcDbEntity
  8
JISSEN
  6
Continuous
 62
     3
100
AcDbCircle
 10
129.4419227853311
 20
103.5140462854843
 30
0.0
 40
0.9585879999999807
100
AcDbArc
 50
76.97245799999516
 51
-166.9724579999966
  0
ARC
  5
260
330
1F
100
AcDbEntity
  8
JISSEN
  6
Continuous
 62
     3
100
AcDbCircle
 10
126.8740917853312
 20
103.5140462854843
 30
0.0
 40
0.9585879999999604
100
AcDbArc
 50
-13.02754200000339
 51
103.0275420000032
  0
ARC
  5
261
330
1F
100
AcDbEntity
  8
JISSEN
  6
Continuous
 62
     3
100
AcDbCircle
 10
129.4419227853311
 20
106.0818772854843
 30
0.0
 40
0.9585879999999604
100
AcDbArc
 50
166.9724579999966
 51
-76.97245799999496
  0
ARC
  5
262
330
1F
100
AcDbEntity
  8
JISSEN
  6
Continuous
 62
     3
100
AcDbCircle
 10
126.8740917853312
 20
106.0818772854843
 30
0.0
 40
0.9585879999999604
100
AcDbArc
 50
-103.0275420000034
 51
13.02754200000339
  0
ARC
  5
263
330
1F
100
AcDbEntity
  8
JISSEN
  6
Continuous
 62
     7
100
AcDbCircle
 10
38.12788908765674
 20
204.4278507000849
 30
0.0
 40
5.999999999999954
100
AcDbArc
 50
48.18968499999976
 51
180.0
  0
ARC
  5
264
330
1F
100
AcDbEntity
  8
JISSEN
  6
Continuous
 62
     7
100
AcDbCircle
 10
366.021448685903
 20
204.4278507000849
 30
0.0
 40
5.999999999999923
100
AcDbArc
 50
-131.8103149999987
 51
-48.1896850000005
  0
ARC
  5
265
330
1F
100
AcDbEntity
  8
JISSEN
  6
Continuous
 62
     7
100
AcDbCircle
 10
38.12788908765674
 20
204.4278507000849
 30
0.0
 40
6.000000000000028
100
AcDbArc
 50
180.0
 51
-48.1896850000003
  0
ARC
  5
266
330
1F
100
AcDbEntity
  8
JISSEN
  6
Continuous
 62
     7
100
AcDbCircle
 10
366.021448685903
 20
204.4278507000849
 30
0.0
 40
5.999999999999935
100
AcDbArc
 50
48.18968499999996
 51
131.8103149999992
  0
CIRCLE
  5
267
330
1F
100
AcDbEntity
  8
JISSEN
  6
PHANTOM
 62
   140
100
AcDbCircle
 10
196.3927927853312
 20
96.3900202854843
 30
0.0
 40
4.0
  0
CIRCLE
  5
268
330
1F
100
AcDbEntity
  8
SAISEN
  6
Continuous
 62
     3
100
AcDbCircle
 10
108.1580077853312
 20
105.5479622854843
 30
0.0
 40
1.100000000000009
  0
CIRCLE
  5
269
330
1F
100
AcDbEntity
  8
SAISEN
  6
Continuous
 62
     3
100
AcDbCircle
 10
138.1580077853312
 20
105.5479622854843
 30
0.0
 40
1.099999999999994
  0
CIRCLE
  5
26A
330
1F
100
AcDbEntity
  8
JISSEN
  6
Continuous
 62
     7
100
AcDbCircle
 10
114.6580077853312
 20
83.94796228548429
 30
0.0
 40
1.25
  0
CIRCLE
  5
26B
330
1F
100
AcDbEntity
  8
JISSEN
  6
Continuous
 62
     7
100
AcDbCircle
 10
131.6580077853312
 20
83.94796228548429
 30
0.0
 40
1.25
  0
CIRCLE
  5
26C
330
1F
100
AcDbEntity
  8
JISSEN
  6
Continuous
 62
     3
100
AcDbCircle
 10
133.1580077853312
 20
115.5479622854843
 30
0.0
 40
2.75
  0
CIRCLE
  5
26D
330
1F
100
AcDbEntity
  8
JISSEN
  6
Continuous
 62
     7
100
AcDbCircle
 10
108.1580077853312
 20
105.5479622854843
 30
0.0
 40
3.5
  0
CIRCLE
  5
26E
330
1F
100
AcDbEntity
  8
JISSEN
  6
Continuous
 62
     7
100
AcDbCircle
 10
138.1580077853312
 20
105.5479622854843
 30
0.0
 40
3.5
  0
CIRCLE
  5
26F
330
1F
100
AcDbEntity
  8
JISSEN
  6
Continuous
 62
     7
100
AcDbCircle
 10
108.1580077853312
 20
105.5479622854843
 30
0.0
 40
1.25
  0
CIRCLE
  5
270
330
1F
100
AcDbEntity
  8
JISSEN
  6
Continuous
 62
     7
100
AcDbCircle
 10
138.1580077853312
 20
105.5479622854843
 30
0.0
 40
1.25
  0
CIRCLE
  5
271
330
1F
100
AcDbEntity
  8
JISSEN
  6
Continuous
 62
     3
100
AcDbCircle
 10
113.1580077853312
 20
115.5479622854843
 30
0.0
 40
2.75
  0
CIRCLE
  5
272
330
1F
100
AcDbEntity
  8
JISSEN
  6
Continuous
 62
     3
100
AcDbCircle
 10
118.1580077853312
 20
104.7979622854843
 30
0.0
 40
2.75
  0
CIRCLE
  5
273
330
1F
100
AcDbEntity
  8
JISSEN
  6
Continuous
 62
     3
100
AcDbCircle
 10
128.1580077853312
 20
104.7979622854843
 30
0.0
 40
2.75
  0
CIRCLE
  5
274
330
1F
100
AcDbEntity
  8
JISSEN
  6
Continuous
 62
     3
100
AcDbCircle
 10
118.1580077853312
 20
89.79796228548429
 30
0.0
 40
2.75
  0
CIRCLE
  5
275
330
1F
100
AcDbEntity
  8
JISSEN
  6
Continuous
 62
     3
100
AcDbCircle
 10
128.1580077853312
 20
89.79796228548429
 30
0.0
 40
2.75
  0
CIRCLE
  5
276
330
1F
100
AcDbEntity
  8
JISSEN
  6
Continuous
 62
     3
100
AcDbCircle
 10
128.1580077853312
 20
97.29796228548429
 30
0.0
 40
2.75
  0
CIRCLE
  5
277
330
1F
100
AcDbEntity
  8
JISSEN
  6
Continuous
 62
     3
100
AcDbCircle
 10
118.1580077853312
 20
97.29796228548429
 30
0.0
 40
2.75
  0
ARC
  5
278
330
1F
100
AcDbEntity
  8
1
  6
Continuous
 62
     7
100
AcDbCircle
 10
70.78788908765674
 20
186.0778507000849
 30
0.0
 40
3.0
100
AcDbArc
 50
180.0
 51
-90.0
  0
ARC
  5
279
330
1F
100
AcDbEntity
  8
1
  6
Continuous
 62
     7
100
AcDbCircle
 10
70.78788908765674
 20
222.7778507000849
 30
0.0
 40
3.0
100
AcDbArc
 50
90.0
 51
180.0
  0
ARC
  5
27A
330
1F
100
AcDbEntity
  8
1
  6
Continuous
 62
     7
100
AcDbCircle
 10
270.7878890876567
 20
222.7778507000849
 30
0.0
 40
3.0
100
AcDbArc
 50
0.0
 51
90.0
  0
ARC
  5
27B
330
1F
100
AcDbEntity
  8
1
  6
Continuous
 62
     7
100
AcDbCircle
 10
270.7878890876567
 20
186.0778507000849
 30
0.0
 40
3.0
100
AcDbArc
 50
-90.0
 51
0.0
  0
ARC
  5
27C
330
1F
100
AcDbEntity
  8
1
  6
Continuous
 62
     7
100
AcDbCircle
 10
289.2878890876567
 20
200.9278507000849
 30
0.0
 40
1.5
100
AcDbArc
 50
-90.0
 51
0.0
  0
ARC
  5
27D
330
1F
100
AcDbEntity
  8
1
  6
Continuous
 62
     7
100
AcDbCircle
 10
289.2878890876567
 20
207.9278507000849
 30
0.0
 40
1.5
100
AcDbArc
 50
0.0
 51
90.0
  0
LINE
  5
27E
330
1F
100
AcDbEntity
  8
1
 62
     2
100
AcDbLine
 10
105.7580077853312
 20
88.29796228548429
 30
0.0
 11
104.1252158019111
 21
85.41539584898055
 31
0.0
  0
LINE
  5
27F
330
1F
100
AcDbEntity
  8
1
 62
     2
100
AcDbLine
 10
105.7580077853312
 20
88.29796228548429
 30
0.0
 11
102.902685230342
 21
86.61798251508571
 31
0.0
  0
LEADER
  5
280
330
1F
100
AcDbEntity
  8
1
  6
Continuous
 62
     2
100
AcDbLeader
  3
Standard
 71
     0
 76
     3
 10
105.7580077853312
 20
88.29796228548429
 30
0.0
 10
85.3465155069392
 20
67.54796228548429
 30
0.0
 10
71.94557849117821
 20
67.54796228548429
 30
0.0
  0
MTEXT
  5
281
330
1F
100
AcDbEntity
  8
1
 62
     2
100
AcDbMText
 10
168.9047361015815
 20
12.5
 30
0.0
 40
3.2
 41
0.0
 71
     4
 72
     1
  1
2011.8.26
  7
CONVERTER_1
 73
     1
 44
0.60024009603842
  0
MTEXT
  5
282
330
1F
100
AcDbEntity
  8
1
 62
     2
100
AcDbMText
 10
233.812332410118
 20
5.0
 30
0.0
 40
3.2
 41
0.0
 71
     4
 72
     1
  1
モータローラ
  7
CONVERTER_3
 73
     1
 44
0.60024009603842
  0
MTEXT
  5
283
330
1F
100
AcDbEntity
  8
1
 62
     2
100
AcDbMText
 10
232.5491066386065
 20
15.0
 30
0.0
 40
3.2
 41
0.0
 71
     4
 72
     1
  1
マルチベヤシリーズ
  7
CONVERTER_3
 73
     1
 44
0.60024009603842
  0
MTEXT
  5
284
330
1F
100
AcDbEntity
  8
1
 62
     2
100
AcDbMText
 10
351.3335956170124
 20
4.76282910000929
 30
0.0
 40
3.2
 41
0.0
 71
     4
 72
     1
  1
W_DM427_S_010
  7
CONVERTER_1
 73
     1
 44
0.60024009603842
  0
MTEXT
  5
286
330
1F
100
AcDbEntity
  8
1
 62
     2
100
AcDbMText
 10
297.3841693614355
 20
15.0
 30
0.0
 40
3.2
 41
0.0
 71
     4
 72
     1
  1
本体組立図 DM427 ローラ幅 200 ～ 800 mm　取付金具付
  7
CONVERTER_6
 73
     1
 44
0.60024009603842
  0
MTEXT
  5
287
330
1F
100
AcDbEntity
  8
1
 62
     2
100
AcDbMText
 10
298.5408784878734
 20
64.92739956847674
 30
0.0
 40
3.2
 41
0.0
 71
     1
 72
     1
  1
適用機種\PDM427AS\PDM427AU
  7
CONVERTER_3
 73
     1
 44
1.20048019207683
  0
MTEXT
  5
288
330
1F
100
AcDbEntity
  8
1
 62
     2
100
AcDbMText
 10
84.3465155069392
 20
68.54796228548429
 30
0.0
 40
3.2
 41
0.0
 71
     9
 72
     1
  1
2-4.8
  7
CONVERTER_1
 73
     1
 44
0.60024009603842
  0
TEXT
  5
289
330
1F
100
AcDbEntity
  8
1
 62
     2
100
AcDbText
 10
116.3674418604652
 20
136.9423168994507
 30
0.0
 40
5.0
  1
取付金具
 41
0.89
  7
CONVERTER_3
100
AcDbText
  0
DIMENSION
  5
29C
330
1F
100
AcDbEntity
  8
1
100
AcDbDimension
  2
*D02
 10
118.061632169408
 20
183.0778507000849
 30
0.0
 11
115.461632169408
 21
206.2803901767559
 31
0.0
 70
    32
  1
<>
 71
     5
 42
-1.0
 53
90.0
  3
ME10_DIM_0
100
AcDbAlignedDimension
 13
70.78788908765674
 23
225.7778507000849
 33
0.0
 14
70.78788908765674
 24
183.0778507000849
 34
0.0
 50
90.0
100
AcDbRotatedDimension
  0
DIMENSION
  5
2A9
330
1F
100
AcDbEntity
  8
1
100
AcDbDimension
  2
*D14
 10
66.65800778533112
 20
123.5479622854843
 30
0.0
 11
64.0580077853311
 21
103.5698927319007
 31
0.0
 70
    32
  1
<>
 71
     5
 42
-1.0
 53
90.0
  3
ME10_DIM_1
100
AcDbAlignedDimension
 13
103.6580077853312
 23
79.54796228548429
 33
0.0
 14
114.6580077853312
 24
123.5479622854843
 34
0.0
 50
90.0
100
AcDbRotatedDimension
  0
DIMENSION
  5
2B6
330
1F
100
AcDbEntity
  8
1
100
AcDbDimension
  2
*D25
 10
169.6580077853311
 20
115.5479622854843
 30
0.0
 11
167.0580077853311
 21
101.5805883631617
 31
0.0
 70
    32
  1
<>
 71
     5
 42
-1.0
 53
90.0
  3
ME10_DIM_2
100
AcDbAlignedDimension
 13
143.5580077853311
 23
90.54796228548429
 33
0.0
 14
147.2410127853311
 24
115.5479622854843
 34
0.0
 50
90.0
100
AcDbRotatedDimension
  0
DIMENSION
  5
2C3
330
1F
100
AcDbEntity
  8
1
100
AcDbDimension
  2
*D36
 10
108.1580077853312
 20
67.54796228548429
 30
0.0
 11
124.9367240641442
 21
70.14796228548428
 31
0.0
 70
    32
  1
<>
 71
     5
 42
-1.0
 53
0.00013888888889
  3
ME10_DIM_3
100
AcDbAlignedDimension
 13
138.1580077853312
 23
83.14796228548428
 33
0.0
 14
108.1580077853312
 24
83.14796228548428
 34
0.0
100
AcDbRotatedDimension
  0
DIMENSION
  5
2D0
330
1F
100
AcDbEntity
  8
1
100
AcDbDimension
  2
*D47
 10
98.65800778533121
 20
57.54796228548429
 30
0.0
 11
124.2427806797002
 21
60.38796228548429
 31
0.0
 70
    32
  1
<>
 71
     5
 42
-1.0
 53
0.00013888888889
  3
ME10_DIM_4
100
AcDbAlignedDimension
 13
147.6580077853312
 23
84.54796228548429
 33
0.0
 14
98.65800778533119
 24
84.54796228548429
 34
0.0
100
AcDbRotatedDimension
  0
DIMENSION
  5
2DD
330
1F
100
AcDbEntity
  8
1
100
AcDbDimension
  2
*D58
 10
88.65800778533119
 20
47.54796228548429
 30
0.0
 11
124.7054096026632
 21
50.38796228548429
 31
0.0
 70
    32
  1
<>
 71
     5
 42
-1.0
 53
0.00013888888889
  3
ME10_DIM_5
100
AcDbAlignedDimension
 13
157.6580077853312
 23
89.3479622854843
 33
0.0
 14
88.65800778533119
 24
89.3479622854843
 34
0.0
100
AcDbRotatedDimension
  0
DIMENSION
  5
2EA
330
1F
100
AcDbEntity
  8
1
100
AcDbDimension
  2
*D69
 10
227.6900297853312
 20
57.54796228548429
 30
0.0
 11
241.2183805119972
 21
60.38796228548429
 31
0.0
 70
    32
  1
<>
 71
     5
 42
-1.0
 53
0.00013888888889
  3
ME10_DIM_6
100
AcDbAlignedDimension
 13
253.2900297853312
 23
80.54796228548429
 33
0.0
 14
227.6900297853311
 24
82.34002028548429
 34
0.0
100
AcDbRotatedDimension
  0
DIMENSION
  5
2F9
330
1F
100
AcDbEntity
  8
1
100
AcDbDimension
  2
*D710
 10
250.6900297853312
 20
67.54796228548429
 30
0.0
 11
242.7259093808292
 21
70.38796228548429
 31
0.0
 70
    32
  1
<>
 71
     5
 42
-1.0
 53
0.00013888888889
  3
ME10_DIM_7
100
AcDbAlignedDimension
 13
253.2900297853312
 23
80.54796228548429
 33
0.0
 14
250.6900297853311
 24
80.54796228548429
 34
0.0
100
AcDbRotatedDimension
  0
DIMENSION
  5
306
330
1F
100
AcDbEntity
  8
1
100
AcDbDimension
  2
*D811
 10
350.0214486777683
 20
198.4278507000849
 30
0.0
 11
347.4214486777683
 21
203.619239976374
 31
0.0
 70
    32
  1
<>
 71
     5
 42
-1.0
 53
90.0
  3
ME10_DIM_8
100
AcDbAlignedDimension
 13
366.021448685903
 23
210.4278507000848
 33
0.0
 14
366.021448685903
 24
198.4278507000849
 34
0.0
 50
90.0
100
AcDbRotatedDimension
  0
DIMENSION
  5
315
330
1F
100
AcDbEntity
  8
1
100
AcDbDimension
  2
*D912
 10
362.021448685903
 20
186.427850700085
 30
0.0
 11
366.6246150544174
 21
190.051261443279
 31
0.0
 70
    32
  1
<>
 71
     5
 42
-1.0
 53
0.00013888888889
  3
ME10_DIM_9
100
AcDbAlignedDimension
 13
370.0214486859029
 23
199.9557147523613
 33
0.0
 14
362.021448685903
 24
199.9557147000849
 34
0.0
100
AcDbRotatedDimension
  0
DIMENSION
  5
322
330
1F
100
AcDbEntity
  8
1
100
AcDbDimension
  2
*D1013
 10
20.12788908765671
 20
210.4278507000849
 30
0.0
 11
17.52788908765671
 21
203.619239976374
 31
0.0
 70
    32
  1
<>
 71
     5
 42
-1.0
 53
90.0
  3
ME10_DIM_10
100
AcDbAlignedDimension
 13
38.12788908765674
 23
198.4278507000849
 33
0.0
 14
38.12788908765674
 24
210.4278507000849
 34
0.0
 50
90.0
100
AcDbRotatedDimension
  0
DIMENSION
  5
32F
330
1F
100
AcDbEntity
  8
1
100
AcDbDimension
  2
*D1114
 10
32.12788908765671
 20
186.4278507000849
 30
0.0
 11
36.96910554561714
 21
190.051261443279
 31
0.0
 70
    32
  1
<>
 71
     5
 42
-1.0
 53
0.00013888888889
  3
ME10_DIM_11
100
AcDbAlignedDimension
 13
42.12788908765674
 23
199.9557147000849
 33
0.0
 14
32.12788908765671
 24
204.4278507000849
 34
0.0
100
AcDbRotatedDimension
  0
DIMENSION
  5
33C
330
1F
100
AcDbEntity
  8
1
100
AcDbDimension
  2
*D1215
 10
53.78788908765677
 20
171.0778507000849
 30
0.0
 11
56.79788908765674
 21
173.6778507000849
 31
0.0
 70
    32
  1
<>
 71
     5
 42
-1.0
 53
0.00013888888889
  3
ME10_DIM_12
100
AcDbAlignedDimension
 13
65.78788908765674
 23
194.4278507000849
 33
0.0
 14
53.78788908765676
 24
199.4278507000849
 34
0.0
100
AcDbRotatedDimension
  0
DIMENSION
  5
349
330
1F
100
AcDbEntity
  8
1
100
AcDbDimension
  2
*D1316
 10
287.7878890876567
 20
171.0778507000849
 30
0.0
 11
312.7878890876567
 21
173.6778507000849
 31
0.0
 70
    32
  1
<>
 71
     5
 42
-1.0
 53
0.00013888888889
  3
ME10_DIM_13
100
AcDbAlignedDimension
 13
337.7878890876567
 23
201.9278507000849
 33
0.0
 14
287.7878890876567
 24
199.4278507000849
 34
0.0
100
AcDbRotatedDimension
  0
DIMENSION
  5
356
330
1F
100
AcDbEntity
  8
1
100
AcDbDimension
  2
*D1417
 10
275.7878890876567
 20
171.0778507000849
 30
0.0
 11
281.7878890876567
 21
173.6778507000849
 31
0.0
 70
    32
  1
<>
 71
     5
 42
-1.0
 53
0.00013888888889
  3
ME10_DIM_14
100
AcDbAlignedDimension
 13
287.7878890876567
 23
199.4278507000849
 33
0.0
 14
275.7878890876567
 24
194.4278507000849
 34
0.0
100
AcDbRotatedDimension
  0
DIMENSION
  5
365
330
1F
100
AcDbEntity
  8
1
100
AcDbDimension
  2
*D1518
 10
270.7878890876567
 20
171.0778507000849
 30
0.0
 11
273.2878890876567
 21
173.6778507000849
 31
0.0
 70
    32
  1
<>
 71
     5
 42
-1.0
 53
0.00013888888889
  3
ME10_DIM_15
100
AcDbAlignedDimension
 13
275.7878890876567
 23
194.4278507000849
 33
0.0
 14
270.7878890876567
 24
183.0778507000849
 34
0.0
100
AcDbRotatedDimension
  0
DIMENSION
  5
372
330
1F
100
AcDbEntity
  8
1
100
AcDbDimension
  2
*D1619
 10
70.78788908765674
 20
171.0778507000849
 30
0.0
 11
170.7878890876567
 21
173.6778507000849
 31
0.0
 70
    32
  1
<>
 71
     5
 42
-1.0
 53
0.00013888888889
  3
ME10_DIM_16
100
AcDbAlignedDimension
 13
270.7878890876567
 23
183.0778507000849
 33
0.0
 14
70.78788908765674
 24
183.0778507000849
 34
0.0
100
AcDbRotatedDimension
  0
DIMENSION
  5
381
330
1F
100
AcDbEntity
  8
1
100
AcDbDimension
  2
*D1720
 10
65.78788908765674
 20
171.0778507000849
 30
0.0
 11
68.28788908765674
 21
173.6778507000849
 31
0.0
 70
    32
  1
<>
 71
     5
 42
-1.0
 53
0.00013888888889
  3
ME10_DIM_17
100
AcDbAlignedDimension
 13
70.78788908765674
 23
183.0778507000849
 33
0.0
 14
65.78788908765674
 24
194.4278507000849
 34
0.0
100
AcDbRotatedDimension
  0
DIMENSION
  5
390
330
1F
100
AcDbEntity
  8
1
100
AcDbDimension
  2
*D1821
 10
76.65800778533114
 20
123.5479622854843
 30
0.0
 11
74.05800778533111
 21
118.1427038052217
 31
0.0
 70
    32
  1
<>
 71
     5
 42
-1.0
 53
90.0
  3
ME10_DIM_18
100
AcDbAlignedDimension
 13
99.07500178533121
 23
115.5479622854843
 33
0.0
 14
114.6580077853312
 24
123.5479622854843
 34
0.0
 50
90.0
100
AcDbRotatedDimension
  0
DIMENSION
  5
39D
330
1F
100
AcDbEntity
  8
1
100
AcDbDimension
  2
*D1922
 10
76.65800778533108
 20
115.5479622854843
 30
0.0
 11
73.81800778533111
 21
97.54796228548429
 31
0.0
 70
    32
  1
<>
 71
     5
 42
-1.0
 53
90.0
  3
ME10_DIM_19
100
AcDbAlignedDimension
 13
103.6580077853312
 23
79.54796228548429
 33
0.0
 14
99.07500178533121
 24
115.5479622854843
 34
0.0
 50
90.0
100
AcDbRotatedDimension
  0
ENDSEC
  0
SECTION
  2
OBJECTS
  0
DICTIONARY
  5
C
330
0
100
AcDbDictionary
281
     1
  3
ACAD_GROUP
350
D
  3
ACAD_LAYOUT
350
1A
  3
ACAD_MLINESTYLE
350
17
  3
ACAD_PLOTSETTINGS
350
19
  3
ACAD_PLOTSTYLENAME
350
E
  0
DICTIONARY
  5
D
102
{ACAD_REACTORS
330
C
102
}
330
C
100
AcDbDictionary
281
     1
  0
DICTIONARY
  5
1A
102
{ACAD_REACTORS
330
C
102
}
330
C
100
AcDbDictionary
281
     1
  3
Layout1
350
1E
  3
Layout2
350
26
  3
Model
350
22
  0
DICTIONARY
  5
17
102
{ACAD_REACTORS
330
C
102
}
330
C
100
AcDbDictionary
281
     1
  3
Standard
350
18
  0
DICTIONARY
  5
19
102
{ACAD_REACTORS
330
C
102
}
330
C
100
AcDbDictionary
281
     1
  0
ACDBDICTIONARYWDFLT
  5
E
102
{ACAD_REACTORS
330
C
102
}
330
C
100
AcDbDictionary
281
     1
  3
Normal
350
F
100
AcDbDictionaryWithDefault
340
F
  0
LAYOUT
  5
1E
102
{ACAD_REACTORS
330
1A
102
}
330
1A
100
AcDbPlotSettings
  1

  2

  4

  6

 40
0.0
 41
0.0
 42
0.0
 43
0.0
 44
0.0
 45
0.0
 46
0.0
 47
0.0
 48
0.0
 49
0.0
140
0.0
141
0.0
142
1.0
143
1.0
 70
   688
 72
     0
 73
     0
 74
     5
  7

 75
    16
147
1.0
148
0.0
149
0.0
100
AcDbLayout
  1
Layout1
 70
     1
 71
     1
 10
0.0
 20
0.0
 11
0.0
 21
0.0
 12
0.0
 22
0.0
 32
0.0
 14
0.0
 24
0.0
 34
0.0
 15
0.0
 25
0.0
 35
0.0
146
0.0
 13
0.0
 23
0.0
 33
0.0
 16
1.0
 26
0.0
 36
0.0
 17
0.0
 27
1.0
 37
0.0
 76
     0
330
1B
  0
LAYOUT
  5
26
102
{ACAD_REACTORS
330
1A
102
}
330
1A
100
AcDbPlotSettings
  1

  2

  4

  6

 40
0.0
 41
0.0
 42
0.0
 43
0.0
 44
0.0
 45
0.0
 46
0.0
 47
0.0
 48
0.0
 49
0.0
140
0.0
141
0.0
142
1.0
143
1.0
 70
   688
 72
     0
 73
     0
 74
     5
  7

 75
    16
147
1.0
148
0.0
149
0.0
100
AcDbLayout
  1
Layout2
 70
     1
 71
     2
 10
0.0
 20
0.0
 11
0.0
 21
0.0
 12
0.0
 22
0.0
 32
0.0
 14
0.0
 24
0.0
 34
0.0
 15
0.0
 25
0.0
 35
0.0
146
0.0
 13
0.0
 23
0.0
 33
0.0
 16
1.0
 26
0.0
 36
0.0
 17
0.0
 27
1.0
 37
0.0
 76
     0
330
23
  0
LAYOUT
  5
22
102
{ACAD_REACTORS
330
1A
102
}
330
1A
100
AcDbPlotSettings
  1

  2

  4

  6

 40
0.0
 41
0.0
 42
0.0
 43
0.0
 44
0.0
 45
0.0
 46
0.0
 47
0.0
 48
0.0
 49
0.0
140
0.0
141
0.0
142
1.0
143
1.0
 70
  1712
 72
     0
 73
     0
 74
     0
  7

 75
     0
147
1.0
148
0.0
149
0.0
100
AcDbLayout
  1
Model
 70
     1
 71
     0
 10
0.0
 20
0.0
 11
0.0
 21
0.0
 12
0.0
 22
0.0
 32
0.0
 14
0.0
 24
-2.25615332095569
 34
0.0
 15
394.0
 25
268.0
 35
0.0
146
0.0
 13
0.0
 23
0.0
 33
0.0
 16
1.0
 26
0.0
 36
0.0
 17
0.0
 27
1.0
 37
0.0
 76
     0
330
1F
  0
MLINESTYLE
  5
18
102
{ACAD_REACTORS
330
17
102
}
330
17
100
AcDbMlineStyle
  2
Standard
 70
     0
  3

 62
   256
 51
90.0
 52
90.0
 71
     2
 49
0.5
 62
   256
  6
BYLAYER
 49
-0.5
 62
   256
  6
BYLAYER
  0
ACDBPLACEHOLDER
  5
F
102
{ACAD_REACTORS
330
E
102
}
330
E
  0
ENDSEC
  0
EOF
